&title=Blackest Luxury Car
&artist=Chicala Lpis
&first=0
&des=Blackest Luxury Mai
&lv_5=13+
&inote_5=(178){1},
{48}1b,2bx/8bx,3bx/7bxq3b[48:130],4bx/6bx-3b[48:129],A5f,,{8},{4},{2},
{1},,,
{2}D3,E3,B2/B3,C,B7/B6,E7,D7f,,
{8}3x^5[8:1]/5x,,6,7p3[8:1],,2,2,2,
{8}2q6[8:1],,6,7^5[8:1],,4,4,4,
{8}3^5[8:1],,7,6q2[8:1],,3,3,3,
{8}3x,3hx[4:1],,4^7[16:3],,2,3,4,
{8}6^4[8:1],,3,2q6[8:1],,7,7,7,
{8}7p3[8:1],,3,2^4[8:1],,5,5,5,
{8}6^4[8:1],,2,3p7[8:1],,6,6,6,
{1}6bs2s6b[4:3],
{8}3^5[8:1],,6,7p3[8:1],,1,1,1,
{8}2q6[8:1],,6,7^5[8:1],,4,4,4,
{8}3^5[8:1]/5,,7,6q2[8:1],,3,3,3,
{8}3x,3hx[4:1],,4^7[16:3],,2,3,4,
{8}5,37,{24}1x,1x,1x,1x,1x,1x,{8}1bx^4[8:1],,5x,6x,
{8}7xp3[8:1],,3,2^4[8:1],,5,5,5,
{8}6^4[8:1]/4,,2,3p7[8:1],,6,6,5,
{8}4x/8x,4x/8x,4x-7-5[8:3]/8x-3-1[8:3],4x/8x,{2},
{8}2bx/6bx,,5/3h[8:3],,4,4h[4:1],,5h[4:1],,
6,4,5,2,4,3,{16}7,6,4x/5xp5[8:3],,,,
{8},3,,1,2,3,4,5/6h[4:1],,5>1[4:1],,
{16}1,8,7,6,5h[4:1],,{8},
1,2,3,46,6,5,4,3,5/3h[4:1],,8<4[4:1],,{16}4,3,2,1,8h[4:1],,{8},
1x^6[8:1],,5,4,3-7[8:1],,4h[2:1],,1x,2x,3x>7[4:1],,{16}7,6,5,4,3h[8:3],,{8},,
{64}A7,D8/D4,A8/A4,D1f/D5,A1/A5,D2/D6,A2/A6,,{8},,,,6xh[4:1],,
3,5,4,7,5,6,{16}2,3,5x/4xq4[8:3],,,,
{8},6,,8,7,6,5,4/3h[4:1],,4<8[4:1],,
{16}8,1,2,3,4h[4:1],,{8},
8,7,6,53,3,4,5,6,4/6h[4:1],,1>5[4:1],,{16}5,6,7,8,1h[4:1],,{8},
8x^3[8:1],,4,5,6-2[8:1],,5h[2:1],,8x,7x,6x<2[4:1],,{16}2,3,4,5,6h[8:7],,{8},,
{8}8x,8x,8x,8x-5[8:1],8x,,2h[4:1],,{16}4x,3,4,3h[16:3],,,2,3,2-6b[8:1],,{8},
{32}E3,B3,B4,E5,{8}5xh[8:3],,,{16}7x,6x,7x,6x,7x,,,,
{8}7b/8b,1b/6bh[4:1],,5b,,1b/2b,3b/8b,7bh[8:7]/4b,
{8},,6x,6x,6x,6x-3[8:1],6x,,7h[4:1],,{16}5x,6,5,6h[16:3],,,7,6,7-3[8:1],,{8},
{8}5^8[8:1],,2,1^4[8:1],,4,5,6h[8:9],
{8}E5,B5,,B8/E1,,B2,B3,E4,
{1}4bx-1-3[4:5]*-7-5[4:5],,
4-2-5[4:5]/6-8-5[4:5],,
5-8-2[4:5]/7-3[4:5],,
{4}3/4<1[4:3],,,2x-6-2[4:1],,,
{8},34,1x/6x,,
{4}4/5pp4b[4:1],,{8},{16}2,3,2,3,2h[4:1],,
{8}5,5^2[8:1],,5x/6x,,7,6,5,
{8}3/4h[2:1],{48}A8,E8,,,,,E7,A7,,,,,A8,E8,,,,,
{8}1xh[8:3],{48}A5,E6,,,,,E7,A6,,,,,A5,E6,,,,,
{16}4h[32:1]/2h[32:1],,,8h[32:1]/6h[32:1],,,4h[32:1]/2h[32:1],,1x-5[8:1],1x,1x,1x,Cf,,,,
{4}4xqq5b[4:1],,{8},{16}7,6,7,6,7h[4:1],,
{8}4,4^7[8:1],,43,,2,3,4,
{8}6/5h[2:1],{48}A1,E2,,,,,E3,A2,,,,,A1,E2,,,,,
{8}8xh[8:3],{48}A4,E4,,,,,E3,A3,,,,,A4,E4,,,,,
{1}5x^6-3-8b[2:1]*^4-7-2b[2:1],
{12}1bxh[24:1],1bxh[24:1],4bxh[24:1],5bxh[24:1],1bxh[24:1],4bxh[24:1],
{8},{16}7,8,7,8,7h[4:1],,
{8}5,6^3[8:1],,6x/7x,,7,6,5,
{8}3/4h[2:1],{48}A8,E8,,,,,A6,E6,,,,,A8,E8,,,,,
{8}1xh[8:3],{48}A5,E6,,,,,A7,E8,,,,,A5,E6,,,,,
{16}3h[32:1]/2h[32:1],,,7h[32:1]/6h[32:1],,,
3h[32:1]/2h[32:1],,,7h[32:1]/6h[32:1],,{64}A1/E1/E2,B1,C,B5,{4}A5f,
{4}4xqq5b[4:1],,{8},{16}7,6,7,6,7h[4:1],,
{8}4,4^7[8:1],,43,,2,3,4,
{1}5xw1b[1:1],{2},,
{8}3x/7x,,56,5^2[8:1]/6,,5/8-4[8:1],,1,
2,3,6,7,3^8[8:1],4,5,6,
7-3[8:1],,5,5,4,3x,2,1,
6^3[8:1],7,8,1w5[8:1],,1x,,,
{8}2q6[8:1]/6,,1,8-3[8:1],,8/5p1[8:1],,
7,6,5,2,1,78,7,56,4x,
{8}4bx^2-8^6[8:3],,5x,6bx-8^2-4[8:3],,5x,4bx^2-8^6[8:3],,5x,6bx-8^2-4[8:3],,
5x,5bx-1[8:1],,5bx,,
{8}3bh[4:1],,5,5-2[8:1]/6,,5/8-4[8:1],,
1,2,3,6,7,38,2,4,5,
3/5^8[8:1],,2,3,45,6,8,2,
37,6,35,2/4-8[8:1],,1x,2x,,
{8}1/7-4[8:1],,37,3-7[8:1],,3/1-5[8:1],,
2,3,4,6,7,18,7,56,4,
{8}4x/3bx^1-7^5[8:3],,4,5bx-7^1-3[8:3],,
4,3bx^1-7^5[8:3],,4,5bx-7^1-3[8:3],,
4,4bx-8[8:1],,4bx,,
{8}2b^4-6^8b[8:3],,1b,8b-6^4-2b[8:3],,
1b,2b^4-6^8b[8:3],,1b,8b-6^4-2b[8:3],,
1b,1b-5b[8:1],,1bw5b[8:1],,{1}1b`Cf,
{8}3xh[4:1],,6,7p3[8:1],,1,1,1,
{8}2q6[8:1],,6,7^5[8:1],,4,4,4,
{8}3^5[8:1]/5,,7,6q2[8:1],,3,3,3,
{8}2x/3x,2x/3hx[4:1],,4^7[16:3],,2,3,4,
{8}6h[4:1],,3,2q6[8:1],,8,8,8,
{8}7p3[8:1],,3,2^4[8:1],,5,5,5,
{8}6^4[8:1]/4,,2,3p7[8:1],,6,6,6,
{8}6bh[8:7],,,E7/B7,,B6,B5,E5,
{1},,E
