&title=CHAOS~BOSS SCENE7
&artist=MASAKI(ZUNTATA)
&first=3.31
&des=Hanario
&lv_5=14+
&inote_5=(182)
{16},,,,,,,,,,,,,,7,3,
{8}5,5,{12}4,4,4,{8}4,3,{12}4,4,4,
{8}4,5,{12}4,4,4,{8}4,2,{12}4,4,4,
{8}4,6,{12}4z8[8:2]*V62[8:2],4,4,{8},,{12},,,
{8}2-4[8:1],4,2,6,57,{16}6,4,5,,25,,
{8}4,4-8[8:1],,4/3-1[8:1],,3/4-8[8:1],,2,
{8}2,,
{8}7-4[8:1],4,7,3,25,{16}8,1,7,,62,,
{8}5,5-1[8:1],,5/6-8[8:1],,6/5-1[8:1],,7,
{8}7,,
{8}3-8[8:1],4,3,6,71,{16}2,1,3b,,3b,,
{8}8,8-3[8:1],,7/8-5[8:1],,1/8-3[8:1],,7,
{8}7,,
{8}6-1[8:1],5,6,3,28,{16}7,8,6b,,6b,,
{8}1,1^4[8:1],,7/1^6[8:1],,3/1^4[8:1],,7,
{8}7,,
{8}1-5[8:4],1,,,6,,,,
{8}5-1[8:4],5,,,7,,,,
{8}1-5[8:4],1,,,8,,,,
{8}5-1[8:4],5,,,5,,,,
{8}1-5[8:1],18,7,6,5-1[8:1]/7-5[8:1],5,,,
{8}1-5[8:1]/7-1[8:1],1,,,5-1[8:1]/7-5[8:1],5,,,
{8}1-5[8:1],1,{24}6,7,8,{8}1V75[4:1],5-1[8:1],5,,,
{8}1-5[8:1],1,{24}1,8,7,6V47[4:1],,,{8}5-1[8:1],5,,,
{8}1-5[8:1],15,6,7,5-1[8:1]/8-4[8:1],5,,,
{8}1-5[8:1]/4-8[8:1],1,,,5-1[8:1]/8-4[8:1],5,,,
{8}1-5[8:1],1,{24}6,7,8,{8}1V75[4:1],5-1[8:1],5,,,
{8}1-5[8:1],1,{24}1,8,7,6V41[4:1],,,{8}5-1[8:1],5,,,
{8}2b/6b,4bv1[8:1]/8bv5[8:1],3b/7b,4b/8b,,4bV61[16:3]/8bV25[16:3],48,,,,
{8}7b/3b,5bv8[8:1]/1bv4[8:1],6b/2b,5b/1b,,5bV38[16:3]/1bV74[16:3],51,,,,
{8}8b/4b,6b-1[8:1]/2b-5[8:1],7b/3b,6b/2b,,6bV41[16:3]/2bV85[16:3],62,,,,
{16}2h[16:3]/5,,,3,{12},18,81,{16}7h[16:3],,,6,{12},45,45,{16}3h[16:3],,,2,
{12},1,1,8,8,2b/7b,2b/7b,2b/7b,2b/7b,,,,
{8},,,,,,,{32},,,
(230)
{8}3h[8:12],,,,,,,,
{8},,,,5h[4:1],,4h[4:1],,
{8}6h[8:12],,,,,,,,
{8},,,,8h[4:1],,7h[4:1],,
{8}1w5[4:6],,,,,,,,
(231){32},
(230)
{8},,,,,,,,
{8}2b-4[8:1],4b,2b,,,7b-5[8:1],5b,7b-3[8:1],
{8},7b,2b,1b-5[8:1],5b,1b,6b,,
{8}3h[4:1]/7,,4`8?-4[8.0869565##0.130434]*-4[8.0869565##0.130434],4h[4:1],,5,5h[4:1],,
{8}6,6h[4:1],,1,1h[4:1],,7`8?-4[6.52173913##0.130434],,
{8}6h[4:1],,5,5h[4:1],,4,4h[4:1],,
{8}3,3h[4:1],8?-4[4.95652##0.130434]*-4[4.95652##0.130434],7,7h[4:1],,2,,
{8}1h[4:1],,3,3h[4:1],,5,5h[4:1]`8?-4[3.391304347391304##0.130434],,
{8}7,7h[4:1],,1,2h[4:1],,7,,
{8}36,8?-4[1.9565152##0.130434]*-4[1.9565152##0.130434],,,,,,,
{8},,,,,,,,
{8}8b/1b,,2,,4-7[8:1]/6,5,3-8[8:1],3,
{8},6,5-1[8:1],2,3-5[8:1],,6-2[8:1],,
{8}4,,3,,5^2[8:1]/3,4,6-1[8:1],6,
{8},3,4-8[8:1],8,7-4[8:1],,3^8[8:1],,
{8}5,,6,,4-8[8:1]/6,5,2-5[8:1],1,
{8},7,8^5[8:1],3,8^3[8:1],,8,,
{8}8qq5[8:4]*pp3[8:4],8,8,,,,,,
{8},3b-7[8:1],4b,5b,6b-2[8:1],8b,1b,3b,
{8}4b,4b,2b/5b,,1^6[8:1]/7,8,3-7[8:1],4,
{8},6,5^8[8:1],4,5^2[8:1],,5,,
{8}7b/8b,8b/7b,5b/1b,,8-3[8:1]/2,1,6-2[8:1],5,
{8},3,4^1[8:1],5,4^7[8:1],,4,,
{16}2b,1b,2b,1b,{8}2b,,4-8[8:1]/6,5,3-7[8:1],2,
{8},5,6-4[8:1],7,2-5[8:1],,2,,
{8}1pp4[2:1]/8qq5[2:1],18,18,,,,,,
{8},6b^3[8:1],7b,8b,1b^6[8:1],2b,3b,4b,
{8}5,5,,4,8b,,4,,
{8}36,,,,8b,,,,
{8}2,5,3,8b,4,4,,,
{8}5,6,7,8b,1,2,,,
{8}6,,6,,1b,,5,,
{8}36,,,7,1b,8,2,2,
{8}7,,7,,1b,8,7,6,
{8}5,4,,,1b,,,,
{8}6b,{16}3,4,{8}3,7b,{16}3,4,{8}3,8b,{16}3,1,
{8}3-8[8:1],,3/6,7-3[8:1],,7/1,2,,
{8}3b,{16}6,5,{8}6,2b,{16}6,5,{8}6,1b,{16}6,8,
{8}6b,5b,4b,3b,2b,1b,,,
{8}6b,{16}3,4,{8}2,7b,{16}3,4,{8}2,8b,{16}3,4,
{8}2-4[8:1],,7/2,6-2[8:1],,64,3,,
{8}3b,{16}6,5,{8}7,2b,{16}6,5,{8}7,1b,{16}6,5,
{16}7,,4,4,5,,3,,5,5,4,,6,,,,
{6}2/6h[6:2],3,4,3,4,5,
{6}4,5,6,5,64,53,
{6}2/4h[3:1],1,8,1,8,7,
{6}7,6,5,6,35,46,
{6}7/5h[3:1],8,1,8,1,2,
{6}1,2,3,45,,,
{24}4b,35,26,17,8-4[8:10]*-4[4:5],,,,,,,,,,,,,,,,,,,,
{8},,,,,,,,
{8}2-5[8:1],7-2[8:1],2,7,3-8[8:1],6-3[8:1],3,6,
{8}1^6[8:1],2,3,4,35,84,35,4/8,
{8}6-1[8:1],3-6[8:1],6,3,7-4[8:1],2-7[8:1],7,2,
{8}5^2[8:1],6,7,8,17,48,17,8/4,
{8}2v5[8:1],7v2[8:1],2,7,3v8[8:1],6v3[8:1],3,6,
{8}1-5[8:1],2,3,4,36,58,36,58,
{8}7v4[8:1],2v7[8:1],7,2,6v1[8:1],3v6[8:1],6,3,
{8}8-4[8:1],7,6,5,63,41,63,41,
{16}6b/2b,,3,4,3,,2b/8b,,6,5,6,,2b/5b,,5,,
{16}1b/6b,,7,8,7,,6b/4b,,2,1,2,,4b/6b,,4,,
{16}2b/5b,,3,3,4,,2b/6b,,7,7,8,,1b/5b,,5,,
{16}2b/8b,,6,6,5,,7b/4b,,2,2,1,,3b/7b,,7,,
{16}1b,5,2,4,3h[8:1],,8b,4,7,5,6h[8:1],,2b,4,3,,
{16}5b,1,6,8,7h[8:1],,4b,8,3,1,2h[8:1],,7b,5,6,,
{16}2b,4,3,3,3h[8:1],,7b,5,6,6,6h[8:1],,1b,5,3,,
{8}46,46,24,24,28,28,68,68,
{16}46,,6,7,8,1,8,7,{32}4b,3,2,1,8,7,6,5,4-8[8:1],3,2,1,8,7,6,5,
{8}8b/4,,,,3,,,,
{8}7,,,,1,,,,
{8}5,,,,2,,,,
{8}6,,,,4,,,,
{8}3bqq4[4:2]/7bqq8[4:2],,,,,,,,
{12}3,4,3,6,5,6,3,4,2,6,5,7,
{12}2,1,3,7,8,6,4,7,3,6,2,5,
{12}1,7,7,4,5,3,6,2,7,1b/8b,1b/8b,1b/8b,
{8}8b/1b,,,,,,,,
