&title=霞がついてくる
&artist=はるまきごはん
&first=0.043
&des=Te:River
&lv_5=13
&des_5=Te:River
&inote_5=
(132){4},{16},,,,,,,,,,,,,,,,,4,
,,,3,,,,2,,,,3,
,,,4,,,,2,,,,8h[4:1]/2>5[8:1],,,,2,
,,,4,,,,3,,,,4,,,,5,
,,,4,,,,4<7[8:1],,,,4/2h[4:1],,,,,,,,6,
,,,7,,,,8,,,,8,
,,,1,,,,8,,,,2h[4:1]/8<5[8:1],,,,8,
,,,2,,,,3,,,,1/3,,,,8,
,,,1,,,,1>4[8:1],,,,1/7h[4:1],,,,,,,,5,
,,,4,,,,2,,,,7/1h[4:1],
,,,7h[4:1],,,,2,,,,3h[4:1]/8<4[8:1],,,,8,
,,,3,,,,5,,,,4/6,,,,5/7h[4:1],
,,,8,,,,8h[4:1]/1>5[8:1],,,,1,,,,,,,,2h[4:1]/1<6[8:1],
,,,1,,,,7h[4:1]/8>3[8:1],,,,8,
,,,3h[4:1]/1-6[8:1],,,,1-4[8:1],,,,1-5[8:1],,,,1,
,,,7,,6,,5,,4,,7/3,,,,5/1,
,6/2,,3/7,,,,,,,,2/8,,7/3,
,6/4,{32},,,,,,1x/5x,6/2,{8}7h[16:7]/3h[16:7],{4},,{16},,,{32}4x/5h[8:3],
3,{4}2h[16:5],{16},,,3h[8:5]/6h[8:1],,,,6,
,6h[8:1],{32},,,,,,6x,7,{16}8h[16:5],3,,2,,2,,3h[8:1],,,,3,
,4h[4:1],,,,5v2[8:1],,6,,5/3,,,,3/1,
,8/4,,7/5,,6h[8:1],,,,5/6h[8:1],,5,,4/6h[8:1],,4,
,5/6h[8:1],,5,,4/6h[8:1],,4,,3/6h[8:1],,3,,4/5h[8:1],,4,
,3/5h[8:1],,3,,4/5h[8:1],,4,,3/5h[8:1],,3-7[8:1],,3/4h[8:1],,3,
,,,8-4[8:1],,,,8/2,,3,,,,5,,6,
,3/6<2[8:1],,7,,6b/3b-8[8:1],,,,3,,,,1,,2,
,4/1<5[8:1],,8,,1/4-7[8:1],,,,4,,,,8,,1,
,2/8,,3,,4/7>3[8:1],,6,,7/4-7[8:1],,,,4/2-6[8:1],,1,
,2,,,,5>2[8:1],,,,5<8[8:1],,,,5,,,,1/7,
,2/6<1[8:1],,5/1>4[8:1],,6x,,E7,,E1,,E3,,,,8/2,
,7/3>8[8:1],,4/8<5[8:1],,3x,,E3,,E1,,E7,,,,,,5>1[4:1],
,5,,1<5[4:1],,1,,5-3-1[4:1],,5,,1-7-5[4:1],
,1,,,,,,,,,,,,,,,,C,
,,,2,,,,1/8,,7,,6v1[8:1]/2v5[8:1],,,,6/2,
,,,4>2[8:1]/8<6[8:1],,,,8-4[8:1],,,,8,,,,3/5,
,,,6,,,,7/3,,8/4,,5>3[8:1]/1<7[8:1],,,,1/5,
,,,5<7[8:1]/1>3[8:1],,,,1-5[8:1]/5-1[8:1],,,,5/1,,,,4/6,
,,,3,,,,2/5,,1,,8q4[8:1]/4q8[8:1],,,,8/4,
,,,4v7[8:1]/8v3[8:1],,,,4<6[8:1]/8>2[8:1],,,,8/4,,,,7/3,
,,,6,,,,5/1,,2,,3/6,,7<4[8:1]*<5[256:21]/4>1[8:1]*>2[256:21],
,8,,7/4,,,,3h[8:1]/8h[8:1],,,,,,,,,,1>7[4:7],
,,,B5,,B4,,,,,,B5,,B4,
,,,,,B5,,B4,,,,,,B5,,B4,
,,,,,B2/B3/E3/1<5[8:3],,,,,,,,,,,,,,,,B6/B7/E7/8>4[8:3],
,,,,,,,,,,,,,,,B4/8<2[2:3],
,B5,,,,,,B4,,B5,
,,,,,B4,,B5,,,,,,B4,,B5,
,,,,,B2/B3/E3/8<4[8:3],,,,,,,,,,,,,,,,E7/B7/B6/1>5[2:1],
,,,,,,,,,,,,,,,3qq6[2:3],
{1},{4},,,{16},,,6>1[4:5],
{1},{4},,{16},,,2h[8:1]/6h[8:1],
,,,3>8[8:1],,4,,5/3,,6,,5<8[8:1],,4,
,5/3,,2,,1q5[8:1],,8,,1/7,,8,,8p4[8:1],,7,
,8/2,,,,5/3,,5,,6,,7,,8/7,,1,
,2,,3,,4/2,,,,,,,,5,,4,
,3,,2h[8:1],{32},,3x,4,{8}5,{16},6h[8:1],,5,,4,,3,
,2h[8:1],{32},,3x,4,{4}5,{16},6,,6h[4:1],,,,4,
,6/3,,7/4,{32},,8x,1,{8}2,{16},2,,,,8/2h[4:1],,,,8,
{32},,8x,7,{16}6,,,6,,5,,5,,,,5/4h[8:1],
,5,,6/4h[8:1],,6,,5/4h[8:1],,5,,4/3h[8:1],,4,,5/3h[8:1],
,5,,4/3h[8:1],,4,,4/2h[8:1],,4,,4/3h[8:1],,4,,5/3h[8:1],
,5,,6/4h[8:1],,6,,5/4h[8:1],,5,,6/4h[8:1],,6,,6,
,7,,5/7>2[8:1],,,,7,,5,,,,5x/2x<6[8:1],,3,
,2/5p1[8:1]*p1[8:1],,,,5bx/7bx>3[8:1],,8,,7,,,,2>6[8:1],,1,
,2/8q4[8:1]*q4[8:1],,,,8/5<1[8:1],,6,,5,,,,2/7-3[8:1]*-3[8:1],,8,
,7/2<6[8:1],,1,,2/4-8[8:1]*-8[8:1],,,,4,,7-4[8:1],,6,,7,
,1-5[8:1],,,,1<6[8:1]*<7[256:21],,,,1>4[8:1]*>3[256:21],,,,1,,,,5pp5[4:1],
,,,5qq5[4:1]*qq5[4:1],,,,E8/B7/B8,,,,B1/E2/B2,,,,3qq3[4:1],
,,,3<7[4:1]*<6[16:3],,,,B1/E2/B2,,,,E8/B7/B8,,,,,,6,
,7,,6/4,,7,,5/7h[4:1],,,,6,
,5,,4/5h[8:7],,4h[8:7],,,,,,,,,,,,,,,,6,
,,6,,,7/5h[4:1],,,,7,
,6,,5,,4,,3h[8:1],,4,,5/3,,6h[4:1],,,,4,
,3,,3h[16:3],,,5h[16:3],,,3,,,,4h[8:1],
,5h[8:1],,6h[8:1],,7h[8:1],,,,6,,5,,5,,4/6,
,5/3,,6/4,,3/5h[8:1],,3,,,,,,3,4,2,
5,1,6,8,7,6,4,6,4,6,4,6,5,3,5,3,
4,5,6,4,3,2h[8:3],,,,5,,5,,,,5,
,,,5,,,,5,,4,,5,,5b,,,,,,,,4,
,,,3,,,,2,,,,1,
,,,8,,,,7,,,,6,,,,5,
,,,6/E5,,,,7/E6,,,,8/E7,,,,1/E8,
,,,2/E1,,2,,3/E2,,3,,3,,4,
,5s1[4:1],,4,,5,,,,,,8,,8,,1,
,2q4[4:1],,2,,2/8,,,,,,1,,8/2h[8:1],,7,
,6s2[4:1],,5,,6,,,,,,3,,4,,5,
,6<2[4:1],,7,,6,,5-1-5[4:1],,4,,5,,,,,,4h[8:1]/6h[8:1],
,,,,,,,,,E2,,E3,,,,,,E1,
,E8,,E7,,E6,,E5,,E4,,E3,
,,,3,,2,,1/3,,8,,7/1,,6,,5/7-3[8:1],
,8,,1/7x,,,,2,,3,,4,,3bx/6bx<2[8:1]*<8[16:1],,7,
,6/3v8[8:1],,,,3/1<5[8:1]*<7[16:1],,,,1,,,,7/4>8[8:1]*>2[16:1],,3,
,4/7v2[8:1],,,,7/1>3[16:1]*>5[8:1],,,,1,,,,4/7>3[8:1]*>1[16:1],,8,
,7/4-7[8:1],,,,4/2<6[8:1]*<8[16:1],,,,2,,4,,3,,2,
,3/1-5[8:1],,,,1-7[8:1]*-6[8:1],,,,1-3[8:1]*-4[8:1],,,,1/8-4[8:1],,7,
,8/3-7[8:1]*-7[8:1],,2,,3,,,,,,5/3,,4,,5/7,
,5,,5h[8:3],,E5,,B3,,E2,,E1,,4/E8,,4/E7,
,,,3/5,,4,,3,,2/4,,3,,4,,5/3,
,4/6,,5>2-5[8:5]/7>2-7[8:5],,,,,,,,,,,,C,
,,,,,1>2>3<4[8:1]/5<6<7>8[8:1],{64},,,,,,,,,,,,5x-1[8:1]/1x-5[8:1],D2/D6,A6/A2,D3/D7,{8}A3/A7,{16},5<6<7>8[8:1]/1>2>3<4[8:1],{64},,,,,,,,,,,,5xv2[8:1]/1xv6[8:1],
D2/D6,A6/A2,D7/D3,{8}A3/A7,{16},1/5,,,,1qq7[8:1]/5qq3[8:1],,,,1/5,,,,4v1[8:1]/8v5[8:1],
,,,4>3>2<1[8:1]/8<7<6>5[8:1],{64},,,,,,,,,,,,4x-7[8:1]/8x-3[8:1],D4/D8,A7/A3,D7/D3,{8}A6/A2,{16},4<5<6<7>8[8:1]/8>1>2>3[8:1],{64},,,,,,,,,,,,4x/8x,
D1/D5,A5/A1,D6/D2,{8}A6/A2,{16},8v6[8:1]/4v2[8:1],,,,4>3>2<1[8:1]/8<7<6>5[8:1],{64},,,,,,,,,,,,4xq1[8:1]/8xq5[8:1],D4/D8,A7/A3,D7/D3,{8}A6/A2,
{16},4x/8x,,,,8p4[8:1]/4p8[8:1],,,,4x<5<6<7>8[8:1]/8x>1>2>3<4[8:1],{64},,,,,,,,,,,,8xv3[8:1]/4xv7[8:1],D1/D5,A5/A1,D2/D6,{8}A6/A2,
{16},8x/4x,,,,2>3<4<5[8:1]/6<7>8>1[8:1],{64},,,,,,,,,,,,6xpp8[8:1]/2xpp4[8:1],D3/D7,A7/A3,D8/D4,{8}A8/A4,{16},2<1<8<7[8:1]/6>5>4>3[8:1],{64},,,,,,,,,,,,6x/2x,
D2/D6,A1/A5,D1/D5,{8}A8/A4,{16},5<6<7>8[8:1]/1>2>3<4[8:1],{64},,,,,,,,,,,,5xv8[8:1]/1xv4[8:1],D2/D6,A6/A2,D3/D7,{8}A3/A7,{16},5x<6<7>8[8:1]/1x>2>3<4[8:1],{64},,,,,,,,,,,,5xv2[8:1]/1xv6[8:1],
D2/D6,A6/A2,D3/D7,{8}A7/A3,{16},5x/1x,,,,7xqq5[8:1]/3xqq1[8:1],,,,3x/7x,,,,2b/6b,
,,,B2,,B7,,B3,,,,B3,,B6,
,B2,,,,B2,,B7,,B6,,,,B6,,B7,
,B3,,,,E4,,E3,,E2,,,,E8,,E7,
,E6,,,,E5,{48},,,,,,,,,,,,,,,,,,E6,B5,B4,E4,
E
