&title=人形裁判 ~ 人の形弄びし少女
&artist=上海アリス幻楽団
&first=0.05
&des=NaOH
&clock_count=4
&lv_4=12+
&lv_5=14
&inote_4=(154),,,,,,,,{4}
4pp1[4:6]/6h[4:14],,,,,,,,4,4,5,5,7,7,8,8,17,17,28,28,46,46,37,37,
{4}45,67,18,23,{8}4,4,5,5,3^6[8:1]/6,,8b,,
2x/4x,4,35,,5x/7x,5,46,,3x/5x,3,46,,7<4[8:1]/5,,E1,,
6x/8x,8,71,,1x/3x,1,82,,7x/1x,7,82,,1>4[8:1]/7,,E6,,
2x/4x,3,24,,7x/5x,6,75,,2x/8x,1,28,,7<4[8:1]/3,,E2,,
6x/5x,6,56,,3x/4x,3,34,,1x/8x,1,18,8,1>4[8:1]/8<5[8:1],,,,
2,2,7,7,3,4,5/6h[4:1],,2h[4:2],,B1/E1,,5h[4:2],,B2/E3,,
3x,4,65,,8,7,64,,7,5,6,4,5-7[8:1]/3-5[8:1],,,,
8,7,56,,1,2,34,,4-2[8:1]/5h[4:1],,,,4>1[8:1]/5h[4:1],,,,
7,5,6,4,7,5,6,4,7h[4:3],,6,,5,,4b,,
3,3,6,6,2,1,8/7h[4:1],,3h[4:2],,B4/E5,,8h[4:2],,B3/E3,,
2x,1,78,,5,6,71,,6,8,7,1,8-4[8:1]/2-8[8:1],,,,
5,6,87,,4,3,21,,1-3[8:1]/8h[4:1],,,,1>4[8:1]/8h[4:1],,,,
6,8,7,1,6,8,7,1,6h[4:3],,5,,4,,3b,,
2x-4v1[4:2],,5,,6,,7,,8h[4:2],,2,,3h[4:2],,6,,
5h[4:1],,E2/B2,,E8,E7,,B3/E4,,B5,B6,,Ch[4:1],,8<5[4:1],,
1h[4:1],,,,2pp4[4:1],,8,,7h[8:3],,,5h[8:3],,,4,,
2h[4:1]/4h[4:1],,,3h[4:1]/5h[4:1],,,3/5V71[4:1]b,,4h[4:1],,,,
{16}3x,4x,,6x,5x,6x,5x,6x,
{8}5x-7v4[4:2],,4,,3,,2,,1-5[8:1],,8,,7-3[8:1],,4,,
{8}B1,,B7/E8,,B3,B4,,A6/E7,1x,2x,3x^6[8:1],,8-2[8:1]*-4[8:1],,,,
5x/7x,6,6,5x/7x,6,6,5x/7x,,4x/2x,3,3,4x/2x,3,3,4x/2x,,
8,7,6,5,4,3,2,1,8b<1[4:3]b,,,,,,,,
{4}6xh[4:7],,E1,,E3,,E5,,3xh[4:7],,E2,,E4,,E6,,
6xh[4:7]/5xh[4:1],,3h[4:1],,1h[4:1],,7h[4:1],,
3xh[4:7]/4xh[4:1],,6h[4:1],,8h[4:1],,2h[4:1],,
{8}4,2,5,3,4,2,5,3,4,2,5,3^8[4:1],4,4,,,
6,5,7,4,6,5,7,4,6,5,7,4>1[4:1],7,7,,,
6,5,47,5,6,4,35,4,5,4,36,5<8[4:1],4,3,,,
2,2,4,4,5,5,7,7,3,3,6,6,{16}2x,7x,2,7,1bx,8bx,2b,7b,(308){8},,,,,,
3,4,
(154){8}
3x-5[8:1],,7-1[8:1],,2-6[8:1],,,,
3-1[8:1]/4-8[8:1]b,,,,5-1[8:1]/6-8[8:1]b,,,,
34,,12,,78,78,,56,,34,3/4h[4:1],,2b-6[8:1],,8b-4[8:1],,3,2,16,7,6,5,47,,
3,4,25,1,8,7,26,,2h[4:1],,8,8h[4:1],,5,5>2[8:1],,6h[4:1],,,,{16}2x,1x,,3x,4,3,4,3,
{8}4b-8[8:1],,1-3[8:1],,7-5[8:1],,,,
1-3[8:1]*-5[8:1]b,,,,8-4[8:1]*-6[8:1]b,,,,
23,,45,,67,67,,18,,67,67,,7-2[8:1]/6-3[8:1],,,,
7x/1x,7,7,7x/1x,7,7,7x/1x,7,
2x/8x,2,2,2x/8x,2,2,2x/8x,2,
3,2x/4x,6,5x/7x,{16}4,5,4,5,3,6,3,6,2xh[4:1],,,,8x,7x,6x,5x,4x,3x,2x,1x,8x,7x,6x,5x,
{8}1bx-3[8:1],,6-4[8:1],,1,2,3-6[8:1],,8-5[8:1],,2-6[8:1],,
7,8,7-4[8:1]/1,,3-8[8:1],,6,5h[4:2],,7,8,1,
2-4[8:1]*-6[8:1],,,,5b-8[8:1],,4b-1[8:1],,
6,5,47,6,5-1[8:1],6,7,,3,4,52,3,4-8[8:1],3,2,,
3h[4:1]/4,,6,6h[4:1],,5,5V31[4:1],,6h[4:1],,,,{16}7x,8x,,6x,5,6,5,6,
{8}
4b-2[8:1],,6-8[8:1],,1-5[8:1],,6,7,8-4[8:1],,2,,1-5[8:1],,7,,
6h[4:5],,5,,2,2,,8,,2,2,,2-7[8:1],,,,
6x/4x,6,6,6x/4x,6,6,6x/4x,6,
3x/5x,3,3,3x/5x,3,3,3x/5x,3,4,35,26,17,
{16}1x,8x,2x,7x,3,6,4,5,4bx>5[4:3]b,,,,,,,,,,,,,,,,,,,,Ch[64:1]f/B2/B7,,,,
&inote_5=(154){4},,,,,,,,
5xpp2pp8[4:7]/7xh[4:7],,,,,,,,6p4[4:3],3,2,1,2p8[4:2],7,6,5,
5V71[4:2]/3h[8:1],3h[8:1],2h[8:1],2h[8:1],
3V51[4:2]/8h[8:1],8h[8:1],7h[8:1],7h[8:1],
4h[8:1]/6h[8:1],3h[8:1]/7h[8:1],2h[8:1]/8h[8:1],1h[8:1],
2h[8:1]/4h[8:1],1h[8:1]/5h[8:1],{16}2,4,3,5,4h[32:1],6h[32:1],5h[32:1],7h[32:1],
{8}6bx-2[8:1],8,6,7,1x-5[8:1],6,1,7,4x-8[8:1],6,4,7,2x-6[8:1]*-4[8:1],8,2,,
7x-3[8:1],1,7,2,4x-8[8:1],2,4,1,7xv4[8:1],2,7,3,5x-2[8:1]*-8[8:1],6,5,,
1x-5[8:1],7,1,8,6x-2[8:1],8,6,7,3x-8[8:1],6,3,5,1x-3[8:1]*-5[8:1],8,1,,
7x-4[8:1],5,7,3,2x-5[8:1],1,2,6,8x-4[8:1],1,8,2,{16}3,5,3,5,2,6,1,,
{8}7x<4[8:1],4^7[8:1],7,3,2-6[8:1],6,8-6^4[4:1],,
4-2^8[4:1],,8V64[4:1]*V62[4:1]b,,,,,,
{16}3/5h[8:1],,2,4,3,4,2,,5h[8:1]/7,,6,5,7,5,6,,
7x-5[8:1],,8,,1-3[8:1],,8,,7xq3[8:1]*v4[8:1],,8,,7,,,,
{16}
2xh[8:1]/5x,,4,3,5,4,6,,7xh[8:1]/4x,,5,6,4,5,3,,
4xh[8:1]/2x,,2,2,4,3,5,,5xh[8:1]/7x,,6,6,5,7,5,,
84,7,6,5,E4,B3,B2,E2,7,6,5,4,E3,B2,B1,E1,
4,5,6,7,E2,E3,E4,E5,8-4[8:1],1,7,2,8b,,,,
{8}2x>5[8:1],5^2[8:1],2,6,7-3[8:1],3,1-3^5[4:1],,
5-7^1[4:1],,1V35[4:1],,5-1[8:1]b*-7[8:1]b,,,,
{16}6/4h[8:1],,7,5,6,4,5,3,4h[8:1],,2,4,3,5,4,6,
2x-4[8:1],,1,,8-6[8:1],,1,,2x-4[8:1]b*v5[8:1],,1,,2,,,,
{16}
7xh[8:1]/1x,,5,5,6,4,5,3,4xh[8:1],,3,3,5,4,6,5,
7xh[8:1],,8,8,7,1,8,2,7xh[8:1],,1,8,27,,,,
15,2,3,4,E6,B6,B7,E8,2,3,4,5,E7,B7,B8,E1,
3,3,4,2,6,6,5,7,1,8,3,4,2,6,1,8,
{16}
2bqq5[4:2]/7b,,,,5,,,,6,,,,7,,7,6,5-8[8:1]/4,,,,3,,,,1-6[8:1]/3-8[8:1],,,,A1/A3,,,,
{8}5<2q7[4:5],,3x,,4x,4x,,3x,,4x,4x,,4b-1[8:1],,5b<8[8:1],,
1x-5[8:1],2,1/3V15[4:1],,6,7,8h[4:1],,5-1[8:1],4V25[4:1],5,4,,8,8-4[8:1],,
2b^5[8:1]/8,,2,7b-3[8:1],,4,5bqq5[8:3]*pp5[8:3],,A5/E5/E6,,,,
{16}1,1,,8,1,7,2,8,
{8}7bpp4[4:2]/2b,,3,,2,,2,{16}2,3,4v1[8:1]/5,,,,6,,,,2v7[8:1]/5v8[8:1],,,,A2/A5,,,,
{8}6qq6<2[4:4],,1x,,2x,2x,,3x,3x,4bx,4bxh[4:1],,{16}7bh[16:3],,,5h[16:3],,,6,,
2b/5b,,3,4,3,,2b/5b,,3,4,3,,1/5h[8:1],,2,,
7b/4b,,6,5,6,,7b/4b,,6,5,6,,8/4h[8:1],,7,,
5b,7,4,6,3,5,2,6,1,5,3,7,4,3,2,1,5-7[8:1]/8h[4:1],,,,,,8,1,2,3,4,5,E2,E3,E4,E5,
{4}1bqq5[4:6],,2h[4:1],,3h[4:1],,4h[4:1],,5qq1[4:6],,6h[4:1],,7h[4:1],,8h[4:1],,
2v3V51[4:6],5h[8:1],6h[8:1],6h[8:1],7h[8:1],7h[8:1],8h[8:1],8h[8:1],
7v6V48[4:5],4h[8:1],3h[8:1],3h[8:1],2h[8:1],2h[8:1],{8}1-3[8:1]*-5[8:1]b,1,,,
6x-4[8:1]/4,3,6,2,5-7[8:1],3,5,1,8<5[8:1]/2,1,28,3,4-2[8:1],4v1[8:1],,,
3x-5[8:1],6,3,7,4-2[8:1],6,4,8,1>4[8:1]/7,8,71,6,5-7[8:1],5v8[8:1],,,
7x-4[8:1],3,7,2,5-8[8:1]/4,3,53,4,7<4[8:1]/3,3,72,2,1-3[8:1]*v4[8:1]/8,18,,,
1x,15,26,37,8,57,46,35,{16}2,6,4,8,1,7,3,5,2,8,4,6,3,7pp5[8:3]b,1x,5x,,,,,,,
(77){32}
4,3,
(154){16}2>5[8:1],,18,,27,,7,7,1>4[8:1],5,2,,18,,8,7,
6<1[8:1],,3-5[8:1]/5,,26,,3,,{24}2x-5[8:1],1,8,7-4[8:1]b,,,{16}2,,7,,
2x,,2,1,2x,,2,1,2x,,1x/2x,,28,,2x,8,2,,2x,8,2x-5[8:1],,2,8,2b-4[8:1]*-8[8:1],,,,2b,,,,
57,,6,5,7,1,8,2,7-4[8:1],,1V37[6:1]b/6,,7,,1,,
5,,5,4,6,3,4,2,8-4[8:1],,3-8[8:1]/7,,8,,3,,
7b,,6,5,4,,2b/6b,,3,4,5,,8b<3[4:1],1,7,2,8,,2,2,,1,1h[8:1],,
{24}4,5,6,1,2,3,45,6,7,18,2,3,
{16}4b/7b<4[8:1],,38,,27,,2,2,8<5[8:1],1,7,,28,,2,3,4>1[8:1],,36,,45,,6,6h[16:3],
{24}7x-3[8:1]*-4[8:1],8,1,2,,,7,,,,,,
{16}2x,,7,5,6x,,6,5,7xh[4:1],,1x,,3h[8:1],,8,1,
1>4[8:1],,8bx,7bx,6bx-2[8:1],,,,3,,,4,4,,5,,
4b/8b,,6,5,7,,4b/8b,,6,5,7,,48,,37,,
2b/6b,,3,5,4,,2b/6b,,7,1,8,,26,,35,,
2b,4,3,6,8,7,2b,1,3,6,5,7,
4x/8x,3,2,1,4<8[8:1]/8,,,,1x,2,3,4,1x,2,3,4,{32}1x,2,3,4,5,6,7,8,
{16}1bx-5[8:1]/6bx,,78,,16,,7,7,3>8[8:1],5,2,,35,,5,6,7-3[8:1],,8,,27,,1,1,
{24}4x-1[8:1],5,6,7v4[8:1],,,4x,,,7x,,,
{16}2bh,,2,3,84,,8bh,,8,7,1bh/6,,1bh,2,3bh/7h,6,1-5[8:1]/5bh,,8,8,
1>4[8:1]*<6[8:1],,,,1b-5[8:1],,,,1b,,,,
24,,3,4,2,6^8v5[4:1],5,7,3x,,4>1[8:1]b,,3x,,4,,
6,,6,5,7,3^1v4[4:1],4,2,5x<8[8:1]b,,6,,5x,,,,
2b,,3,4,5,,7b/3b,,6,5,4,,1b>6[4:1],8,2,7,1,,7,7,,8,8h[8:1],,
{16}5,4,3,2,{32}8,7,6,5,4,3,2,1,
{16}8bx-4[8:1],,21,,83,,2,2,6<1[8:1],4,7,,64,,4,3,2-6[8:1],,1,,72,,8,8,
{24}1xq5[8:1]*v6[8:1],2,3,4,,,1,,,,,,
{16}7bh,,7,6,1bh/5,,1,2,3/8bh,,8bh,,17,,7bh,6,5,,1b/7,2b/6,3b-7[8:1]/5,,,,
3b/5b,,,6,6h[8:1],,,,
2b,4,3,5,4,6,2b,4,3,5,4,6,1b,8,1,8,3b,5,4,6,5,7,3b,5,4,6,5,7,4b,5,4,5,
2b,6,3,7,4,8,5b,1,4,8,3,7,4,3,2,1,8h[4:1]/5-7[8:1],,,,,,
E1,E2,E3,E4,E5,E6,8,7,6,5-8b[8:1],4h[16:2]/1h[16:2],,
{24}E2/B1f,B2,B3,E4/B4,,,,,,
