&title=スリープシープ・パレード
&artist=あきやまうに
&first=0.01
&des=NekoMuseigen
&lv_5=13+
&inote_5=(138)
{1},
{8}1h[8:3]/6b,,,,8h[8:3]/3b,,,,
2h[8:5]/5b,,4b,,3b,{16}4,3,5,4,6,,
6b/5b,,7,5,6,,7,,6,5,7,5,6,,7,,
65,,7,5,6,,7,,65,,74,,6/5,,7,,
6,,7,5,6,,3h[8:1],,
5,,6,4,5,,2h[8:1],,
4,,5,3,4,,1h[8:1],,
6h[8:1],,{24}1,2,3,{16}4b,,,,
3/4,,2,4,3,,2,,3,4,2,4,3,,2,,
34,,2,4,3,4,2,4,3,,25,,3/4h[8:3],,,,
3,,2,4,3,5,4,6,
4,,3,5,4,6,5,7,
3,4,3,4,2,3,2,3,1b,,2b/7,,3b/6,,,,
6b/5b,,8,3,6,,8,,6,3,8,3,6,,8,,
65,,8,3,6,,8,,65,,83,,6/5,,8,,
6,,8,4,6,,3h[8:1],,
5,,7,3,5,,2h[8:1],,
4,,6,2,4,,1h[8:1],,
6h[8:1],,{24}1,2,3,{16}4b,,,,
3/4,,1,6,3,,1,,3,6,1,6,3,,1,,
34,,1,6,3,6,1,6,3,,16,,3/4h[8:3],,,,
3,,2,5,3,6,4,7,
5,,3,6,4,7,5,8,
2,1,2,1,3,2,3,2,4b,,3b/6,,2b/7,,,,
6b,5,6,5,6,,6,,6,,6,,6,,64,,6/4h[16:6],,6,,6,,6,,6/4,,6,,6/3b,,6,,6b/2h[8:6],,6,,6,,6,,6,,6,,6,,
62,,6,5,6,,6,,6,,36,,6,,6/4b,,6,,
6b,5,6,5,6,,6,,6,,6,,6,,64,,6/3h[16:6],,6,,6,,6,,6/3,,6,,6/2b,,6,,6/1b,,6,,6,,6,,6/8b,,6,,6,,
6,,6/1b,,6,,6,5,6,,6/2b,,6,,6,5,6,,
4b,5,3,4,2h[8:1],,3,,5h[8:1]/2,,4,,5/2h[8:1],,3,,2/5h[8:1],,
4,5,2h[8:1],,3,,5,4,6,5,7h[8:1],,6,,
4h[8:1]/7,,5,,4/7h[8:1],,6,,5,4,6,5,7h[8:1],,6,,
4,5,3,,5/2h[8:1],,3,,2/5h[8:1],,4,,5/2h[8:1],,3,,
5,4,6,5,7h[8:1],,6,,7/4h[8:1],,5,,7h[8:1]/4,,
6,6,7,,7,7,8,,8,8,1,,1,1,2,,2,,
4b/5b,,3,,6,,3,,4b/5b,,2,,7,7,1,,
4b/5b,,7,,2,2,8,,5b/4b,,36,,2,7,3,6,
4b/5b,,2,4,3h[8:1],,7h[32:4],,
1h[8:1],,{24}6,2,5,{16}3,,53,,
2h[8:1],,4,3,7h[8:1],,5,6,
2,5,4,5,7,5,4,5,
2b,,7,5,6,,3,4,2,2,8,8,{24}3,7,4,{16}6,,
2,4,3,5,1,,6,5,7b,8b,1b,2b,3b,,,,
5b/4b,,7,5,6h[8:1],,2h[32:4],,
8h[8:1],,{24}3,7,4,{16}6,,4/6h[8:1],,
3,6,1,6,8,6,5,6,
3,6,3,8,3,1,3,4,
3,3,6,4,5,3,4,3,
6,6,4,4,{24}7,3,8,{16}2,,
2,5,4,5,7,5,4,5,2b,1b,8b,7b,6b,,,,
7b/4b,,3,4,2h[8:1]/5,,6,,7h[8:1]/4,,{24}5,4,3,{16}2h[8:1]/5,,6,,
47,,3,4,25,,6,5,7,6,4,3,6,5,3,2,5b,,
4,5,36,,3,4,2,5,1,6,{24}8,1,2,{16}38,,
6,5,7,4,8h[8:1],,2,8,6b,4b,2b,8b,6b,,,,
2b/5b,,6,5,7h[8:1]/4,,3,,2h[8:1]/5,,{24}4,5,6,{16}7h[8:1]/4,,3,,
7,5,7,8,7,4,7,1,7,3,7,1,7,4,7,8,7,7,
2,1,2,4,2,8,2,5,2,7h[24:6],{24}2,3,4,{16}5,,
4b,7,5,7,3b,7,5,7,
2b,7,5,7,1b,7,5,7,
8b,7,5,7,7b,7,7,7,
7b,1b,3b,5b,7b,,,,
{8}8h[8:3]/3b,,,,1h[8:3]/6b,,,,
7h[8:5]/4b,,5b,,6b,{16}5,6,4,5,3,,2b/4b,,,,
