&title=Q.E.D.
&artist=jkinss
&first=0
&des=入学星炬学院
&lv_5=14
&inote_5=(155)
{4},,,,
{32}8b-4[2:1]/4bz8[2:1],15,26,37,,,,,
{4},,,
{16}
3,,4,3,
6,,5,6,
3,,4,2,
6z2-6[4:3],,5,5,
{4},,,,
{16}
2,,1,2,
7,7,1,1,
8-4[8:1],8,2,2,
{4}8b>4-8[4:3],
{4}
5,6,7,7p5[4:3],
1h[8:1],1h[8:1],2h[8:1],3h[8:1],
{8}4,4,5,5,3,3,7,7,
{6}23,56,72,
{4}1s5[8:1]/8v6[8:1],,
{4}
3-8[8:1]/4-7[8:1],34,
{6}
24,51,68,
{4}
7v4[8:1]/1v4[8:1],71,2v5[8:1]/8v5[8:1],28,
{4}
12,12,
{6}
12,18,78,
{24}
1,2,3,47,6,5,4/1h[4:1],,,,
{48}
,,,,E5,B5,B6,E7,,,,,E2,B2,B3,E4,,,,,E7,B7,B8,E1,,,,,
{16}
28,,1,8,27,,8,1,
{6}
27,74,35,
{16}
63,,4,5,3,,5,4,6,,4,5,2,,5,4,7,,3,4,1,,6,5,8,,2,1,4,5,8,6,
{12}
2h[24:1],2h[24:1],2h[24:1],2h[24:1],2h[24:1],2h[24:1],6,34,,1-7[8:1],34,,
{4}
1/3-1[8:1],3/7,
{6}
17,35,18,
{4}
6/1-6[8:1],4/1-4[8:1],1w5[8:1]/5,
1,1-4[8:1],1,
{8}8-4[8:1],7,8,,
{48}
E5,B5,B6,E7,,,,,E2,B2,B3,E4,,,,,E7,B7,B8,E1,,,,,
E4,B4,B5,E6,,,,,E2,B1,B8,E8,,,,,,,,,,,,,
{16}
3,4,3,,3,5,3,,
{6}
35,68,27,
{16}
2,3,2,,2-6[8:1],1,2,,
27,,,,5-1[8:1]/7,,,,
45,,,,28,,,,
{6}
45,68,8v7-5b[12:5]/2,
{8}
1hb[16:1],1hb[16:1],3hb[16:1],3hb[16:1],2hb[16:1],2hb[16:1],4hb[16:1]/5b<1-5[4:3],4hb[16:1],
{4}
3,2,3,4p2[4:3],
5h,6h[48:1],7h[32:1],8qq5[4:3],
{16}1h[16:1],,,1h[16:1],,,3h[16:1],,,2,,2,3z7[4:1],4h[16:3],,,
3x,,,2h[8:1],,,1,,8,8h[8:1],,,
{4}1>5-1[4:3],
6,7,8,8p6[4:3],
2h,3h,4h,4q6[4:3],
5h[48:1],6h[32:1],7h[24:1],8q2[4:3],
6h[16:1],5h[12:1],4h[8:1],4-8[8:1],
{8}
34,,7,7,,2,1/8-4[8:1],,
78,,3,3,,6,4/5-1[8:1],,
65,,2,2,,7,8/1-5[8:1],,
12,,6,6,,3,45,,
45,35,2/5-3-7-1[8:3],15,2,2,4,4,
45,46,7/4-6-2-8[8:3],84,7,7,5,5,
{16}
4,5,4,6,4,7,4,8,3,7,2,6,
{24}1-3[8:1],5,1,5,1,5,
{4}
1-7[8:1]*-6[8:1],1,8z4[8:1]/2s6[8:1],,
{4}37,5/1-5[8:1],
3V17>2[2:1]/1bx,6,5,6-2[8:1],5/6V41[4:1],1,
8-4[8:1],
6V82<7[2:1]/8,3bx,4,3-7[8:1],4/3V58[4:1],8,
2-4[8:1],62,
3/7V13>8[2:1],4bx,5,4-8[8:1],4V61[4:1]/5,1,3-8[8:1],3/4V68[4:1],
4,5bx-2[8:1],5/7-4[8:1],1/7,2-6V41[8:3],5,8-4[8:1],8bx,
{16}2,1,2,,7,8,7,1,4,2,4,,6,5,7,,{4}1-5[8:1]/2-4[8:1],1/2V85[8:3],1-5[8:1],1bx,
{16}7,8,7,,2,1,2,8,5,7,5,,3,4,2,,{4}8-4[8:1]/7-5[8:1],8/7V15[8:3],8-5[8:1],8bx,
{16}3,4,2,,4,3,8,1,6,5,8,1,4,3,,,{4}5-1[8:1]/6-8[8:1],5/6V48[8:3],5-8[8:1],5bx,
{16}1,3,2,,4,2,5,3,6,4,7,5,8,1,4,2,5,3,6,4,7,5,8,6,{4}1-5[8:1],7b/1b,
,,
{8}8,8,7,7,6,6,5,5,
{4}4,4,4,4,
{8}1,1,
{16}4,5,6,7,8,1,2,3,48,51,62,73,8/4-8[8:1],
5,1,8,
{4}4b,1-5[8:1],1b/2b,1/8-4[8:1],7b/8b,1-7[8:1]/8,
1b-4[8:1]/2b,
{8}1b/5b-8[8:1],6,
5b-3[8:1],,5b,8,7b-3[8:1],,1b/7b,,
{32}1,,1,,,,,8,,,,,1,,,,E2,B2,B3,B4,E5,,,,,,,,6,,4,,
{4}
{48}5b,B5,C,B1,,,
{16},,
{4},,,,,,,
{16}Ch[2:3]/
E2,,B3,,
E6,,B7,,
E1,,B2,,
E5,,B6,,
E8,,B1,,
E4,,B5,,
A2,,B2,,
A6,,B6,,
E3/Ch[2:3],,B4,E5,
E7,,B8,E1,
E2,,B3,E4,
E6,,B7,E8,
E1,,B2,E3,
E5,,B6,E7,
1,,4,3,
1,,4,3,
E2,B2,B3,E4,
E6,B6,B7,E8,
E1,B1,B2,E3,
E5,B5,B6,E7,
E8,B8,B1,E2,
E4,B4,B5,E6,
8,1,2,3,
8,1,2,3,
E1,B1,B2,E3,
E5,B5,B6,E7,
E8,B8,B1,E2,
E4,B4,B5,E6,
E7,B7,B8,E1,
E3,B3,B4,E5,
1x,2x,3x,4x,
1x-5[8:11],2x,3x,4x,
(170.1)
{4}
1bx,,,,,{32},
(170)
{32}B1,C,B5,,,,
{16}
8,,,
8,,,
8,,,
{4}8-2-6-4[8:5],
{16}2,,,
{16}6,,,
{16}4,,,
{16}2,,,
{4}1-7-3-5[8:5],
{16}7,,,
{16}3,,,
{16}5,,,
{16}7,,,
{4}8,
{4}18,
{8}18,7,,7,
{4}1-3-5-7[4:3],
{16}6,,,
{16}4,,,
{16}2,,,
{16}8,,,
{4}8-5-2-7[4:3],
{16}5,,,
{16}2,,,
{16}7,,,
{16}4,,,
{4}2<2[4:3],
{16}4,,,
{16}6,,,
{16}8,,,
{16}2,,,
{4}7,
{16}18,,,
{16}2,{8}18,{8}7,
{8},7,
{4}18,
{16}
2v5[8:1],1,3,8,
{4}2,
{16}
6v1[8:1],5,7,4,
{4}6,
{16}
2,1,3,8,,,
7,8,6,1,,,
8,1,,,
1,8,1,8,2,7,3,6,4,5,3,6,2,7,1,8,
1,2,3,4,
8,1,2,3,
7,8,1,2,
6,7,8,1,
{4}
2b/6b,1,1,1p5[8:1],
1b/8b,4,3,2,
{8}48,48,15,15,
84,37,26,15,
8b/4b,,,,
{16}
1-6[8:1],
(85.01)
{32}7,2,8,1b,,,,
(85){32}1/7-5[16:1],,,,,,,,
{16}
7/2-4-8[16:3],4,
{32},8,,,
{32}2-4-6[16:3]/1h[32:1],,1h[32:1],,7h[32:1],,7h[32:1],,
2b<5[16:3],,,,,1,,,
2/3-5[16:1],,,,,,,,
{16}
3/8-6-1[16:3],6,,
{32},5,
{16},3,,,2-5[16:1],,
{48}2,1,8,7,6,5,
{16}2,6-4-1[32:3],7,8,7,6<3[16:3],,,,5b/6b,,,4,,
{48}2,1,8,7,6,5,3,2,1,8,7,6,,,,,,,
{16}
5/8-2-7[16:3],2,,
{32},3,
{16},5,,,
5h[4:1],,,,2-4[16:1],,,,
{16}
2/7-5-1[16:3],5,
{32},1,,,
{32}7-5-3[16:3]/8h[32:1],,8h[32:1],,2h[32:1],,2h[32:1],,
7>4[16:3],,,,,8,,,
7b/6-4[16:1],,,,,,,,
{16}
6/1-3-8[16:3],3,,
{32},4,
{16},6,,,7-4[16:1],,
{48}7,8,1,2,3,4,
{16}7,3-5-8[32:3],2,1,2,3>6[16:3],,,,4b/3b,,,5,,
{48}7,8,1,2,3,4,,7,8,,1,8,,,,3,2,,1,2,,,,8,1,7,2,8,,,
{4}1hb[4:1],
{16}8h[8:1],,2h[8:1],,
(85)
{32}{32}6-8[16:1],,,,,,,,
{16}
6/3-1-5[16:3],1,
{32},5,,,
{32}3/6h[16:3],,,,,,,,
3<8[16:3],6,5,4,3,6,5,4,
3b-8[16:1],,,,,,,,
{16}
3/5-7-4[16:3],7,,
{32},8,
{16},2,,,3-8[16:1],,
{16}6h[8:1],,
{16}3-6-1[8:1],,6,5,6,7<2[16:3],,,,8b/7b,,,1,,
{48}3,4,5,6,7,8,
{32}
1h[32:1],,1h[32:1],,
7h[32:1],,7h[32:1],,
1h[32:1],,2h[32:1],,
3h[32:1],,4h[32:1],,
5<2[16:3]/6h[4:1],,,,,,,,,,
,,,,,,
3-5[16:1]/6,,,,,,,,
{32}
7h[32:1]/3-1-5[16:3],,7h[32:1],,
{32}8h[32:1],,8h[32:1],,
{32}3-1-7[16:3]/6h[32:1],,6h[32:1],,6h[32:1],,6h[32:1],,
3<8[16:3],,,,,,,,
3b/2-8[16:1],,,,,,,,
{16}
2/5-7-4[16:3],7,,
{32},8,
{16},2,,,3p8[16:3],,
{48}3,4,5,6,7,8,
{16}3,,,,76,5/6<3[16:3],54,,,5b/6b,,,1,,
{48}2/1h[12:1],3,4,5,6,7,2/8h[12:1],3,4,5,6,7,,,,,,,
{16}
5/8-2-7[16:3],2,,
{32},3,
{16},5,,,
5h[4:1],,,,
{8}
1-7-2-6-3-5[2:1],
5,3,6,2,7,1,1,
8-2-7-3-6-4[2:1],
4,6,3,7,2,8,8,
1-4[8:1],4-7[8:1],7-2[8:1],8,8,5,5,6,
6-8[8:1],6-4[8:1],6-1[8:1],6-3[8:1],6-2[8:1],
,,,
{48}
2bx/8bx,,,,2bx/8bx,,,,2bx/8bx,,,,1bx/7bx-5-3b[16:3],,,,1bx/7bx,,,,1bx/7bx,,,,2bx-8-6b[16:3],,,,1bx,,,,2bx,,,,2bx,,,,,,,,,,,,
5hbx[12:5],,,,,,,,2b,,3b,,4b,,,,6b,,,,7b,,,,
{32}1,8,,2,7,,1,8,2,7,1,8,1,8,1,8,
{8}
1,1,1/8-4[16:1],7,8b,1,2,3,
{16}4,4,5,5,3,3,6,6,{32}2,7,2,7,2,7,1,8,
(170)
{16}
1,8,1,8,
{16}1s5[4:3],7,2,8,1,,,,
