&title=ARTEMiS
&artist=BlackY
&first=0
&des=Luna
&lv_5=14.2
&des_5=Luna
&inote_5=
(186){4},,,,{2}8x/7xv4[8:1],
{8}1x/2xv5[8:1],,,8bxqq5[4:3]*pp3b[4:3],
,,,,,,,,{4}A7,
B7,C,B3,
A2,B2,C,B6,
{2}1/2xv5[8:1],{8}8/7xv4[8:1],,,1bxqq6b[4:3]*pp4[4:3],
,,,,,,,,{4}A2,
B2,C,B6,
A7,B7,C,B3,
3/6-8-2[4:1],2V86b[4:1],{16}4x,,,4x,,,{8}4x,
{4}6/3V17b[4:1],7V13[4:1],{16}5x,,,5x,,,{8}5x,
{4}3/6<2[4:1],2p6b[4:1],{16}4x,,,4x,,,{8}4x,
{4}6/3>7b[4:1],7q3[4:1],{16}5x,,,5x,,,{8}5x,
{16}6/4,,,6/4,,,{8}6/4,{16}3/5,,,3/5,,,{8}3/5,
{16}7/1,,,7/1,,,{8}7/1,{16}2/8,,,2/8,,,{8}2/8,
{16}2x,1,3,8,4,7,5,6,8x,7,1,6,2,5,3,4,
2bx,3,4,5,8bx,7,6,5,{32}1b,2x,3,4x,5,6x,7,8x,1,2x,3,4x,5,6x,7,8x,
{4}1-6[8:1],1x-4[8:1],1xw5[8:1],{32}1bx,B1,C,B6/B5/B4,,,,,,,,,{8}4x/7x,
4/7,{16}6,5,{8}6,{16}3,4,{4}3,
{8}7-1[8:1],7,5,4,8,7,{4}2-8[8:1]/6-8[8:1],
2x-4[8:1]/6x-4[8:1],2x/6x,{16}E5/E8,,,B2/E5,,,{8}E5/B6,
{16}8x,7x,6x,5x,3x/4x,2,1,8,5x,6,7,8,2x/1,3,4,5,
8x,7,6,5,3x/4,2,1,8,5x,6,7,8,2x/1,3,4,5,
{4}7bxh[4:1],{8}4,5h[8:1],2,3h[8:1],6,7h[8:1],
{4}1b,{16}8,8,{8}8,{16}7/1bx,,,2/6bx,,,{8}5/3bx,
6-2[8:1],6,6x,5-1[8:1],5,5x,4-8[8:1],4,
4x,3,3,3x,{4}2-4[8:1]/6-8[8:1],2/6,
{8}2-6[8:1],2,2x,1-5[8:1],1,1x,8-4[8:1],8,
8x,7,7,7x,{16}B4/B5/E5/E4/B3,,,B7/B6/E7/E8/B8,,,{8}B2/B1/E2/E3/B3,
6x,6,6/4,3/6,6,3/6,4/6,6,
2/5,6/2,2,6/2,5/2,2,{4}2/4,
{16}2b,3,4,5,6,7,8,1,2/6b,5,4,3,2,1,8,7,
{2}6h[2:1]/2bh[2:1],{32}E1,E2,E3,E4,E5,E6,E7,E8,E1,E2,E3,E4,E5,E6,E7,E8,
{4}E1/Cf,{8},,,,E6,B5,
,4xh[8:5],,B7,{32},,,,,,,,B5,,,,,,,6x,
{8}7xh[4:3],,,3,{32},,,,,,,,3,,,,,,,2,
{2}1h[2:1],{16}2,,,3,{32},,,,4,,,5,
{8}6h[1:1],,,E5,,C,{16},E1,,,{8}2h[4:3],
,,E1,,,{4}E5,
{12}7,6,5,2,3,4,6,7,8,3,2,1,
A7,E8,E1,A3,E4,E5,A6,B6,C,{48}1x,,,2x,,,{16}3x,4x,
{8}6h[8:3]/5h[8:3],{16},,,,,,,,,,,,3,4,
{8}3,2/5,,,2h[8:1],{32}8bx,7x,6x,5x,{8}3h[8:1],{32}8bx,7x,6x,5x,
{8}2b/4h[4:1],,,7b/3h[4:1],,,6/5,4h[4:1]/7p2[16:3],
{16},,,,,,,,7bx/C,,,3bx/C,,,{8}5bx/C,
1x-5[8:1]/8x-4[8:1],7x/2x,{4}1x/8x,{8}6,7/5,{32},,,,1x,2x,3x,4x,
{16}6/5x,,,7/4,,,{8}8/3,{16},2/1,,,3,8,4h[32:1],7h[32:1],
{8}5-1[8:1],7-3[8:1],5,7,{16}E2,E3,E4,E5,E6,E7,E8,E1,
{1}E2/Cfh[1:1],
{4}6-1[8:5],6,6,6,
3-8[8:5],3,3,3,
5-8[8:5],5,5,5,
4-1[8:5],4,4,4,
{8}5x/2x,{16}3,4,{8}2,{16}6,5,{8}7-4[8:1],{16}1,2,{4}3/7x,
{8}4x/7x,{16}6,5,{8}7,{16}3,4,{8}2-5[8:1],{16}8,7,{4}6/2x,
{8}3x/7x,B3/B7,6x/2x,B6/B2,{16}1x,8,2,7,3,6,4,5,
{2}Cfh[1:1],{16}E1,E2,E3,E4,E5,E6,E7,E8,
{4}E1,3x/5x,{16}3,4,{8}3,6,5/7,
4,2/1,8,5/7,6,{16}2,4,2,4,{8}3,
2/4,1,7/8,5,{16}3,4,{8}3,2/5,7-5[8:1],
2,7-3[8:1],3-5[8:1],7,2-6[8:1],1,{4}2,
{8}4x/8x-6[8:1],{16}1,2,{8}3/8-4[8:1],{16}2,3,{4}4/8,{16}7-3[8:1],1,5,3,
{4}7,{16}2,4,{8}3,{16}5/1,,,7/3,,,{8}6/2,
5x/1x-3[8:1],{16}8,7,{8}6/1-5[8:1],{16}7,6,{2}5/1,
{4}2v5[8:1]/8v5[8:1],2xp6[8:1]/8x<6[8:1],2x>4[8:1]/8xq4[8:1],2x/8x,
6x-8[8:1]/4x-2[8:1],6x/4x,{16}6,5,{8}6,3,4/2,
5,7/8,1,4/2,3,{16}7,5,7,5,{8}6,
7/5,8,2/1,4,{16}6,5,{8}6,7/4,2-4[8:1],
7,2-6[8:1],6-4[8:1],2,7-3[8:1],8,{4}7,
{8}5x/1x-3[8:1],{16}8,7,{8}6/1-5[8:1],{16}7,6,{4}5/1,{16}2-6[8:1],8,4,6,
{4}2,{16}7,5,{8}6,{16}3x/Cf,,,7x/Cf,,,{8}1x/Cf,
{16},,,,5,4,5,4,{32}1b/6h[8:1],2,3,4,,,,,1b/7h[8:1],2,3,4,{8}5h[2:1],
1h[16:3],,,Ch[8:3],,,,,{4}6-2b[8:1]/5-1b[8:1],
5bx/6bx/E6f,{16}4x,7,3,8,2,1,3x,4,
2,5,1,6,8,7,8,7,1,2,3,4,8,7,6,5,
3,4,3,4,2,5,2,5,1,6,8,7,1,6,8,7,
1,2,3,4,8,7,6,5,4/3bx,,,2/5bx,,,{8}6/1bx,
2-5[8:1]/7-4[8:1],{16}1x/8x,1x/8x,{4}2bx/7bx,{16}3x,4x,2,5,1,6,4,5,
3,6,2,7,5,6,4,7,3,8,3,8,2,7,2,7,
1,6,2,5,3,4,3,4,E3,E5,B2,B5,B1,B6,E1,E7,
E5,E7,B4,B7,B3,B8,E3,E1,C,,,C,,,{8}C,
{16}1x-5[8:1]/2x-6[8:1],1x/2x,,1x/2x,{4}2x/1x/E2f,1x-4[8:1],8/1-6[8:1],
2/1-3[8:1],8/1-7[8:1],2/1-5[8:1],1,
8x-5[8:1],1/8-3[8:1],7/8-6[8:1],1/8-2[8:1],
7/8-5[8:1],1/8-3[8:1],7/8-4[8:1],8,
{8}5x/7x,4,5/7,3,5/6,2,5/6,1,
3/4,8,4/3,7,4/2,6,4/2,5,
{16}5bx,4x,3x,2x,1x,8x,7x/3b,6x,5x,4x,3x,2x,1x/5b,8x,7x,6x,
5x/1b,2x,3x,4x,5x,6x,7x/3b,8x,1x,2x,3x,4x,5x/1b,6x,7x,8x,
{1}1xw5[2:15],
,,,,,,,{4}3/8,
{16}2,1,{8}2q6[8:1],,2/8p4[8:1],1,8/2,
{16},,2,3,,3,{8}4,{16}4,5,,7/6,,,1x,1x,
{4}1xw5[8:1],{32}1x,B1,Cf,B6/B5/B4,,,,,,,,,{16}3,4,{8}3h[8:1],4h,
,4h[8:1]/8h[8:1],{16},6h[8:1]/7h[8:1],,,3h[8:1]/4h[8:1],,,1h[8:1]/5h[8:1],,,{8}3b/7b,
{16}4,8,3,7,2,6,1,5,8,4,1,5,2,6,3,7,
4,8,5,1,{32}A6,B6,C,B2,{8}A2,{32}7b/8x,6x,5x,4x,,,2b/1x,3x,4x,5x,,,{8}1bx/8bx,
{16}2,5,2,5,3,6,3,6,{8}2h[8:1],{32}8bx,7,6,5,{8}2h[8:1],{32}8bx,7,6,5,
{16}4/2,,,1/7,,,2/8h[8:3],3,4,5,6,7,,1,2,3,
{2}4/8-5[8:1]*-3[8:1],4-7[8:1]*-1[8:1],
{32},,,,4b/B4,C,{16}B8,{32},,6b/B6,C,{8}B2,{32}2b/B2,C,{16}B6,{32},,8b/B8,C,{8}B4,B6/B4/B2/B8/Cf,
E
