&title=残酷な天使のテーゼ
&artist=高橋洋子
&first=0.11
&des=bbben
&lv_5=12+
&inote_5=(80)
{4}4qq8[4:6]/5pp1[4:6],,,,,,,,
2V84[4:2]/7V15[4:2],,,,
3q6[4:2],,2<3[4:2],,,,
{64},,,,,,,,{128}
(128.9)
{4}
3^8[8:1],4,6^1[8:1],5,
1-5[8:1],4-8[8:1],,2b,
6^1[8:1],5,3^8[8:1],4,
{8}87,87,56,56,{16}3-7[16:1]/4-8[16:1],,,3b/4b,,,,,
{4}
8>3[4:3],5,5,5,
1<6[4:3],4,4,4,
2-7[8:1],1,6-3[8:1],5,
1-5[4:1],,1,,
4-1[8:1],5,8-5[8:1],,
8-5[8:1],1,4-1[8:1],,
6^3[4:2],,,,
2-6[8:1]/1-5[8:1],,7-3[8:1]/8-4[8:1],,
8>3[4:3],5,5,5,
1<6[4:3],4,4,4,
5-2[8:1],3,4-1[8:1],2,
8-4[4:1],,8,,
6v3[8:1],4,2-5[8:1],,
6v3[8:1],4,8-5[8:1],,
4-1[8:1]/7-2[8:1],,2p7b[8:1],,
1bw5[8:1],1b,8bw4[8:1],8b,
(128.9)
{16}
2h[16:4],,,4h[16:3],,,5h[16:2],,
7h[16:4],,,5h[16:3],,,4h[16:2],,
1h[16:4],,,3h[16:3],,,5h[16:2],,
7h[16:4],,,6h[16:3],,,4h[16:2],,
2h[16:4],,,8h[16:3],,,6h[16:2],,
7h[16:4],,,1h[16:3],,,3h[16:2],,
5b-1[16:1],,,,6b-2[16:1],,,,
7b-3[16:1],,,,8b-4[16:1],,,,
3h[16:4],,,4h[16:3],,,5h[16:2],,
7h[16:4],,,6h[16:3],,,5h[16:2],,
1h[16:4],,,2h[16:3],,,3h[16:2],,
1h[16:4],,,8h[16:3],,,7h[16:2],,
8h[16:4],,,1h[16:3],,,2h[16:2],,
4h[16:3],,,8h[16:3],,,
5v2[16:1]*v8[16:1],,5v3[16:1]*v7[16:1],,,,,,,,
2b/6b,,,1b/5b,,,8b/4b,,
(128.6)
{4}
7-2[8:1]/3-6[8:1],
{16}3b/7b,
,,,2,4,,7,5,,2,,
18,,18,,36,,36,,7,5,,2,4,,,,
6,,3h[16:2],,7,3A,,2,8^5[8:1],,,1,,,2,,
34,,34,,16,,16,,8,7,,1x,
{32}2x,3x,4x,5x,6x,7x,8x,1x,
{16}
2xv3[8:1]/6xv7[8:1],,,,2b/6b,
,,,7,5,,2,4,,7,,
81,,81,,63,,63,,2,4,,7,5,,,,
3,,6h[16:2],,2,6A,,7,1^4[8:1],,,8,,,7,,
65,,65,,83,,83,,5-1[16:1]/6-2[16:1],,,56,
,,8b,8b,
3-6[8:1]/7-2[8:1],,,,3b/7b,
,,,1,3,,3,5,,7,,
12,,34,,56,,78,,2-6[8:1],1,,1,2,,,,
56,,7,,82,3,,7,6/1-6[8:1],,,2,,,3,,
45,,16,,45,,83,,5>1[16:1]*<1[16:1],,,5b,,,
