&title=不潮不用花钱
&artist=林俊杰
&first=0
&des=伍舟之雨
&lv_5=13
&inote_5=(112)
{1},,
{8},,,,,,,,,,,,3/2,,1/5,,
{8}7/6,,8/4,,2/3,,1/5,,
{8}7/6,,8/4,,4,2,5,7,5,2,4,7,
{16}4/8,,3,3,3h[8:1],,7,7,{16}7h[8:1],,2,2,2h[8:1],,6,,1-4[8:1]/5-8[8:1],,,,1/5,,,,8v6[8:1]/4v2[8:1],,,,8/4,,,,
{16}2/6,,7,7,7h[8:1],,3,3,3h[8:1],,6,6,6h[8:1],,2,,1>4[8:1]/5<8[8:1],,,,1/5,,,,1p4[8:1]/5p8[8:1],,,,1/5,,,,8/4,,,,1/5,,,,{16}8/4,,,,
{16}1/5,,4,,4-7[8:1],,,,1,,1>4[8:1],,
{16},,8,,7,,6,,4q8[8:1],,,,2,,2>5[8:1],,
{16},,1,,8,,7,,5h[4:1],,,,3,,1-5[8:1],,
{16},,5,,,,1-5[8:1],,,,4,,,,1h[8:3],,
{16}2,,,,7,,4,,4qq2[8:1],,,,8,,8qq6[8:1],,
{16},,2,,3,,4,,7v1[8:1],,,,3,,3v5[8:1],,
{16},,8,,6,,6,,1h[8:2],,,,2,,3p6[8:2],,
{16},,1s5[8:3],,,,,,,,,,,,,,
{16}4,,2h[8:2],,3,,1h[8:3],,8-3[8:1],,,,,,7-4[8:1],,
{16}2,,8h[8:1],,,,3-7[8:1],,8,,2h[8:1],,,,6h[8:1],,
{16}4,,2,,4,,6,,8h[16:14],,1,1,1,,2,2,
{16}2,,3,3,3,,4,4,8/4,,,,2/3,,,,
{16}5,,7h[8:2],,6,,8h[8:3],,1-6[8:1],,,,,,4-7[8:1],,
{16}2,,8,,2,,8-3[8:1],,6,,4,,6,,8h[8:2],,
{16}5,,2,,4,,7,,5-1[8:1],,,,1,,,,
{16}5-1[8:1],,,,8,,,,5,,,,5,,,,
{16}4/5,,4/5,,6/3,,6/3,,2qq1[8:1]/7<4[8:1],,,,2b/7b,,,,
{16}1/5,,6,,7/3,,1/5,,7pp8[8:1]/3v2[8:1],,,,7b/3b,,,,
{16}7/2,,3,,1-4[8:1]/4-1[8:1],,8/5,,1/4<1[8:2],,,,2,,2,,
{16}5,,3,,5/7,,2,,8<6[8:1]/6>3[8:1],,,,8/6,,,,
{16}1/4,,8,,6/3,,7,,8qq7[8:1]/5qq4[8:1],,,,8b/5b,,,,
{16}8/5,,7,,3/6,,2,,1pp2[8:1]/4pp5[8:1],,,,1b/4b,,,,
{16}1/4,,2,,3/6,,7/2,,1/8,,,,{32}1,8,1,8,1,8,1,8,1,8,1,8,1,8,1,8,1,8,1,8,1,8,1,8,1b-5[8:2],,,,,,,,,,,,,,,,
{16}8,,6,,1,,3,,
{16}7/8,,6,6,1,,3,3,8,,7,6,5/3,,2,,
{16}1/2,,3,3,8,,6,6,1,,2,3,4/6,,7,,
{16}7/8,,6,6,1-6[8:1],,3,,1-5[8:1],,2,2,1,,4,,
{16}4/3,,7,7,4-7[8:1],,2,,4-8[8:1],,1,1,4,,2,,
{16}2/1,,3,3,8,,2,2,7,,1,1,6,,7/8,,
{16}5/6,,2,,4-6[8:1],,7,7,4-1[8:1],,8,8,4,,6,,
{16}3/4,,7,7,6/5,,2,,3/4,,8,8,1-4[8:1],,8-5[8:1],,
{16}1-6[8:1],,8-3[8:1],,1-5[8:1],,8-4[8:1],,1-6[8:1],,8-3[8:1],,1,,8,,
{16}2b,,1/5,,7,,8/4,,2/3,,1/5,,7/6,,8/4,,
{16}2,,1/4,,2,,4/1,,3/8,,1/4,,8/3,,5,,
{16}7,,8/4,,2,,1/5,,7/6,,8/4,,2/3,,1/5,,
{16}7,,8/5,,7,,5/8,,6/1,,8/5,,1/6,,4,,
{16}2b,,5,5,1,,4,4,8,,5,5,2,,4,4,
{16}7b,,6,6,1,,3,3,8,,5,5,1,,3,3,
{16}7b,,6,6,2,,7,7,4,,2,2,5,,3,3v2[8:1],
{16}7v6[16:1],,,,,,,,8/1,,1/8,,7/2,,7/2,,
{16}6/3pp4[32:3],,,,{32}1b/3b,8,7,,
{16},,1/2,,3,,5/4,,3,,7pp8[32:3]/1,,,,{32}5b/7b,4,3,,,,,,
{16}4,,2h[8:2],,3,,1h[8:2],,5-2[8:1],,4,,5-1[8:1],,6,,
{16}5-8[8:1],,8,,5,,5,,8-3[8:1]/5-2[8:1],,,,8/5,,,,7/6,,8/5,,1/4,,2/3,,
{32}1/4,2/5,3/6,,,,,,{32}1b/4b,2/5,3/6,,
{16},,5/7,,6,,4/5,,3,,{32}2/4,5/3,6/4,,,,,,{32}4b/2b,5/3,6/4,,,,,,
{16}2/4,,3/4,,7/5,,6/5,,5b/4bq5[8:2],,,,5b<4[8:2]/4b,,8q1[8:3],,
{16},,,,,,,,,,,,1-3[8:1],,1-7[8:1],,1-4[8:1],,1-6[8:1],,1-5[8:1],,1,,
{16}1b,,7,7,2<7[8:1],,3,4,
{16}2q6[8:1],,6,6,2,,8,8,{32}5b,4,3,,{16}7,7,{32}5,4,3,,{16}6,6,
{16}5-8[8:1],,6,4,5,,3,3,{32}4b,5,6,,2,,2,,4,5,6,,1,,1,,
{16}7>2[8:1],,6,5,7p3[8:1],,3,3,7,,1,1,4-1[8:1],,3,5,
{16}4-8[8:1],,7,7,4,,6,6,{32}1b,2,3,,5,,5,,1,2,3,,4,,4,,
8-5[8:1],,,,{16}7,1,8,,2,2,{32}8b,7,6,,3,,3,,8,7,6,,4,,4,,{16}5-2[8:1],,3,7,5,,6,6,{32}1b,2,3,,5,,5,,1,2,3,,4,,4,,{16}8>3[8:1],,2,2,8<5[8:1],,4,4,8,,1-6[8:1],,2,,1,,1-4[8:1]*z5[8:1],,,,,,,,
{32}2/4,5,6,,,,,,2/4,5,6,,{16},,3h[8:1],,4h[8:1],,5h[8:1],,6,,
{32}7/5,4,3,,,,,,7/5,4,3,,{16},,6h[8:1],,5h[8:1],,4h[8:1],,3,,
{32}2,3,2,3,2,3,2,3,2,3,2,3,2,3,2,3,2,3,2,3,2,3,2,3,2,3,2,3,2,3,2,3,2b-6[8:2],,,,,,,,
{16},,,,8,,7,,6h[8:2],,7,,1p1[8:1],,,,1,,,,2,,3,,4h[8:2],,2,,8q8[8:1],,,,8,,,,7h[8:1],,5h[8:1],,4h[8:1],,2h[8:1],,7,,6p4[8:11],,3,,2p8[8:9],
