&title=Double Agent
&artist=WAV.AV
&first=0.14
&des=ホシノちゃん
&des_5=ホシノちゃん
&lv_5=14
&inote_5=(160.2)
{4},,,
{24}7h[4:1],,,1,2,3,
{8}4b,6h[8:1],5-2[8:1],7h[8:1],5x,1h[8:1],3,8h[8:1],5,6h[8:1],8>3[8:1],5h[8:1],
{24}8x,,,5,6,7,8h[8:1],,,4,,,
{24}E1/B8/B1,,,4x,5x,4x,5x-1[8:1],4x,5x,4x,5x,4x,
{8}5x,2,3,4,
{8}6h[8:1],5h[8:1],7h[8:1],4h[8:1],8h[32:1],7h[32:1]/5h[32:1],4h[32:1]/6h[32:1],3h[32:1]/5h[32:1],
{16}2x/4x,3,4,5,6,7,8,1,2x/5x,4,3,2,1,8,7,6,5h[8:3]/D2,D3,D4,D5,D6,D7,D8,D1,D2/C,D3,D4,D5,
{16}8x,7x,6x,5x,
{16}1h[16:3],,,4,2h[16:3],,,5,3xh[16:3],,,6,4h[16:3],,,7,
{16}5,,2>5[8:1]/6h[8:1],,,,E7/2,,E8,,E1,,Cf,,,,
{16}2,,2>5[8:1],1,2,,2h[8:3],,,,6x,,6x,,,,
{16}2,,2q6[8:1],1,2,,2h[8:3],,,,7x,,7x,,,,
{16}2,,2V46[8:1],1,2,,2h[8:3],,,,7x,,7x,,,,
{32}3b/7b,2/6,1/5,8h[32:5]/4h[32:5],,,,,,,,,2bpp6[4:1]/6b,3/7,4/8,1/5h[32:9],,,,,,,,,,,,,,,,,
{16}7,,7<4[8:1],8,7,,7h[8:3],,,,3x,,3x,,,,
{16}7,,7p3[8:1],8,7,,7h[8:3],,,,2x,,2x,,,,
{16}1b/5b,,3,4,2,,6<1[8:1],5,6x,,5,,4,,3,,
{16}1,3,8,2,7,1,6,8,5w1b[8:1],,,,,,,,
{16}7bh[4:1],,6,5,4,3,2,1,8h[2:1],,,,,,7,6,5h[4:1],,,,2h[4:1],,4,5,6h[4:1],,,,3qq1[4:1],,,,
{8}1>4[16:3],,5qq1[2:1]*<8[8:1],,5x,,8,7,
{48}6h[8:3],,,,,,,,,,,,,,,,,E3,B3,,,,,,
{16}8,,4,,
{24}D7,A6,D6,A5,,,
{16}2h[4:1],,,4,5,6,7,8,1/3,,2/4,,3/5,,4/6,,
{24}6,5,6,
{16}4h[4:1],,8,7,6,5,2b/4b,,E3,E5,E4,,C,,
{16}1,2,3,4,5-3>2[8:1]/7h[4:1],,,,5b,,6,,5,,4,,
{16}B4/B8,,2/6,,,,
{24}3,7,3,
{16}6z2[8:1],4,5,3,,,,,
{16}1bh[4:1],,3,4,5,6,7,8,1xh[4:1]/E5,E6,E7,E8,E1,E2,E3,E4,4xh[4:1]/6,7,8,1,2,3,4x,5,6xh[4:1]/D6,D7,D8,D1,D2,D3,D4,D5,5xh[4:1],,6,7,8,1,2,3,4xh[4:1]/E3,E2,E1,E8,E7,E6,1,8,7xh[4:1]/5x,4,3,2,1,8,7x,6,5xh[4:1]/D1,D8,D7,D6,D5,D4,D3,D2,4xh[4:1]/D1,,,,
{16}6,5,7,4,8b,,3/7,,4/6,,5,1,3b/7b,,,2b/6b,,,4b/8b,,2bh[4:1]/6b,,,,4,5,6,7,
{16}8p4[8:1]/2,,3,,8/4,3,2,1,8x,5,1,6,2,,3/7,,
{16}5h[16:1]/6h[16:1],,,2h[16:1]/4h[16:1],,,1h[16:1]/8h[16:1],,
{24}1x,8x,1x,8x,1x,8xh[6:1],1xh[8:1],,,,,,
{16}E2,4,3x,4,B2,5,4x,5,B3,6,5x,6,E4,7,5x,7,1b,,2v4-6[4:1],,,,2/6,,7-3b[8:1],,,,7,,,,
{16}E2,4,3x,4,B2,5,4x,5,B3,6,5x,6,E4,7,5x,7,1b,,2>4[8:1],,5,,2/5V31[8:1],6,7,,8,7,6b,,,,
{16}E8,5,6x,5,B7,4,5x,4,B6,3,4x,3,E6,2,4x,2,4,1,4x,1,5,8,5x,8,6,8,6x,8,7,1,7x,1,
{16}6,6,2x,2,8,8,4x,4,1,1,3x,3,7,7,1x,1,
{16}5h[16:1],,,2h[16:1]/6h[16:1],,,
{24}3,4,5,
{16}7,7,2,2,8b,,,,
{64}2-5[8:1],E2,B1,B8,E8,,,,
{16}5,5,2x,,8,,4-8[8:1]/6,,3,,2x,,3,3,
{64}7-2[8:1],E7,B6,B5,E5,,,,
{16}1,1,7x,,3,,4/5,,6h[8:1],,1x,8,2,7,
{64}1-4[8:1],E1,B8,B7,E7,,,,
{16}5,5,1x,,7v4[8:1],,5v2[8:1],,7,,5x,,1,8,
{16}7b,5,7b,5,
{48}4bh[8:1]/D8,A8,D1,A1,D2,,,,,,,,
{16}3b,4,3b,4,
{48}5bh[8:1]/D3,A2,D2,A1,D1,,,,,,,,
{64}7-4[8:1],E8,B8,B1,E2,,,,
{16}4,4,7x,,1,,5-1[8:1]/3,,6,,7x,,6,6,
{64}2-7[8:1],E3,B3,B4,E5,,,,
{16}8,8,2x,,6,,5/4,,3h[8:1],,8x,1,7,2,
{64}8-5[8:1],E1,B1,B2,E3,,,,
{16}4,4,8x,,2v5[8:1],,4v7[8:1],,2,,4x,,1,,
{16}1bh[4:1],,,,8,8,2-5[8:1],2,7-4b[8:1],,2,,7b,,,,
{16}1<6[8:1]/8,,2,2,1x,,
{24}4,3,2,
{16}1b-5[8:1]/8b,,,,1bx/2bx,,,,1<6[8:1]/8,,3,3,1x,,2,,1-5[8:1]/8,,2,,1x/3x,,
{24}3,2,1,
{16}8>3[8:1],,7,7,8x,,
{24}5,6,7,
{16}8b-4[8:1]/1b,,,,8bx/7bx,,,,
{16}8,7,6,5,4/8x,3,2,1,4/8w4[8:1],,2/6,,8x,,,,
{16}2h[8:1],,8,8,3x,,7,,2b-6b[8:1]/8b-4b[8:1],,2b/8b,,2bx/8bx/Cf,,,,
{16}7h[8:1],,1,1,6x,,2,,1bv4b[8:1]/7bv4b[8:1],,2b/6b,,1bx/7bx/Cf,,,,
{16}2h[8:1],,4,4,3x,,5,,2bqq8b[8:1]/6bqq4b[8:1],,1b/5b,,2bx/6bx/Cf,,,,
{16}5h[8:1],,1b,,6-2[8:1],5,7,4,6b<1[8:1]*>3[8:1],,,,6b,,,,
{16}2,,2>5[8:1],1,2,,2h[8:3],,,,6x,,6x,,,,
{16}3,,3<6[8:1],1,3,,3h[8:3],,,,7x,,7x,,,,
{16}2,,2V46[8:1],1,2,,2h[8:3],,,,7x,,7x,,,,
{16}3,,3-5<6[8:1],1,3,,3h[8:3],,,,
{24}7x,8,1,2,,,2x,1,8,
{16}7,,7<4[8:1],8,7,,7h[8:3],,,,3x,,3x,,,,
{16}6,,6>3[8:1],8,6,,6h[8:3],,,,2x,,2x,,,,
{16}3x,8,2,5,1,7,8x,6,1,,2/6,,3/7,,4/8,,1<6[8:1]/5,,4,,3,,2>4b[8:1],,,,
{24}2/D7,A7,D8,A8,,,,,,
{16}6-4[8:1],,1h,1h,6h,,2h,,3h/7-5[8:1],,E1,,D2/7h,,,,
{16}6-4[8:1],,3h,3h,6h,,A8,,B1/7-5[8:1],,A2,,E4/7h,,,,
{16}6-4[8:1],,,1h,6h,,2h,,7-5[8:1]/A3,,B2,,7h/Ch[4:1],,,,
{16}6-4[8:1],,,,
{24}6h/A8,E1,E2,A2,,,
{16}7-5[8:1],,4h,,3h/7h,,,,
{16}3-7[8:1],,5<1p4b[8:3],5h,3h,,5h,,Ch[4:1],,,,,,,,
{16}3-5[8:1],,6h,6h,3h,,7h,,2-4[8:1]/8h,,1h,,2h/A8,A7,A6,A5,
{16}3-5[8:1],,8h,8h,3h,,7h,,2-4[8:1]/6h,,7h,,8h[2:1]/2h,,,,
{16}1h[4:1],,,,,,2,,
{24}5,4,5,3h[8:1],,,
{16}6,3,7,2,
{16}1bw5b[8:1]/8b,,,,D1/A1f/D2,,,,1b-5[8:1]/8b,,,,1bx/3bx,,,,1>4[8:1]/8,,7,8,1x/6x,,7,,1-6[8:1]/8,,3,,1x/5x,4,3,2,
{16}8>3[8:1]/1,,6,6,8x,,
{24}5,6,7,
{16}8b-4[8:1]/1b,,,,8bx/6bx,,,,5,6,7,8,1/5x,2,3,4,1w5[8:1]/5,,3/7,,1x,,,,
{16}3/7,,2,1,2xh[8:1],,8,,1b-5b[8:1]/7b-3b[8:1],,1b/7b,,1bx/7bx/Cf,,,,
{16}2h[8:1],,1,3,8x,4,7,3,8bv5b[8:1]/2bv5b[8:1],,3b/7b,,8bx/2bx/Cf,,,,
{16}3h[8:1],,6,6,4xh[8:1],,7,,3bpp5b[8:1]/7bpp1b[8:1],,4b/8b,,3bx/7bx/Cf,,,,
{16}4/6,,3x/C,,1,1,1,1,1xs5[8:1]*z5[8:1],,,,1b,,,,
{16}3b-8[8:1]/7b-4[8:1],,1b/5b,,3bx/7bx,,,,C,,D6,D5,D4,,,,
{16}6b-1[8:1]/2b-5[8:1],,8b/4b,,6bx/2bx,,,,D4,D5,D6,,C,,,,
{16}2b-7[8:1]/6b-3[8:1],,4b/8b,,2bx/6bx,,,,B7,,B2,,E6,A5,E4,A4,
{16}8b-5[8:1],,4-1b[8:1],,8bx-6[8:1],,4-2b[8:1],,8bx-4[8:1],,4,,8bx,,,,
{32}1b,2,3,,7b,6,5,,2bx<8[8:1],3,4,,,,,,
{16}A7,D7,A6,D6,A2,D3,A3,D4,
{32}8b,7,6,,2b,3,4,,7bx>1[8:1],6,5,,,,,,
{16}A2,D3,A3,D4,A7,D7,A6,D6,
{32}8b,1,2,,6b,5,4,,1bx-5[8:3],2,3,,7b,6,5,,
{16}A2,D3,A3,D4,A8,D8,A7,D7,
{32}1b,2,3,,7b,6,5,,8bx,1,2,,6b,5,4,,
{16}2bx,1,3h[16:1],,6bx,5,7h[8:1],,
{16}1<6[8:1],,2,,1x/3x,,2>4[8:1],,1,,5,6,7x-3[8:1],,6,,
{16}7/1<6[8:1],,2,,1x/4x,,5,,
{16}2h,3,4/1h,8,7x/1xh,2,3/7h,6,
{16}5/1<6[8:1],,2,,1x/3x,,4,,3h,2,1/4h,5,6x/4xh,3,2/5h,6,
{16}7/E1/B8/B1,,,,,,,,E6/E4,,,,,,,2/6pp8<4[16:19],2pp4>8b[8:9]/6,,,,,,,,,,,,,,,,,,,,,,,,
{128}E1/E5/Cf,B1,B5,,,B2,B6,,,E3,E7,,,,,,,,,,,,,,,,,,,,,,
E
