&title=APT.
&artist=Rosé & Bruno Mars
&first=0.08
&des=TRG
&wholebpm=149
&lv_5=13
&lv_7=14?
&inote_5=(75)
{2},,
{8}3h[12:1]/4h[12:1],,7h[12:1]/6h[12:1],{384},,,,,,,,,,,,,,,,,,,,,,,,,,,,,,,,,,,,,,,,,,,,,,,,
{16}1h[12:15]/2-6b[16:1],2,,,2,,,,
5-3b[16:1],5,,,5,,,,
{16}2-6b[16:1],,,,2,,,,
(149){384},5-1b[8:1],,,,,,,,,,,,,,,,,,,,,,,,,,,,,,,,,,,,,,,,,,,,,,{8},2^5b[8:1],2,6-2b[8:1],7,6,{384},,,,,,,,,,,,,,,,,,,,,,,,,,,,,,,,,,,,,,,,,,,,,,,,,
{8}4-8b[8:1],,7^4b[8:1],7,3-7b[8:1],2,3,{384},,,,,,,,,,,,,,,,,,,,,,,,,,,,,,,,,,,,,,,,,,,,,,,,
{8}5-1b[8:1],,2^5b[8:1],{384}2,,,,,,,,,,,,,,,,,,,,,,,,,,,,,,,,,,,,,,,,,,,,,,,,
{8}6-2b[8:1],7,6,,
1^7b[32:3]*^3b[32:3],,,6x,35,6x,35,{384}
,,,,,,,,,,,,,,,,,,,,,,,,,,,,,,,,,,,,,,,,,,,,,,,,
{8}4-8b[8:1],,7^4b[8:1],7,3-7b[8:1],2,3,{384},,,,,,,,,,,,,,,,,,,,,,,,,,,,,,,,,,,,,,,,,,,,,,,,
{8}5-1b[8:1],,2^5b[8:1],2,6-2b[8:1],7,6,{384},,,,,,,,,,,,,,,,,,,,,,,,,,,,,,,,,,,,,,,,,,,,,,,,
{8}4-8b[8:1],,7^4b[8:1],{384}7,,,,,,,,,,,,,,,,,,,,,,,,,,,,,,,,,,,,,,,,,,,,,,,,
{8}3-7b[8:1],2,3,,
8^2b[32:3]*^6b[32:3],,,3x,64,3x,64,{384},,,,,,,,,,,,,,,,,,,,,,,,,,,,,,,,,,,,,,,,,,,,,,,,
{8}5h[8:6]/8-3b[8:1],7,8,,7-4b[8:1],6,7,{384},,,,,,,,,,,,,,,,,,,,,,,,,,,,,,,,,,,,,,,,,,,,,,,,
{8}2-5b[8:1],5-2b[8:1],2>7b[8:2],6h[8:2],,,8-4b[8:1],,
1/8,1,15,1,16,1,1V37b[8:2]/7,1,
18,,,6x,35,6x,35,{384},,,,,,,,,,,,,,,,,,,,,,,,,,,,,,,,,,,,,,,,,,,,,,,,
{8}4h[8:6]/1-6b[8:1],,1,,2-5b[8:1],,2,{384},,,,,,,,,,,,,,,,,,,,,,,,,,,,,,,,,,,,,,,,,,,,,,,,
{8}7-4b[8:1],4-7b[8:1],7<2b[8:2],3h[8:2],,,1-5b[8:1],,
8/1,8,84,8,83,8,8V62b[8:2]/2,8,
81,,3x,14,4x,85,7^4b[8:1]/4^1b[8:1],,
7b/4b,,25,6,4,7,1-5b[8:1]/8-6b[8:1],{384}2,,,,,,,,,,,,,,,,,,,,,,,,,,,,,,,,,,,,,,,,,,,,,,,,
{8}1-3b[8:1]/8-4b[8:1],,1/8,,2qq8b[8:1]/6pp8b[8:1],,2/6-4b[8:1],{384},,,,,,,,,,,,,,,,,,,,,,,,,,,,,,,,,,,,,,,,,,,,,,,,
{8}3-7b[8:1]/6,,3/7,8,4,7,3^8b[8:1]/6,{384}5,,,,,,,,,,,,,,,,,,,,,,,,,,,,,,,,,,,,,,,,,,,,,,,,
{8}3-7b[8:1]/4-6b[8:1],,3/4-8b[8:1],,2h[8:1]/4,,2^5b[8:1]/5^8b[8:1],,
2b/5b,,74,3,5,2,8-4b[8:1]/1-3b[8:1],{384}7,,,,,,,,,,,,,,,,,,,,,,,,,,,,,,,,,,,,,,,,,,,,,,,,
{8}8-6b[8:1]/1-5b[8:1],,8/1,,7pp1b[8:1]/3qq1b[8:1],,7/3-5b[8:1],,
36,6,74,7,83,4,5-2[12:1]/6-1[12:1],,,,,,,,36,{384},,,,,,,,,,,,,,,,,,,,,,,,,,,,,,,,,,,,,,,,,,,,,,,,
{8}8-4b[8:1]/4,,3^8b[8:1],{384}3,,,,,,,,,,,,,,,,,,,,,,,,,,,,,,,,,,,,,,,,,,,,,,,,{8}7-3b[8:1],6,7,{384},,,,,,,,,,,,,,,,,,,,,,,,,,,,,,,,,,,,,,,,,,,,,,,,
{8}1-5b[8:1],,6^1b[8:1],{384}6,,,,,,,,,,,,,,,,,,,,,,,,,,,,,,,,,,,,,,,,,,,,,,,,{8}2-6b[8:1],3,2,{384},,,,,,,,,,,,,,,,,,,,,,,,,,,,,,,,,,,,,,,,,,,,,,,,
{8}8-4b[8:1],,3^8b[8:1],{384}3,,,,,,,,,,,,,,,,,,,,,,,,,,,,,,,,,,,,,,,,,,,,,,,,{8}7-3b[8:1],6,7,,
4x^6b[32:3]*^2b[32:3],,,7x,46,7x,46,{384},,,,,,,,,,,,,,,,,,,,,,,,,,,,,,,,,,,,,,,,,,,,,,,,
{8}1-5b[8:1]/5,,6^1b[8:1],{384}6,,,,,,,,,,,,,,,,,,,,,,,,,,,,,,,,,,,,,,,,,,,,,,,,{8}2-6b[8:1],3,2,{384},,,,,,,,,,,,,,,,,,,,,,,,,,,,,,,,,,,,,,,,,,,,,,,,
{8}8-4b[8:1],,3^8b[8:1],{384}3,,,,,,,,,,,,,,,,,,,,,,,,,,,,,,,,,,,,,,,,,,,,,,,,{8}7-3b[8:1],6,7,{384},,,,,,,,,,,,,,,,,,,,,,,,,,,,,,,,,,,,,,,,,,,,,,,,
{8}1-5b[8:1],,6^1b[8:1],{384}6,,,,,,,,,,,,,,,,,,,,,,,,,,,,,,,,,,,,,,,,,,,,,,,,{8}2-6b[8:1],3,2,,
5x^3b[32:3]*^7b[32:3],,,2x,53,2x,53,,
8h[8:13]/4h[8:2],,,4h[8:3],,,,4h[8:3],,,,4h[8:2],,,48,{384},,,,,,,,,,,,,,,,,,,,,,,,,,,,,,,,,,,,,,,,,,,,,,,,
{8}2-5b[8:1]/6,3,6-1b[8:1],7,3-6b[8:1],4,7-4^5-2b[16:5],8,
7b/3,,,3x,64,3x,64,{384}7,,,,,,,,,,,,,,,,,,,,,,,,,,,,,,,,,,,,,,,,,,,,,,,,
{8}5-2b[8:1]/8-3b[8:1],,58,{384},,,,,,,,,,,,,,,,,,,,,,,,,,,,,,,,,,,,,,,,,,,,,,,,{8}4-7b[8:1]/1-6b[8:1],,41,,
8-3b[8:1],3-8b[8:1],8<2b[8:2],1xh[8:2],,,1b,{384},,,,,,,,,,,,,,,,,,,,,,,,,,,,,,,,,,,,,,,,,,,,,,,,
{8}7-4b[8:1]/3,,7/3-8b[8:1],2,6-3b[8:1],5,2-5^4-7b[8:2],1,
2b/6,,6x,85,5x,14,2^5b[8:1]/5^8b[8:1],,
2b/5b,,74,3,5,2,8-4b[8:1]/1-3b[8:1],{384}7,,,,,,,,,,,,,,,,,,,,,,,,,,,,,,,,,,,,,,,,,,,,,,,,
{8}8-6b[8:1]/1-5b[8:1],,8/1,,7pp1b[8:1]/3qq1b[8:1],,7/3-5b[8:1],{384},,,,,,,,,,,,,,,,,,,,,,,,,,,,,,,,,,,,,,,,,,,,,,,,
{8}6-2b[8:1]/3,,6/2,1,5,2,6^1b[8:1]/3,{384}4,,,,,,,,,,,,,,,,,,,,,,,,,,,,,,,,,,,,,,,,,,,,,,,,
{8}6-2b[8:1]/5-3b[8:1],,6/5-1b[8:1],,5/7h[8:1],,7^4b[8:1]/4^1b[8:1],,
7b/4b,,25,6,4,7,1-5b[8:1]/8-6b[8:1],{384}2,,,,,,,,,,,,,,,,,,,,,,,,,,,,,,,,,,,,,,,,,,,,,,,,
{8}1-3b[8:1]/8-4b[8:1],,1/8,,2qq8b[8:1]/6pp8b[8:1],,2/6-4b[8:1],,
63,3,25,2,16,5,4q5[16:5]/3>6[16:5],,,,,,,,65,{384},,,,,,,,,,,,,,,,,,,,,,,,,,,,,,,,,,,,,,,,,,,,,,,,
{8}5-1b[8:1]/3,,2^5b[8:1],{384}2,,,,,,,,,,,,,,,,,,,,,,,,,,,,,,,,,,,,,,,,,,,,,,,,{8}6-2b[8:1],7,6,{384},,,,,,,,,,,,,,,,,,,,,,,,,,,,,,,,,,,,,,,,,,,,,,,,
{8}4-8b[8:1],,7^4b[8:1],{384}7,,,,,,,,,,,,,,,,,,,,,,,,,,,,,,,,,,,,,,,,,,,,,,,,{8}3-7b[8:1],2,3,{384},,,,,,,,,,,,,,,,,,,,,,,,,,,,,,,,,,,,,,,,,,,,,,,,
{8}5-1b[8:1],,2^5b[8:1],{384}2,,,,,,,,,,,,,,,,,,,,,,,,,,,,,,,,,,,,,,,,,,,,,,,,{8}6-2b[8:1],7,6,,
1x^7b[32:3]*^3b[32:3],,,6x,53,6x,53,{384},,,,,,,,,,,,,,,,,,,,,,,,,,,,,,,,,,,,,,,,,,,,,,,,
{8}4-8b[8:1]/6,,7^4b[8:1],{384}7,,,,,,,,,,,,,,,,,,,,,,,,,,,,,,,,,,,,,,,,,,,,,,,,{8}3-7b[8:1],2,3,{384},,,,,,,,,,,,,,,,,,,,,,,,,,,,,,,,,,,,,,,,,,,,,,,,
{8}5-1b[8:1],,2^5b[8:1],{384}2,,,,,,,,,,,,,,,,,,,,,,,,,,,,,,,,,,,,,,,,,,,,,,,,{8}6-2b[8:1],7,6,{384},,,,,,,,,,,,,,,,,,,,,,,,,,,,,,,,,,,,,,,,,,,,,,,,
{8}4-8b[8:1],,7^4b[8:1],{384}7,,,,,,,,,,,,,,,,,,,,,,,,,,,,,,,,,,,,,,,,,,,,,,,,{8}3-7b[8:1],2,3,,
8x^2b[32:3]*^6b[32:3],,,3x,46,3x,4-1b[8:1]/6,,
5bh[8:4],,B7/E8,B7/E8,4h[8:4],,B2/E2,,
5h[8:4],,E7/B7,E7/B7,4h[8:4],,B2/E3,,
5h[8:4],,A6/E7,A6/E7,4h[8:2],,A3/E3,,
6/5-8b[8:1],65,,,43,2,43,1,
{384}7qq3b[8:3]/8-2b[8:1],,,,,,,,,,,,,,,,,,,,,,,,,,,,,,,,,,,,,,,,,,,,,,,,{8},8b/7,,,,{384}4qq8b[8:3]/5-7b[8:1],,,,,,,,,,,,,,,,,,,,,,,,,,,,,,,,,,,,,,,,,,,,,,,,{8},
5b/4,,,6,5,4V25-1-6-8-6-1-5-2-4b[8:15]/3,,4b/7h[8:7],
,,,,,,,,
8h[8:6],,,,,,,,
8-2b[8:1]/7-3b[8:1],,8b/7b,,45,{384}4qq8b[8:3]/5-7b[8:1],,,,,,,,,,,,,,,,,,,,,,,,,,,,,,,,,,,,,,,,,,,,,,,,{8},
5b/4,,,,6,5,4V25-1-6-8-6-1-5-2-4b[8:15]/3,,4b/7h[8:7],
,,,,,,,,
8h[8:6],,,,,,,,
{384}2pp6b[8:3]/1-7b[8:1],,,,,,,,,,,,,,,,,,,,,,,,,,,,,,,,,,,,,,,,,,,,,,,,{8},1b/2,,,,{384}5pp1b[8:3]/4-2b[8:1],,,,,,,,,,,,,,,,,,,,,,,,,,,,,,,,,,,,,,,,,,,,,,,,{8},
4b/5,,,3,4,5V74-8-3-1-3-8-4-7-5b[8:15]/6,,5b/2h[8:7],
,,,,,,,,
1h[8:6],,,,,,,,
1-7b[8:1]/2-6b[8:1],,1b/2b,,54,{384}5pp1b[8:3]/4-2b[8:1],,,,,,,,,,,,,,,,,,,,,,,,,,,,,,,,,,,,,,,,,,,,,,,,{8},4b/5,
,,,3,48,57,6-1b[8:1],{384},,,,,,,,,,,,,,,,,,,,,,,,,,,,,,,,,,,,,,,,,,,,,,,,
{8}3bV52b[16:3],,7,7bV16b[16:3],,3,3bV52b[16:3],,7,7bV16b[16:3],,
3,3bV52b[16:3],,8w4b[8:1],,
8bpp4b[8:6],,,,,,,,
5bpp1b[8:6],,,,,,,,
2bpp6b[8:6],,,,,,,,
{384}7bpp3b[8:5],,,,,,,,,,,,,,,,,,,,,,,,,,,,,,,,,,,,,,,,,,,,,,,,{8},,,2x-6b[8:1],,2,{384},,,,,,,,,,,,,,,,,,,,,,,,,,,,,,,,,,,,,,,,,,,,,,,,
{8}8b^5b[8:1]/2b,,84,3,5,2,8-4b[8:1]/1-3b[8:1],{384}7,,,,,,,,,,,,,,,,,,,,,,,,,,,,,,,,,,,,,,,,,,,,,,,,
{8}8-6b[8:1]/1-5b[8:1],,1/8,,7pp1b[8:1]/3qq1b[8:1],,7/3-5b[8:1],,
3/6,6,7/5,7,82,3,4-8b[8:1]/5-7b[8:1],{384},,,,,,,,,,,,,,,,,,,,,,,,,,,,,,,,,,,,,,,,,,,,,,,,
{8}4-2b[8:1]/5-1b[8:1],,45,,7-4b[8:1]/3-6b[8:1],,73,{384},,,,,,,,,,,,,,,,,,,,,,,,,,,,,,,,,,,,,,,,,,,,,,,,
{8}8b-4b[8:1]/2b,,8/3^8b[8:1],{384}3,,,,,,,,,,,,,,,,,,,,,,,,,,,,,,,,,,,,,,,,,,,,,,,,{8}7-3b[8:1],6,7,{384},,,,,,,,,,,,,,,,,,,,,,,,,,,,,,,,,,,,,,,,,,,,,,,,
{8}1-5b[8:1],,1/6^1b[8:1],{384}6,,,,,,,,,,,,,,,,,,,,,,,,,,,,,,,,,,,,,,,,,,,,,,,,{8}2-6b[8:1],3,2,{384},,,,,,,,,,,,,,,,,,,,,,,,,,,,,,,,,,,,,,,,,,,,,,,,
{8}8-4b[8:1],,8/3^8b[8:1],{384}3
,,,,,,,,,,,,,,,,,,,,,,,,,,,,,,,,,,,,,,,,,,,,,,,,
{8}7-3b[8:1],6,7,,
4^7b[8:1]*^1b[8:1],,4,,2-5b[8:1]/6-1b[8:1],,62,{384},,,,,,,,,,,,,,,,,,,,,,,,,,,,,,,,,,,,,,,,,,,,,,,,
{8}4b-8b[8:1]/8b,,4/7^4b[8:1],{384}7,,,,,,,,,,,,,,,,,,,,,,,,,,,,,,,,,,,,,,,,,,,,,,,,{8}3-7b[8:1],2,3,{384},,,,,,,,,,,,,,,,,,,,,,,,,,,,,,,,,,,,,,,,,,,,,,,,
{8}5-1b[8:1],,5/2^5b[8:1],{384}2,,,,,,,,,,,,,,,,,,,,,,,,,,,,,,,,,,,,,,,,,,,,,,,,{8}6-2b[8:1],7,6,{384},,,,,,,,,,,,,,,,,,,,,,,,,,,,,,,,,,,,,,,,,,,,,,,,
{8}4-8b[8:1],,4/7^4b[8:1],{384}7,,,,,,,,,,,,,,,,,,,,,,,,,,,,,,,,,,,,,,,,,,,,,,,,{8}3-7b[8:1],2,3,,
8^3b[8:1]*^5b[8:1],,8,,6-1b[8:1]/2-5b[8:1],,26,{384},,,,,,,,,,,,,,,,,,,,,,,,,,,,,,,,,,,,,,,,,,,,,,,,
{8}8b-4b[8:1]/4b,,8/3^8b[8:1],{384}3,,,,,,,,,,,,,,,,,,,,,,,,,,,,,,,,,,,,,,,,,,,,,,,,{8}7-3b[8:1],6,7,{384},,,,,,,,,,,,,,,,,,,,,,,,,,,,,,,,,,,,,,,,,,,,,,,,
{8}1-5b[8:1],,1/6^1b[8:1],{384}6,,,,,,,,,,,,,,,,,,,,,,,,,,,,,,,,,,,,,,,,,,,,,,,,{8}2-6b[8:1],3,2,{384},,,,,,,,,,,,,,,,,,,,,,,,,,,,,,,,,,,,,,,,,,,,,,,,
{8}8-4b[8:1],,8/3^8b[8:1],{384}3,,,,,,,,,,,,,,,,,,,,,,,,,,,,,,,,,,,,,,,,,,,,,,,,{8}7-3b[8:1],6,7,,
4^7b[8:1]*^1b[8:1],,4,,2pp4b[8:1]/6pp8b[8:1],,62,{384},,,,,,,,,,,,,,,,,,,,,,,,,,,,,,,,,,,,,,,,,,,,,,,,
{8}4b-8b[8:1]/7b,,4/7^4b[8:1],{384}7,,,,,,,,,,,,,,,,,,,,,,,,,,,,,,,,,,,,,,,,,,,,,,,,{8}3-7b[8:1],2,3,{384},,,,,,,,,,,,,,,,,,,,,,,,,,,,,,,,,,,,,,,,,,,,,,,,
{8}5-1b[8:1],,5/2^5b[8:1],{384}2,,,,,,,,,,,,,,,,,,,,,,,,,,,,,,,,,,,,,,,,,,,,,,,,{8}6-2b[8:1],7,6,{384},,,,,,,,,,,,,,,,,,,,,,,,,,,,,,,,,,,,,,,,,,,,,,,,
{8}4-8b[8:1],,4/7^4b[8:1],{384}7,,,,,,,,,,,,,,,,,,,,,,,,,,,,,,,,,,,,,,,,,,,,,,,,{8}3-7b[8:1],2,3,,
8^2b[32:3]*^6b[32:3],,,3x,4^1[8:1]/6pp8[8:1],3x,46,
&inote_7=(75)
{2},,
{8}3h[12:1]/4h[12:1],,7h[12:1]/6h[12:1],{384},,,,,,,,,,,,,,,,,,,,,,,,,,,,,,,,,,,,,,,,,,,,,,,2?pp6[16:17],
{16}1h[12:15]/2-6b[16:1],2,,,2,,,,
5-3b[16:1],5,,,5,,,,
{16}2-6b[16:1],,,,2,,,,
(149){384}5?qq3[16:5],5-1b[8:1],,,,,,,,,,,,,,,,,,,,,,,,,,,,,,,,,,,,,,,,,,,,,,{8},2^5b[8:1],2,6-2b[8:1],7,6,{384},,,,,,,,,,,,,,,,,,,,,,,,,,,,,,,,,,,,,,,,,,,,,,,,4?pp6[16:5],
{8}4-8b[8:1],,7^4b[8:1],7,3-7b[8:1],2,3,{384},,,,,,,,,,,,,,,,,,,,,,,,,,,,,,,,,,,,,,,,,,,,,,,5?qq3[16:5],
{8}5-1b[8:1],,2^5b[8:1],{384}2,,,,,,,,,,,,,,,,,,,,,,,,,,,,,,,,,,,,,,,,,,,,,,,6?pp7[32:19],
{8}6-2b[8:1],7,6,,
1^7b[32:3]*^3b[32:3],,,6x,35,6x,35,{384}
,,,,,,,,,,,,,,,,,,,,,,,,,,,,,,,,,,,,,,,,,,,,,,,4?pp6[149#16:5],
{8}4-8b[8:1],,7^4b[8:1],7,3-7b[8:1],2,3,{384},,,,,,,,,,,,,,,,,,,,,,,,,,,,,,,,,,,,,,,,,,,,,,,5?qq3[16:5],
{8}5-1b[8:1],,2^5b[8:1],2,6-2b[8:1],7,6,{384},,,,,,,,,,,,,,,,,,,,,,,,,,,,,,,,,,,,,,,,,,,,,,,4?pp6[16:5],
{8}4-8b[8:1],,7^4b[8:1],{384}7,,,,,,,,,,,,,,,,,,,,,,,,,,,,,,,,,,,,,,,,,,,,,,,3?qq2[32:19],
{8}3-7b[8:1],2,3,,
8^2b[32:3]*^6b[32:3],,,3x,64,3x,64,{384},,,,,,,,,,,,,,,,,,,,,,,,,,,,,,,,,,,,,,,,,,,,,,,8?z4[8:5],
{8}5h[8:6]/8-3b[8:1],7,8,,7-4b[8:1],6,7,{384},,,,,,,,,,,,,,,,,,,,,,,,,,,,,,,,,,,,,,,,,,,,,,,2?V47[16:8],
{8}2-5b[8:1],5-2b[8:1],2>7b[8:2],6h[8:2],,,8-4b[8:1],,
1/8pp7[8:8],1,15,1,16,1,1V37b[8:2]/7,1,
18,,,6x,35,6x,35,{384},,,,,,,,,,,,,,,,,,,,,,,,,,,,,,,,,,,,,,,,,,,,,,,1?s5[8:5],
{8}4h[8:6]/1-6b[8:1],,1,,2-5b[8:1],,2,{384},,,,,,,,,,,,,,,,,,,,,,,,,,,,,,,,,,,,,,,,,,,,,,,7?V52[16:8],
{8}7-4b[8:1],4-7b[8:1],7<2b[8:2],3h[8:2],,,1-5b[8:1],,
8/1qq2[8:8],8,84,8,83,8,8V62b[8:2]/2,8,
81,,3x,14,4x,85,7^4b[8:1]/4^1b[8:1],,
7b-3[8:9]/4b,,25,6-4[8:6],4,7,1-5b[8:1]/8-6b[8:1],{384}2,,,,,,,,,,,,,,,,,,,,,,,,,,,,,,,,,,,,,,,,,,,,,,,1?pp5[8:7],
{8}1-3b[8:1]/8-4b[8:1],,1/8,,2qq8b[8:1]/6pp8b[8:1],,2/6-4b[8:1],{384},,,,,,,,,,,,,,,,,,,,,,,,,,,,,,,,,,,,,,,,,,,,,,,6?-2[8:7],
{8}3-7b[8:1]/6$,,3/7-1[8:5],8,4,7,3^8b[8:1]/6,{384}5,,,,,,,,,,,,,,,,,,,,,,,,,,,,,,,,,,,,,,,,,,,,,,,4?pp3[8:7],
{8}3-7b[8:1]/4-6b[8:1],,3/4-8b[8:1],,2h[8:1]/4,,2^5b[8:1]/5^8b[8:1],,
2b-6[8:9]/5b,,74,3-5[8:6],5,2,8-4b[8:1]/1-3b[8:1],{384}7,,,,,,,,,,,,,,,,,,,,,,,,,,,,,,,,,,,,,,,,,,,,,,,8?qq4[8:7],
{8}8-6b[8:1]/1-5b[8:1],,8/1,,7pp1b[8:1]/3qq1b[8:1],,7/3-5b[8:1],,
36,6,74,7,83,4,5-2[12:1]/6-1[12:1],,,,,,,,36,{384},,,,,,,,,,,,,,,,,,,,,,,,,,,,,,,,,,,,,,,,,,,,,,,8?pp1[16:6],
{8}8-4b[8:1]/4,,3^8b[8:1],{384}3,,,,,,,,,,,,,,,,,,,,,,,,,,,,,,,,,,,,,,,,,,,,,,,7?qq5[16:10],{8}7-3b[8:1],6,7,{384},,,,,,,,,,,,,,,,,,,,,,,,,,,,,,,,,,,,,,,,,,,,,,,1?qq8[16:6],
{8}1-5b[8:1],,6^1b[8:1],{384}6,,,,,,,,,,,,,,,,,,,,,,,,,,,,,,,,,,,,,,,,,,,,,,,2?pp4[16:10],{8}2-6b[8:1],3,2,{384},,,,,,,,,,,,,,,,,,,,,,,,,,,,,,,,,,,,,,,,,,,,,,,8?pp1[16:6],
{8}8-4b[8:1],,3^8b[8:1],{384}3,,,,,,,,,,,,,,,,,,,,,,,,,,,,,,,,,,,,,,,,,,,,,,,7?qq6[32:19],{8}7-3b[8:1],6,7,,
4x^6b[32:3]*^2b[32:3],,,7x,46,7x,46,{384},,,,,,,,,,,,,,,,,,,,,,,,,,,,,,,,,,,,,,,,,,,,,,,1?qq8[16:6],
{8}1-5b[8:1]/5,,6^1b[8:1],{384}6,,,,,,,,,,,,,,,,,,,,,,,,,,,,,,,,,,,,,,,,,,,,,,,2?pp4[16:10],{8}2-6b[8:1],3,2,{384},,,,,,,,,,,,,,,,,,,,,,,,,,,,,,,,,,,,,,,,,,,,,,,8?pp1[16:6],
{8}8-4b[8:1],,3^8b[8:1],{384}3,,,,,,,,,,,,,,,,,,,,,,,,,,,,,,,,,,,,,,,,,,,,,,,7?qq5[16:10],{8}7-3b[8:1],6,7,{384},,,,,,,,,,,,,,,,,,,,,,,,,,,,,,,,,,,,,,,,,,,,,,,1?qq8[16:6],
{8}1-5b[8:1],,6^1b[8:1],{384}6,,,,,,,,,,,,,,,,,,,,,,,,,,,,,,,,,,,,,,,,,,,,,,,2?pp3[32:19],{8}2-6b[8:1],3,2,,
5x^3b[32:3]*^7b[32:3],,,2x,53,2x,53,,
8h[8:13]/4h[8:2],,,4h[8:3],,,,4h[8:3],,,,4h[8:2],,,48,{384},,,,,,,,,,,,,,,,,,,,,,,,,,,,,,,,,,,,,,,,,,,,,,,6?z2[16:17],
{8}2-5b[8:1]/6$,3,6-1b[8:1],7,3-6b[8:1],4,7-4^5-2b[16:5],8,
7b/3,,,3x,64,3x,64,{384}7,,,,,,,,,,,,,,,,,,,,,,,,,,,,,,,,,,,,,,,,,,,,,,,5?p6[8:5],
{8}5-2b[8:1]/8-3b[8:1],,58,{384},,,,,,,,,,,,,,,,,,,,,,,,,,,,,,,,,,,,,,,,,,,,,,,1?p2[16:16],{8}4-7b[8:1]/1-6b[8:1],,41,,
8-3b[8:1],3-8b[8:1],8<2b[8:2],1xh[8:2],,,1b,{384},,,,,,,,,,,,,,,,,,,,,,,,,,,,,,,,,,,,,,,,,,,,,,,3?s7[8:8],
{8}7-4b[8:1]/3$,,7/3-8b[8:1],2,6-3b[8:1],5,2-5^4-7b[8:2],1,
2b/6,,6x,85,5x,14,2^5b[8:1]/5^8b[8:1],,
2b-6[8:9]/5b,,74,3-5[8:6],5,2,8-4b[8:1]/1-3b[8:1],{384}7,,,,,,,,,,,,,,,,,,,,,,,,,,,,,,,,,,,,,,,,,,,,,,,8?pp4[8:7],
{8}8-6b[8:1]/1-5b[8:1],,8/1,,7pp1b[8:1]/3qq1b[8:1],,7/3-5b[8:1],{384},,,,,,,,,,,,,,,,,,,,,,,,,,,,,,,,,,,,,,,,,,,,,,,3?-7[8:7],
{8}6-2b[8:1]/3$,,6/2-8[8:5],1,5,2,6^1b[8:1]/3,{384}4,,,,,,,,,,,,,,,,,,,,,,,,,,,,,,,,,,,,,,,,,,,,,,,5?qq6[8:7],
{8}6-2b[8:1]/5-3b[8:1],,6/5-1b[8:1],,5/7h[8:1],,7^4b[8:1]/4^1b[8:1],,
7b-3[8:9]/4b,,25,6-4[8:6],4,7,1-5b[8:1]/8-6b[8:1],{384}2,,,,,,,,,,,,,,,,,,,,,,,,,,,,,,,,,,,,,,,,,,,,,,,1?qq5[8:7],
{8}1-3b[8:1]/8-4b[8:1],,1/8,,2qq8b[8:1]/6pp8b[8:1],,2/6-4b[8:1],,
63,3,25,2,16,5,4q5[16:5]/3>6[16:5],,,,,,,,65,{384},,,,,,,,,,,,,,,,,,,,,,,,,,,,,,,,,,,,,,,,,,,,,,,5?qq5[16:6],
{8}5-1b[8:1]/3,,2^5b[8:1],{384}2,,,,,,,,,,,,,,,,,,,,,,,,,,,,,,,,,,,,,,,,,,,,,,,6?pp8[16:10],{8}6-2b[8:1],7,6,{384},,,,,,,,,,,,,,,,,,,,,,,,,,,,,,,,,,,,,,,,,,,,,,,4?pp4[16:6],
{8}4-8b[8:1],,7^4b[8:1],{384}7,,,,,,,,,,,,,,,,,,,,,,,,,,,,,,,,,,,,,,,,,,,,,,,3?qq1[16:10],{8}3-7b[8:1],2,3,{384},,,,,,,,,,,,,,,,,,,,,,,,,,,,,,,,,,,,,,,,,,,,,,,5?qq5[16:6],
{8}5-1b[8:1],,2^5b[8:1],{384}2,,,,,,,,,,,,,,,,,,,,,,,,,,,,,,,,,,,,,,,,,,,,,,,6?pp7[32:19],{8}6-2b[8:1],7,6,,
1x^7b[32:3]*^3b[32:3],,,6x,53,6x,53,{384},,,,,,,,,,,,,,,,,,,,,,,,,,,,,,,,,,,,,,,,,,,,,,,4?pp4[16:6],
{8}4-8b[8:1]/6,,7^4b[8:1],{384}7,,,,,,,,,,,,,,,,,,,,,,,,,,,,,,,,,,,,,,,,,,,,,,,3?qq1[16:10],{8}3-7b[8:1],2,3,{384},,,,,,,,,,,,,,,,,,,,,,,,,,,,,,,,,,,,,,,,,,,,,,,5?qq5[16:6],
{8}5-1b[8:1],,2^5b[8:1],{384}2,,,,,,,,,,,,,,,,,,,,,,,,,,,,,,,,,,,,,,,,,,,,,,,6?pp8[16:10],{8}6-2b[8:1],7,6,{384},,,,,,,,,,,,,,,,,,,,,,,,,,,,,,,,,,,,,,,,,,,,,,,4?pp4[16:6],
{8}4-8b[8:1],,7^4b[8:1],{384}7,,,,,,,,,,,,,,,,,,,,,,,,,,,,,,,,,,,,,,,,,,,,,,,3?qq2[32:19],{8}3-7b[8:1],2,3,,
8x^2b[32:3]*^6b[32:3],,,3x,46,3x,4-1b[8:1]/6,,
5bh[8:4],,B7/E8,B7/E8,4h[8:4],,B2/E2,,
5h[8:4],,E7/B7,E7/B7,4h[8:4],,B2/E3,,
5h[8:4],,A6/E7,A6/E7,4h[8:2],,A3/E3,,
6/5-8b[8:1],65,,,43,2,43,1,
{384}7qq3b[8:3]/8-2b[8:1],7?-3[8:3],,,,,,,,,,,,,,,,,,,,,,,,,,,,,,,,,,,,,,,,,,,,,,,{8},8b/7,,,,{384}4qq8b[8:3]/5-7b[8:1],4?-8[8:3],,,,,,,,,,,,,,,,,,,,,,,,,,,,,,,,,,,,,,,,,,,,,,,{8},
5b/4,,,6,5,4V25-1-6-8-6-1-5-2-4b[8:15]/3,,4b>4[8:13]/7h[8:7],
,,,,,,,,
8w4[8:4],,,,,,,,
8-2b[8:1]/7-3b[8:1],,8b/7b,,45,{384}4qq8b[8:3]/5-7b[8:1],4?-8[8:3],,,,,,,,,,,,,,,,,,,,,,,,,,,,,,,,,,,,,,,,,,,,,,,{8},
5b/4,,,,6,5,4V25-1-6-8-6-1-5-2-4b[8:15]/3,,4b>4[8:13]/7h[8:7],
,,,,,,,,
8w4[8:4],,,,,,,,
{384}2pp6b[8:3]/1-7b[8:1],2?-6[8:3],,,,,,,,,,,,,,,,,,,,,,,,,,,,,,,,,,,,,,,,,,,,,,,{8},1b/2,,,,{384}5pp1b[8:3]/4-2b[8:1],5?-1[8:3],,,,,,,,,,,,,,,,,,,,,,,,,,,,,,,,,,,,,,,,,,,,,,,{8},
4b/5,,,3,4,5V74-8-3-1-3-8-4-7-5b[8:15]/6,,5b<5[8:13]/2h[8:7],
,,,,,,,,
1w5[8:4],,,,,,,,
1-7b[8:1]/2-6b[8:1],,1b/2b,,54,{384}5pp1b[8:3]/4-2b[8:1],5?-1[8:3],,,,,,,,,,,,,,,,,,,,,,,,,,,,,,,,,,,,,,,,,,,,,,,{8},4b/5,
,,,3,48,57,6-1b[8:1],{384},,,,,,,,,,,,,,,,,,,,,,,,,,,,,,,,,,,,,,,,,,,,,,,3?^5<1>5<1>5[32:51],
{8}3bV52b[16:3],,7,7bV16b[16:3],,3,3bV52b[16:3],,7,7bV16b[16:3],,
3,3bV52b[16:3],,8w4b[8:1],,
8bpp4b[8:6],,,,,,,,
5bpp1b[8:6],,,,,,,,
2bpp6b[8:6],,,,,,,,
{384}7bpp3b[8:5],7?-3[8:5],,,,,,,,,,,,,,,,,,,,,,,,,,,,,,,,,,,,,,,,,,,,,,,{8},,,2x-6b[8:1],,2,{384},,,,,,,,,,,,,,,,,,,,,,,,,,,,,,,,,,,,,,,,,,,,,,,2?-6[8:9],
{8}8b^5b[8:1]/2$b,,84,3-5[8:6],5,2,8-4b[8:1]/1-3b[8:1],{384}7,,,,,,,,,,,,,,,,,,,,,,,,,,,,,,,,,,,,,,,,,,,,,,,8?pp4[8:7],
{8}8-6b[8:1]/1-5b[8:1],,1/8,,7pp1b[8:1]/3qq1b[8:1],,7/3-5b[8:1],,
3/6-2[8:9],6,7-1[8:7]/5,7,82,3,4-8b[8:1]/5-7b[8:1],{384},,,,,,,,,,,,,,,,,,,,,,,,,,,,,,,,,,,,,,,,,,,,,,,4?qq6[8:5],
{8}4-2b[8:1]/5-1b[8:1],,45,,7-4b[8:1]/3-6b[8:1],,73,{384},,,,,,,,,,,,,,,,,,,,,,,,,,,,,,,,,,,,,,,,,,,,,,,8?pp8[16:6],
{8}8b-4b[8:1]/2b,,8/3^8b[8:1],{384}3,,,,,,,,,,,,,,,,,,,,,,,,,,,,,,,,,,,,,,,,,,,,,,,7?qq5[16:10],{8}7-3b[8:1],6,7,{384},,,,,,,,,,,,,,,,,,,,,,,,,,,,,,,,,,,,,,,,,,,,,,,1?qq1[16:6],
{8}1-5b[8:1],,1/6^1b[8:1],{384}6,,,,,,,,,,,,,,,,,,,,,,,,,,,,,,,,,,,,,,,,,,,,,,,2?pp4[16:10],{8}2-6b[8:1],3,2,{384},,,,,,,,,,,,,,,,,,,,,,,,,,,,,,,,,,,,,,,,,,,,,,,8?pp8[16:6],
{8}8-4b[8:1],,8/3^8b[8:1],{384}3
,,,,,,,,,,,,,,,,,,,,,,,,,,,,,,,,,,,,,,,,,,,,,,,7?qq1[8:9],
{8}7-3b[8:1],6,7,,
4^7b[8:1]*^1b[8:1],,4,,2-5b[8:1]/6-1b[8:1],,62,{384},,,,,,,,,,,,,,,,,,,,,,,,,,,,,,,,,,,,,,,,,,,,,,,4?pp4[16:6],
{8}4b-8b[8:1]/8b,,4/7^4b[8:1],{384}7,,,,,,,,,,,,,,,,,,,,,,,,,,,,,,,,,,,,,,,,,,,,,,,3?qq1[16:10],{8}3-7b[8:1],2,3,{384},,,,,,,,,,,,,,,,,,,,,,,,,,,,,,,,,,,,,,,,,,,,,,,5?qq5[16:6],
{8}5-1b[8:1],,5/2^5b[8:1],{384}2,,,,,,,,,,,,,,,,,,,,,,,,,,,,,,,,,,,,,,,,,,,,,,,6?pp8[16:10],{8}6-2b[8:1],7,6,{384},,,,,,,,,,,,,,,,,,,,,,,,,,,,,,,,,,,,,,,,,,,,,,,4?pp4[16:6],
{8}4-8b[8:1],,4/7^4b[8:1],{384}7,,,,,,,,,,,,,,,,,,,,,,,,,,,,,,,,,,,,,,,,,,,,,,,3?qq5[8:9],{8}3-7b[8:1],2,3,,
8^3b[8:1]*^5b[8:1],,8,,6-1b[8:1]/2-5b[8:1],,26,{384},,,,,,,,,,,,,,,,,,,,,,,,,,,,,,,,,,,,,,,,,,,,,,,8?pp7[16:8],
{8}8b-4b[8:1]/4b,,8/3^8b[8:1],{384}3pp5[16:12],,,,,,,,,,,,,,,,,,,,,,,,,,,,,,,,,,,,,,,,,,,,,,,7?qq5[16:10],{8}7-3b[8:1],6,7,{384},,,,,,,,,,,,,,,,,,,,,,,,,,,,,,,,,,,,,,,,,,,,,,,1?qq2[16:8],
{8}1-5b[8:1],,1/6^1b[8:1],{384}6qq4[16:12],,,,,,,,,,,,,,,,,,,,,,,,,,,,,,,,,,,,,,,,,,,,,,,2?pp4[16:10],{8}2-6b[8:1],3,2,{384},,,,,,,,,,,,,,,,,,,,,,,,,,,,,,,,,,,,,,,,,,,,,,,8?pp7[16:8],
{8}8-4b[8:1],,8/3^8b[8:1],{384}3,,,,,,,,,,,,,,,,,,,,,,,,,,,,,,,,,,,,,,,,,,,,,,,7?qq4[32:35],{8}7-3b[8:1],6,7,,
4^7b[8:1]*^1b[8:1],,4,,2pp4b[8:1]/6pp8b[8:1],,62,{384},,,,,,,,,,,,,,,,,,,,,,,,,,,,,,,,,,,,,,,,,,,,,,,4?pp3[16:8],
{8}4b-8b[8:1]/7b,,4/7^4b[8:1],{384}7pp1[16:12],,,,,,,,,,,,,,,,,,,,,,,,,,,,,,,,,,,,,,,,,,,,,,,3?qq1[16:10],{8}3-7b[8:1],2,3,{384},,,,,,,,,,,,,,,,,,,,,,,,,,,,,,,,,,,,,,,,,,,,,,,5?qq6[16:8],
{8}5-1b[8:1],,5/2^5b[8:1],{384}2qq8[16:12],,,,,,,,,,,,,,,,,,,,,,,,,,,,,,,,,,,,,,,,,,,,,,,6?pp8[16:10],{8}6-2b[8:1],7,6,{384},,,,,,,,,,,,,,,,,,,,,,,,,,,,,,,,,,,,,,,,,,,,,,,4?pp3[16:8],
{8}4-8b[8:1],,4/7^4b[8:1],{384}7,,,,,,,,,,,,,,,,,,,,,,,,,,,,,,,,,,,,,,,,,,,,,,,3?qq2[32:19],{8}3-7b[8:1],2,3,,
8^2b[32:3]*^6b[32:3],,,3x,4^1[8:1]/6pp8[8:1],3x,46,
