&title=燎火のフォルトゥナ
&artist=榊原ゆい/PCゲーム「真・恋姫†夢想-革命- 孫呉の血脈」OPテーマ
&first=0.58
&des=Ragna
&wholebpm=160
&demo_seek=60.4
&demo_len=27.3
&des_5=Ragna
&lv_5=13+
&inote_5=(160){8}1s5[4:31],
1h[16:1],1h[16:1],1h[16:1],2,2h[16:1],2h[16:1],2h[16:1],
3,3h[16:1],3h[16:1],3h[16:1],4,4h[16:1],4h[16:1],4h[16:1],
5,5h[16:1],5h[16:1],5h[16:1],6,6h[16:1],6h[16:1],6h[16:1],
7,7h[16:1],7h[16:1],7h[16:1],8,8h[16:1],8h[16:1],8h[16:1],
1,1h[16:1],1h[16:1],1h[16:1],2,2h[16:1],2h[16:1],2h[16:1],
3,3h[16:1],3h[16:1],3h[16:1],4,4h[16:1],4h[16:1],4h[16:1],
6,6h[16:1],6h[16:1],6h[16:1],7,7h[16:1],7h[16:1],7h[16:1],
8,8h[16:1],8h[16:1],8h[16:1],1,1h[16:1],1h[16:1],1h[16:1],
2>1[4:7],4h[16:1],4h[16:1],4h[16:1],
4<3[4:7],6h[16:1],6h[16:1],6h[16:1],
6<5[4:7],8h[16:1],8h[16:1],8h[16:1],
8>7[4:7],5h[16:1],5h[16:1],5h[16:1],
5,4h[16:1],4h[16:1],4h[16:1],
4<1[4:5],6h[16:1],6h[16:1],6h[16:1],
6^1[4:3],8h[16:1],8h[16:1],8h[16:1],
8,5h[16:1],5h[16:1],5h[16:1],
5>6[4:7],3h[16:1],3h[16:1],3h[16:1],
3>4[4:7],1h[16:1],1h[16:1],1h[16:1],
1<2[4:7],4h[16:1],4h[16:1],4h[16:1],
4,5h[16:1],5h[16:1],5h[16:1],
5>6[4:7],3h[16:1],3h[16:1],3h[16:1],
3>6[4:5],1h[16:1],1h[16:1],1h[16:1],
1^6[4:3],4h[16:1],4h[16:1],4h[16:1],
4,5h[16:1],5h[16:1],5h[16:1],
{2}5V73[4:3],,7-3[4:3],,2V84[4:3],,8-4[4:1],8-4[4:1],
6V41[4:3],,4-1[4:3],,8V25[4:3],,{8}4h[8:3],,,6^3[8:3],,5,,,
{2}1<3[4:3],6,1<2[4:3],,5<3[4:3],8,5<4[4:3],4,
1<3[4:3],6,1>8[4:3],,1-5[4:3],
{8},,,1w5[8:5],,,,,{2},
{8}1p6[4:3],,,,,,,8pp6[4:3],,,,,,,,,5p2[4:3],,,,,,,4pp2[4:3],,,,,,,,,
1q2[4:3],,,,,,,8qq2[4:3],,,,,,,,,5V36[8:5],,,,,,,1V36[8:5],,,,,,,,,
1b/8b,1b-6[8:1]/8b-3[8:1],,1bV35[8:1]/8bV64[8:1],,1b/8b,,,
2b^7[8:1]*^7[8:1]/7b,,4,4-8[8:1]*-8[8:1],
,2-5[8:1]*-5[8:1],,7^2[8:1]*^2[8:1],
,4qq4[4:1]*qq4[4:1],,8h[8:3],,,5,,
3/7-3[8:1]*-3[8:1],,1,1^6[8:1]*^6[8:1],
,5-8[8:1]*-8[8:1],,4<3[16:7]*<3[16:7],
,,8,,6,,45,,
2b-7[8:1]*-7[8:1]/5b,,6,6q2[8:1]*q2[8:1],
,4p7[8:1]*p7[8:1],,5q4[8:1]*q4[8:1],
,3V15[4:1]*V15[4:1],,6h[8:3],,,4,,
5^8[8:1]*^8[8:1]/2,,1b,1b-4[8:1]*-6[8:1],
,1b,,3b/7bpp3[8:3]*pp3[8:3],
,,5,,2,,84,,
2b-5[8:1]*-5[8:1]/5b,,7,7-3[8:1]*-3[8:1],
,8^3[8:1]*^3[8:1],,5-1[8:1]*-1[8:1],
,4s8[4:1]*s8[4:1],,7h[8:3],,,1,,
6-3[8:1]*-3[8:1]/3,,1,1v6[8:1]*v6[8:1],
,4<1[16:3]*<1[16:3],,3h[8:3],
,,2-6[8:1]*-6[8:1],,4-1[8:1]*-7[8:1],,4,,
2/8v5[8:1]*v5[8:1],,4,4-8[8:1]*-8[8:1],,6,,7/1<2[16:7]*<2[16:7],
,,5,,7,,18,,
38,,16,1^4[8:1]/6^1[8:1],,16,,8b/3b,
,1b/5b,1b/5b,,2/7^2[8:1]*^2[8:1],,4,4>4[8:11]*<4[8:11],
,,,,,,,,
,,,,,,,,
3V15[4:1]*V15[4:1]/5,,6,8-6[8:1]*-4[8:1],,8-2[8:1]*-2[8:1],,8,
5^2[8:1]*^8[8:1],,,,1^4[8:1]*^6[8:1],,,,
5b>5[8:11]*<5[8:11],,,,,,,,
,,,,,,,,
6V84[4:1]*V84[4:1]/4,,,1-5[8:1]*-3[8:1],,1,,6/4V62[4:1]*V62[4:1],
,1,8,7,6-2[8:1]*-2[8:1],53,,,
8bV64[4:1]/4b
-2[8:1],,8/4V28[4:1]*V28[4:1],
,8V62[4:1]*V62[4:1],,2-4[8:1]*-4[8:1],4V68[4:1]*V68[4:1],
,,,1V35[8:1]*V75[8:1],,,,,
3V15[4:1]*V15[4:1]/7,,4,4V68[8:1]*V68[8:1],
,1pp5[8:3]*pp5[8:3],,7h[8:5],
,,,,4v2[8:1]*v6[8:1],,,,
8-6[8:1]/4V28[4:1],,4/8V24[4:1]*V24[4:1],
,4V62[4:1]*V62[4:1],5,6,7V13[8:1]*V13[8:1],
,,4V61[4:1]*V61[4:1],,1-4[8:1]*-6[8:1],,,,
3-7[8:1]/7V53[4:1],,3V16[4:1]*V16[4:1]/7,,1,,,4b/5b,
,2b/7b,2b/7b,,1^6[8:1]/8^3[8:1],,18,,
4bqq7[8:45]*qq7[8:45]/5b,,,,,,,1,
,,4h,,,,,,
7p1[2:1]*p1[2:1],,,,,,,,
{1}8h[16:1],,,E
