&title=ブレインロット
&artist=東京真中
&first=0.19
&des=Ultra
&lv_5=13
&inote_5=(135)
{8}7h[8:1],,3h[8:1]/E8,,C,{24}6-4[8:1],,3,,,,,,,
{8}2h[8:1],,6h[8:1]/E2,,C,{24}3-5[8:1],,,,,6,,,,
{8}7h[8:1],,3h[8:1]/E8,,C,{24}6-4[8:1],,3,,,,,,,
{8}1h[2:1],,,,7b,,3b/C,,
{8}2h[8:1]/4,,{32}A7,E7,,,,,,,{8}3h[8:1]/5,,{32}A7/2>5>2[8:3],E7,,,,,,,
{8}2/6h[8:1],,{32}A7,E7,,,,,,,{8}8-4[8:1],,82,,
{8}5h[8:1],,{32}A2,E3,,,,,,,{8}6h[8:1]/4,,{32}A2/7-1[8:1],E3,,,,,,,
{8}7-3[8:1]/6h[8:1],,8h[8:1]/7<3[8:1],,1h[8:1],,2x-5[8:1]/8x-4[8:1],,
{8}8/2,,2-4[8:1],1,28,,7-5[8:1],8,7/1-3[8:1],,6qq5[4:1]/1,,5<4[8:4]/6,,,,
{8}2xh[2:3],,,,7<5[8:1],8,,,7<5[8:1],8,,,7b,,C/3bqq5[2:1],,,,
{8}6pp4[2:1],,,,3qq5[2:1],,,,,7,7,8,8<5pp7[2:1],,,,
{8}1>4qq2[2:1],,,,8<5pp7[2:1],,,,,,2>4[8:1],2,5^7-5-1[2:1],5,,,
{8}4^2-4-8[2:1],,,,5^7-5-1[2:1],,,,,4,3,2>1V75-3[8:7],1,2h[8:9],,,,,,,,,
{8}7x-5[8:1]*-3-1[4:1],,,,8-5^4[8:1],,,,
{8}C,2h[8:11]/1h[8:1],,3h[8:1],,4h[8:1],,5h[8:1],,6h[8:1],,7h[8:1],,
{8}8-5[8:1]/2-8[8:1],8-3[8:1],,,
{8}6h[8:11],,7h[8:1],,8h[8:1],,1h[8:1],,2h[8:1],,3h[8:1],,
{8}2>4[8:1]/6-2[8:1],2-7[8:1],,,
{8}Ch[8:10],,8h[8:1],,7h[8:1],,6h[8:1],,5h[8:1],,4h[8:1],
{8}1,2,3/5-1[8:1],,7h[8:12]/5,,,,8-5[8:1],1,,,8-5[8:1],1,,,4b,,8b/C,,
{8}2-5[8:1]/6h[8:1],,2/7-1[8:1],,3-8[8:1]/7,4,37,5-7-4-8[8:3],,1,2,3,4x-8[8:1],,24,,
{8}6-1[8:1]/2h[8:1],,6/3-5[8:1],,7-4[8:1]/3,8,73,1>4-8-3[8:3],,5,6,7,8x-3[8:1],,82,,
{8}1x-5[8:1]/7h[8:1],,1/6-4[8:1],,2-5[8:1]/6,1,26,8<3[4:1],,3<8[4:1],2,,
{8}1-5[8:1],2,7-4[8:1]/1,6,3>6[4:1]/7,,,,,5-8[8:1],6,35,,5-8[8:1],6,35,1b,,5b-1[8:1]b/Ch[4:1]f,,
{32}E6/E5/A6/A5/D6,,,,
{32},,,,3x,,,,2,,,,
{32}1/D2/5,D3,D4,4xh[32:5],,,,,5/D6,D7,D8,8xh[32:5],,,,,1/D2,D3,D4,4xh[32:5],,,,,5/D6,D7,D8,8xh[32:5],,,,,{16}4<7[8:1]V15[4:1],,35,,2x/4x,,,,
{32}E2,,,,2,,,,3,,,,4,,,,
{32}5/E5/1,B4,B3,2xh[32:5],,,,,1/E1,B8,B7,6xh[32:5],,,,,5/E5,B4,B3,2xh[32:5],,,,,1-7-2-6-4[8:4]/E1,B8,B7,{24}E7,{64}6xh[72:26],,{24},,1,,,,,,,,,,,,E8f/B7,,,,,,
2b/6b,,,4,,,
{48}3/E4,B4,B5,E6,6xh[48:8],,,,,,,,7/E8,B8,B1,E2,2xh[6:1],,,,,,,,3/E4,B4,B5,E6,6xh[6:1],,,,,,,,7/E8,B8,B1,E2,2xh[6:1],,,,,,,,
{8}3-7-1-5[8:3],45,3x/6x,,
{8}E7,8,7,6,{48}5/E6,B6,B7,E8,8xh[48:8],,,,,,,,1/E2,B2,B3,E4,4xh[6:1],,,,,,,,6/E6,B5,B4,E4,3xh[6:1],,,,,,,,2/E2,B1,B8,E8,,,6x,,,,,,
{8}5-8[8:1],1-4[8:1],5,1,C/B8/B1/E1f,,,,,,,
4h[8:9],,,,,A6/E6,,E2/A2,,8h[1:2],,,,,,2>5[4:1],,,,,,A5/B5,,A1/B1,,
7,,46,,3,3,2-4[8:1]/4,,28,,7,,6,5,3-8-5<3[8:8]/4,2,1h[1:1],,,,,,,,,,
1x-5[4:1]/7x-3[4:1],,,,,,
3h[1:1],5h[8:1],,6h[8:1],,7h[8:1],,8h[8:1],,12,38,47,{24}6,,6,5,,,36,,4,5,,18,
{24}2b-5[8:1],,,3,,,2/7^1[8:1],,,6,,,2-5[8:1]/7,,,3,,,27,,,8<6[8:1],,,,,,
{24}8-4[8:1]/1,,,4,,,8,,,3,,3,5,,,7,,7,5,,,
{24}4v2[8:1]/8,,,3,,,4/8<5[8:1],,,7,,,4v2[8:1]/8,,,3,,,4/8,,,
7pp4[8:3],,,,,,3,,,4>5[2:1],,,2,,,C,,,,,,4>5[2:1],,,,,,C,,,,,,,,,,,,,,,
3/4>1[8:1],,,5,,,46,,,,,,
3/4>1[8:1],,,5,,,46,,,
7b,,,,,,3b/Ch[4:1],,,,,,1xw5[8:1],,,,,,B1f,,,,,,
73,,,6/4-1[8:1],,,35,,,4-7[8:1],,,5,,,4,,,3-6[8:1],,,2,,,7-2[8:1]/3,,,,,,3-7[8:1]/7<4[8:1],,,,,,C/7b/3,,,
,,,28,,3,4,,,78,,,5/2-8[8:1],,,34,,,2-5[8:1],,,5,,,2,,,8^6[8:1],,,1,,,4>2[8:1]/8,,,,,,4-8[8:1]/8-5[8:1],,,,,,4b/C/8b,,,,,,
15,,2,4,,,8/4,,7,5,,,4/2,,,1-3[8:1],,,5-7[8:1],,,1-5[8:1],,,
5<4[2:1],,,1,,,C,,,,,,5<4[2:1]b,,,,,,C,,,,,,,,,,,,,,,6/8<5[8:1],,,1,,,82,,,,,,
5/8<5[8:1]b,,,2,,,85,,,1b,,,,,,Ch[4:1],,,,,,
