&title=舞萌打累了,来打会喵斯快跑吧
&artist=NoKANY
&first=0
&des=hyw?
&clock_count=4
&lv_5=11
&lv_7=11
&inote_5=(203)
{1},,,,,
{2},
{16},
{32},
{128},
{8}
6,,,,7,,,6,6,,,,7,,,,7,,,,
7,,6,,6,,,,7,,,,
6,,,,7,,,6,6,,,,7,,,,6,,,,
7,,6,,6,,,,7,,6,,
6,6,6,6,7,7,7,7,6,,,,7,,6,,
6,6,7,7,6,6,7,7,6,,,,7,,,,
6,6,6,6,7,7,7,7,6,,,,7,,6,,
6,6,7,7,6,6,7,7,
{6}
6,7,,6,7,,
{16}
6,,7,,6,6,6,,6,,7,,6,6,6,,6,,7,,6,6,6,,6,,7,,7,7,7,,
6,,7,,6,6,6,,6,,7,,6,6,6,,7,7,6,6,7,7,6,6,
7,7,,7,7,,6,6,
6,,7,,6,6,6,,6,,7,,6,6,6,,6,,7,,6,6,6,,6,,7,,7,7,7,,
6,,7,,6,6,6,,6,,7,,6,6,6,,
6h[4:1],,,,7h[4:1],,,,6h[4:1],,,,7,,7,,
6,,7,,6,6,6,,6,,7,,6,6,6,,6,,7,,6,6,6,,6,,7,,7,7,7,,
6,,7,,6,6,6,,6,,7,,6,6,6,,7,7,6,6,7,7,6,6,
7,7,,7,7,,6,6,
6,,7,,6,6,6,,6,,7,,6,6,6,,6,,7,,6,6,6,,6,,7,,7,7,7,,
6,,6h[8:1],,7,,7h[8:1],,6,,6h[8:1],,7,,7h[8:1],,
6,,7,7,7,,67,,6,6,6,,67,,6,,
7h[1:1]/6,,,,,,,,6,,,,,,,,
6h[1:1],,,,,,,,7,,,,,,,,
7,7,7,7,6,6,6,6,6,,
6,,7,,7,,6,,6,,6,,6,,7,,7,,6,,6,,
6h[2:1],,,,,,,,7,,7,,6,,6,,
{6}
6,6,6,
{8}
6h[4:1],,7h[4:1],,
{16}
6,6,6,6,7,7,7,7,
{8}
6,6,7,7,6,6,6,6,7,7,6,6,
7h[1:1]/6,,,,6,,,,
6h[1:1],,,,7,,,,
{16}
7,7,7,7,6,6,6,6,6,,
6,,7,,7,,6,,6,,6,,6,,7,,7,,6,,6,,
6h[2:1]/7,,,,,,,,7,,7,,6,,6,,
6h[8:1],,7h[8:1],,6h[8:1],,7h[8:1],,
6,,,6,,,6,,
6,6,6,6,7,7,7,7,
6,,7,,6,,7,,6,,6,,7,,7,,
7h[8:3],,,,,,,,
67,,,,67,,,,6,,,6,,,7,,
67,,,,67,,,,6,,,6,,,6,,
67,,,,67,,,,6,,,6,,,7,,
67,,,67,,,67,,6,,,7,,,6,,
67,,,,67,,,,7,,,7,,,6,,
67,,,,67,,,,7,,,7,,,7,,
67,,,,67,,,,7,,,7,,,6,,
67,,67,,67,,67,,67,,,
7h[16:3],,,6,,,,,
7,,,,,
{4}
6,7,6,7,6,7,6,7,
6,7,6,7,
{16}
6,,,6,,,7,,
6,7,7,7,,7,7,,
6,7,7,7,,7,7,,
6,7,7,,6,7,7,,6,7,7,,6,7,7,,
67,,67,,67,,67,,67,,67,,67,,67,,
C,C,C,C,C,
C,C,C,C,C,
Cf,,,,,
{32},
{8}
6,6,7,6,7,7,6,7,6,7,6,6,7h[8:1],
{16},,
6,6,7,7,
{8}
6,7,6,6,7,7,6,6,7,6,7,,
6,6,7,7,
6,6,7,6,7,7,6,7,7,6,7,7,6h[8:1],
{16},,
7,7,7,7,
{8}
6,7,6,6,7,6,7,7,
{16}
67,,,67,,,67,,7,,,7,,,6,,
{8}
6,6,7,6,7,7,6,7,6,7,6,6,7h[8:1],
{16},,
6,6,7,7,
{8}
6,7,6,6,7,7,6,6,7,6,7,,
6,6,7,7,
6,6,7,6,7,7,6,7,7,6,7,7,6h[8:1],
{16},,
7,7,7,7,
{8}
6,7,6,6,7,6,7,7,
{16}
7h[8:1]/6,6,6,,6h[8:1]/7,7,7,,
7h[8:1]/6,6,6,,6h[8:1]/7,7,7,,
7h[4:3]/6,,,,6,,,,6,,6,,
6h[4:3],,,,7,,,,7,,,,
7h[4:1],,6,,6h[4:1],,,,
7h[16:3],,,6h[16:3],7,,7h[16:6],6,,,,,
6h[8:1],,7h[8:1],,6h[8:1],,7h[16:10],,6,,,,6,,6,,
6h[8:1],,7h[8:1],,
6h[4:3],,,,7,,,,7,,7,,
7h[4:3],,,,6,,,,6,,,,
6h[4:1],,7,,7h[4:1],,,,
6h[16:14],,,,7,,,,7,,,,7,,,,
6h[8:1]/7,7,7,,7h[8:1]/6,6,6,,
6h[8:1]/7,7,7,,7h[8:1]/6,6,6,,
6h[4:3],,,,7,,,,7,,7,,
7h[4:3],,,,6,,,,6,,,,
6h[4:1],,7,,7h[4:1],,,,
6h[16:3],,,7h[16:3],6,,6h[16:6],7,,,,,
7h[8:1],,6h[8:1],,7h[8:1],,6h[16:10],,7,,,,7,,,,7,,
6,,67,,
6,,7,,7,,6,,6,,7,,7,,67,,
7,,6,,6,,7,,7,,6,,6,,67,,
6,6,6,,67,,
7,7,7,,67,,6,,
C,C,C,C,C,C,C,C,C,C,C,C,C,C,C,Cf,
{1},
{16},
{4}
6,6,,7,7,,,,6,,,,
{8}
6,6,7,7,6,6,7,7,
{4}
6,6,,6,6,,7,,6,,,,
{8}
6,6,7,7,6,6,7,7,
{4}
6,6,,7,7,,,,6,,,6,
{8}
6,6,7,7,6,6,7,7,
{4}
6,6,,7,7,,6,6,,7,,6,6h[8:7],,,
{16},,
7,,6,,6,,6,,7,,7,7,6h[8:3],,,,,,
7h[8:2],,,,6h[16:3],,,7h[16:3],,,6h[16:3],,,7h[16:3],,,
6,,6,,6,,6,,
7,7,7,,6,6,6,,
E
&inote_7=(203)
{1},,,,,
{2},
{16},
{32},
{128},
{8}
A6,,,,A7,,,A6,A6,,,,A7,,,,A7,,,,
A7,,A6,,A6,,,,A7,,,,
A6,,,,A7,,,A6,A6,,,,A7,,,,A6,,,,
A7,,A6,,A6,,,,A7,,A6,,
A6,A6,A6,A6,A7,A7,A7,A7,A6,,,,A7,,A6,,
A6,A6,A7,A7,A6,A6,A7,A7,A6,,,,A7,,,,
A6,A6,A6,A6,A7,A7,A7,A7,A6,,,,A7,,A6,,
A6,A6,A7,A7,A6,A6,A7,A7,
{6}
A6,A7,,A6,A7,,
{16}
A6,,A7,,A6,A6,A6,,A6,,A7,,A6,A6,A6,,A6,,A7,,A6,A6,A6,,A6,,A7,,A7,A7,A7,,
A6,,A7,,A6,A6,A6,,A6,,A7,,A6,A6,A6,,A7,A7,A6,A6,A7,A7,A6,A6,
A7,A7,,A7,A7,,A6,A6,
A6,,A7,,A6,A6,A6,,A6,,A7,,A6,A6,A6,,A6,,A7,,A6,A6,A6,,A6,,A7,,A7,A7,A7,,
A6,,A7,,A6,A6,A6,,A6,,A7,,A6,A6,A6,,
A6h[4:1],,,,A7h[4:1],,,,A6h[4:1],,,,A7,,A7,,
A6,,A7,,A6,A6,A6,,A6,,A7,,A6,A6,A6,,A6,,A7,,A6,A6,A6,,A6,,A7,,A7,A7,A7,,
A6,,A7,,A6,A6,A6,,A6,,A7,,A6,A6,A6,,A7,A7,A6,A6,A7,A7,A6,A6,
A7,A7,,A7,A7,,A6,A6,
A6,,A7,,A6,A6,A6,,A6,,A7,,A6,A6,A6,,A6,,A7,,A6,A6,A6,,A6,,A7,,A7,A7,A7,,
A6,,A6h[8:1],,A7,,A7h[8:1],,A6,,A6h[8:1],,A7,,A7h[8:1],,
A6,,A7,A7,A7,,A6/A7,,A6,A6,A6,,A6/A7,,A6,,
A7h[1:1]/A6,,,,,,,,A6,,,,,,,,
A6h[1:1],,,,,,,,A7,,,,,,,,
A7,A7,A7,A7,A6,A6,A6,A6,A6,,
A6,,A7,,A7,,A6,,A6,,A6,,A6,,A7,,A7,,A6,,A6,,
A6h[2:1],,,,,,,,A7,,A7,,A6,,A6,,
{6}
A6,A6,A6,
{8}
A6h[4:1],,A7h[4:1],,
{16}
A6,A6,A6,A6,A7,A7,A7,A7,
{8}
A6,A6,A7,A7,A6,A6,A6,A6,A7,A7,A6,A6,
A7h[1:1]/A6,,,,A6,,,,
A6h[1:1],,,,A7,,,,
{16}
A7,A7,A7,A7,A6,A6,A6,A6,A6,,
A6,,A7,,A7,,A6,,A6,,A6,,A6,,A7,,A7,,A6,,A6,,
A6h[2:1]/A7,,,,,,,,A7,,A7,,A6,,A6,,
A6h[8:1],,A7h[8:1],,A6h[8:1],,A7h[8:1],,
A6,,,A6,,,A6,,
A6,A6,A6,A6,A7,A7,A7,A7,
A6,,A7,,A6,,A7,,A6,,A6,,A7,,A7,,
A7h[8:3],,,,,,,,
A6/A7,,,,A6/A7,,,,A6,,,A6,,,A7,,
A6/A7,,,,A6/A7,,,,A6,,,A6,,,A6,,
A6/A7,,,,A6/A7,,,,A6,,,A6,,,A7,,
A6/A7,,,A6/A7,,,A6/A7,,A6,,,A7,,,A6,,
A6/A7,,,,A6/A7,,,,A7,,,A7,,,A6,,
A6/A7,,,,A6/A7,,,,A7,,,A7,,,A7,,
A6/A7,,,,A6/A7,,,,A7,,,A7,,,A6,,
A6/A7,,A6/A7,,A6/A7,,A6/A7,,A6/A7,,,
A7h[16:3],,,A6,,,,,
A7,,,,,
{4}
A6,A7,A6,A7,A6,A7,A6,A7,
A6,A7,A6,A7,
{16}
A6,,,A6,,,A7,,
A6,A7,A7,A7,,A7,A7,,
A6,A7,A7,A7,,A7,A7,,
A6,A7,A7,,A6,A7,A7,,A6,A7,A7,,A6,A7,A7,,
A6/A7,,A6/A7,,A6/A7,,A6/A7,,A6/A7,,A6/A7,,A6/A7,,A6/A7,,
C,C,C,C,C,
C,C,C,C,C,
Cf,,,,,
{32},
{8}
A6,A6,A7,A6,A7,A7,A6,A7,A6,A7,A6,A6,A7h[8:1],
{16},,
A6,A6,A7,A7,
{8}
A6,A7,A6,A6,A7,A7,A6,A6,A7,A6,A7,,
A6,A6,A7,A7,
A6,A6,A7,A6,A7,A7,A6,A7,A7,A6,A7,A7,A6h[8:1],
{16},,
A7,A7,A7,A7,
{8}
A6,A7,A6,A6,A7,A6,A7,A7,
{16}
A6/A7,,,A6/A7,,,A6/A7,,A7,,,A7,,,A6,,
{8}
A6,A6,A7,A6,A7,A7,A6,A7,A6,A7,A6,A6,A7h[8:1],
{16},,
A6,A6,A7,A7,
{8}
A6,A7,A6,A6,A7,A7,A6,A6,A7,A6,A7,,
A6,A6,A7,A7,
A6,A6,A7,A6,A7,A7,A6,A7,A7,A6,A7,A7,A6h[8:1],
{16},,
A7,A7,A7,A7,
{8}
A6,A7,A6,A6,A7,A6,A7,A7,
{16}
A7h[8:1]/A6,A6,A6,,A6h[8:1]/A7,A7,A7,,
A7h[8:1]/A6,A6,A6,,A6h[8:1]/A7,A7,A7,,
A7h[4:3]/A6,,,,A6,,,,A6,,A6,,
A6h[4:3],,,,A7,,,,A7,,,,
A7h[4:1],,A6,,A6h[4:1],,,,
A7h[16:3],,,A6h[16:3],A7,,A7h[16:6],A6,,,,,
A6h[8:1],,A7h[8:1],,A6h[8:1],,A7h[16:10],,A6,,,,A6,,A6,,
A6h[8:1],,A7h[8:1],,
A6h[4:3],,,,A7,,,,A7,,A7,,
A7h[4:3],,,,A6,,,,A6,,,,
A6h[4:1],,A7,,A7h[4:1],,,,
A6h[16:14],,,,A7,,,,A7,,,,A7,,,,
A6h[8:1]/A7,A7,A7,,A7h[8:1]/A6,A6,A6,,
A6h[8:1]/A7,A7,A7,,A7h[8:1]/A6,A6,A6,,
A6h[4:3],,,,A7,,,,A7,,A7,,
A7h[4:3],,,,A6,,,,A6,,,,
A6h[4:1],,A7,,A7h[4:1],,,,
A6h[16:3],,,A7h[16:3],A6,,A6h[16:6],A7,,,,,
A7h[8:1],,A6h[8:1],,A7h[8:1],,A6h[16:10],,A7,,,,A7,,,,A7,,
A6,,A6/A7,,
A6,,A7,,A7,,A6,,A6,,A7,,A7,,A6/A7,,
A7,,A6,,A6,,A7,,A7,,A6,,A6,,A6/A7,,
A6,A6,A6,,A6/A7,,
A7,A7,A7,,A6/A7,,A6,,
C,C,C,C,C,C,C,C,C,C,C,C,C,C,C,Cf,
{1},
{16},
{4}
A6,A6,,A7,A7,,,,A6,,,,
{8}
A6,A6,A7,A7,A6,A6,A7,A7,
{4}
A6,A6,,A6,A6,,A7,,A6,,,,
{8}
A6,A6,A7,A7,A6,A6,A7,A7,
{4}
A6,A6,,A7,A7,,,,A6,,,A6,
{8}
A6,A6,A7,A7,A6,A6,A7,A7,
{4}
A6,A6,,A7,A7,,A6,A6,,A7,,A6,A6h[8:7],,,
{16},,
A7,,A6,,A6,,A6,,A7,,A7,A7,A6h[8:3],,,,,,
A7h[8:2],,,,A6h[16:3],,,A7h[16:3],,,A6h[16:3],,,A7h[16:3],,,
A6,,A6,,A6,,A6,,
A7,A7,A7,,A6,A6,A6,,
E
