&title=Recollect Lines
&artist=ああああ vs ぺのれり
&first=-0.41
&des=shaXkyD
&lv_5=14+
&inote_5=(145)
{4},,E6/2,3,8,
(143)
{4}7/E3,6,3,
(137)
{4}3/E1,2,
{8}7,7,
(129)
{4}6/E3,2,2,
(124)
{4}8h[32:111]b,,,
{24}D2,A2,D3,A3,D4,A4,D5,A5,D6,A6,D7,A7,D8,D1,A1,D2,A2,D3,
{4}3h[2:1]x,,
{32},,,,,,,2x,3x,
{1}4h[16:19]bx,
{16},,,,,,,
(200)
{8},1,1,7,7,4,4>2[8:1],2s6[4:1],,8h[8:1],,,,4,5,2<5[4:1],8,2,,,,7,2,8h[4:1],,3,6,C1h[4:1],,,,,3,3,8,8h[4:1],,1,1,7,2,6>3[8:1],3,6,,1,2,7,6h[8:5],,8,8-4[8:1]b,,,,
{16}E8,E7,
{4}E6,E2/B1/B2,E7/B7/B6,E4/B3/B4,
{8}2b/8b,3,4,5-1-5[4:1]/6h[8:3],,,,,,,,
{16}2,1,
{8}2,7,3,6,1b/7b,6,5,4-8-4[4:1]/3h,,2,1h[1:1],,
{1},
{8}5b/6b,4,3,1-5-1[4:1]/2h[8:3],,,,,,,,
{16}7,8,
{8}7,2,6,3,4b/5b,6,2,7<1[4:1],,1V75[4:1],,,2x,2x,3x,4xw8[4:1]b,
{2},
(203)
{16}3x,5,4,5,3x,5,4,5,3x,2,1,8,7,6,5,4,38,1,2,3,4,5,6,7,
{8}1x/8x,3x/7x-3[8:1],,,
{16}1,8,7,6,5,4,3,2,15,6,7,8,1,2,3,4,15,,,,2,6,3,5,
{4}4h[4:1],
{16},,7,3,6x,4,5,4,6x,4,5,4,6x,7,8,1,2,3,4,5,
{12}6,1,7,2,8,3,1,4,8,3,7,2,
{16}7,8,7,6,7,,2,1,2,3,2,,6,3,5,4,5,4,5,4,6,3,6,3,7,2,7,2,8-4[8:1],1,8,1,
{32}8b,C1f,,,,,,,
{8},2V48[4:1],7,2/8x-5[8:1]*-3[8:1],,,,,,
{16}2,1,3,,7,8,6,,1b/C1f,,,,2,3,8,7,6,5,8,1,2,3,7,6,5,4,1,8,7,6,5,4,3,2,16,7,8,1,2,3,4,5,6h[8:1]x/1b,,,,2,8,2,8,1-4[8:1],7,1v6[8:1],7,1x,,1x,,,,4,5,3,6,2,,6,3,7,2,8-4[8:1]b,1,7,2,
{8}8,,
{16}2,3,4/B7f/E8,,,,7,6,5/B2f/E2,,1x,8x,1x,,2h[8:1]x/6h[8:1]x,,,,2,6,2,6,2,6,
{24}3x,4x,5x,6x,7x,8x,
{8}1bx/C1f,,
{12}8,1,8,2,7,2,6,3,6,4,5,4,E6,E7,E8,E4,E3,E2,B6,B7,B8,2x,2,6,3x,3,6,4x,4,7,5x,5,7,D8,A8,D1,A1,D2,A2,D3,A3,D4,A4,D5,A5,D6/1,,2,8,3,8,2,6,2,5,3,5,2x,3,4,7x,6,5,1x,2,3,8x,7,6,
{6}1h[18:1]x/5h[9:1],2h[9:1]/6h[18:1]x,3h[18:1]x/7h[9:1],4h[9:1]/8h[18:1]x,3h[18:1]x/7h[9:1],2h[9:1]/6h[18:1]x,5/1h[3:1]x,6,7,8h[3:1]x/2,3,4,
{4}E3/B2/B3/C1f/E7/B7/B6,
{16}4,6,4,6,4x-8[8:1],3,2,1,4x/8x,,1x-6[8:1],2,3,4,1x/5x,,4x,3,2,1,8x,,6,4,5,3,5,3,5x-1[8:1],6,7,8,1x/5x,,8x-3[8:1],7,6,5,4x/8x,,5x,6,7,8,
{8}1xw5[8:1]b,,1b,,
{6}3h[8:1]/7h[8:1],2h[16:1]/6h[16:1],18,
{16}1b/8b,,2x,1x,3,4,3,4,2,5,2,5,1,6,1,6,
{8}8-4[8:1]b,,8,6v3[8:1]*>4[8:1]b,,6v1[8:1]b*<8[8:1],,6b,,
{16}2x,3,1,8,7,6,5,4,3,2,1,8,7,6,15,2,3,4,1,8,7,6,1b,2,3,4,1b,8,7,6,
{8}5h[1:2]b/E2,B2,B3,E4,,B7/B8,B5/C1,,,,,
{16}B6,C1,
{8}B2,E1,E8,E7,E6,B5,B4,E4,,
{4}C1h[8:3]f/E8/B7,,,
{8}2,
{6}12,18,18,
(206)
{32}1-3<4[8:1]/7b,B7,C1,B3f,,,,,
{8}1/6,6-2[8:1],,36,3v8[8:1],,34,4V68[8:1],,48,
{24}1x,2,3,,1x,8,7,,1x,B1,C1,B5,
{8}7p3[8:1]b,,7,2h[4:1],,
{16}8,7,1,2,3,4,1,8,7,6,2,3,4,5,
{6}8,18,18,
(207)
{32}2b/8-6>5[8:1],B2,C1,B6f,,,,,
{8}38,3-7[8:1],,36,6v1[8:1],,56,5>1[8:1],,15,
{24}8x,7,6,,8x,1,2,,8x,B8,C1,B4,
{8}2V46[8:1]b,,2,8z4[4:1],,2h[8:3]/8,,,,
{16}2,1,3,7,8,6,3,6,4,5,4-8>2[4:1]*-8<6[4:1],5,4,5,4bx,,,,,,2,1,3,8,3,8,4,8,4,8,
{8}5-2[8:1],,58,8<6[8:1]b*-5[8:1],,8>2[8:1]b*-3[8:1],,8,,
{16}2,3,4,5,7,8,3,4,6,7,2,3,5,6,
{4}2bx-6[8:1]/7,8p4[8:1]/2,1-5[8:1]/8,1/7,6b-1q5[4:1]b,1h[8:1]x/6,A5f,2h[8:1]/7h[16:3],3b-8p4[4:1]b,3/8h[8:1]x,A4f,7h[8:1]/2h[16:3],
{8}1b/8b,,56,5h[8:1]x/6h[8:1],,34,3h[8:1]/4h[8:1]x,,27,2x-4z8[8:3]/7x-5s1[8:3],
{4},,,
{8}2bV46[8:1]/6b,,27,8-4[8:1],,48,3v6[8:1],,37,8,,2,
{6}2h[8:1]/5h[8:1],3h[16:1]/6h[16:1],47,
{16}38,,2v5[8:1],1,2,,
{4}2/8q4[8:1],1<3[8:3]/8,7h[8:3],,
{8},
{6}45,46,46,
{8}3b/7b<3[8:1],,27,1-5[8:1],,15,6v3[8:1],,26,1,,7,
{6}4h[8:1]/7h[8:1],3h[16:1]/6h[16:1],25,
{16}5bx,6bx,7bx,8h[8:1]bx,
{24}D4/A3f,A2,A1,A8,A7,
{16}8bx,7bx,6bx,5h[8:1]bx,
{24}D4/A4f,A5,A6,A7,A8,A1,,2bx/8bx,37,46,5,,,1bx/7bx,26,35,4,,,
{6}26,18,18,
{48}1b/8b,E2/E8/E1,B2/B7,C1f,B3/B6,E4/E6,,,,,,,
{8}6,6h[8:1]/2V48[4:1],,27,7-3<5[16:3],,78,8>2p6[4:1],,68,
{6}5h[6:1],,1x/7x,
{8}2>4v5[16:3]b/8<6v5[16:3]b,,2b/8b,,,3bx-7[8:1]b/7bx-3[8:1]b,,
{32}3x/7x,C1f,,,
{8},,,
{16}1x/5x,2x/6x,3h[4:1]x/7h[4:1]x,,,,
{8},,1bV35[4:1]/5b,,6,6h[8:5],,
{16}7,8,1,2,3,4,
{8}5bV31[4:1],,8,8h[8:5],,
{16}7,6,5,4,3,2,
{8}1h[4:1]b,,7,7h[4:1],,5,5h[4:1],,B7/B8/E8,C1h[8:1],,
{24}3x,2x,1x,
{6}8h[18:1]x/E5,1h[18:1]x/E6,2h[18:1]x/E7,
{16}3b/7b,,,,3,4,3,4,2h[8:1],,,,6,5,6,5,7h[8:1],,,,1,8,2,7,
{4}1h[4:1],8x,
{24}2x/7x,3,4,5,6,7,8,1,2,3x/6x,5,4,3,2,1,8,7,6,
{4}C1f/5x,3b/7h[1:1]b,,B2/E3,E4/B4,
(205)
{1}5bx-8<6q1[4:11]*-2>4p1[4:11],,,
{16},,,,,,E2,C1,E6,,,E8/B7,,,E3/B2,,
{8}C1f/1h[1:2],,B4,B5,B6,B7,B8,C1,
{4}E5/B4,B6/E7,B8/B1,E3/B3,
(188)
{8}6h[4:3],,4,4h[8:3],,,,
(162)
{32},,,
{2}3h[2:1]x,
(119)
{4}8h[4:1]x,
(115)
{4}1x,
(235)
{8}2b/6b,,35,2,16,7,
{4}7V53[4:1],3V17[4:1],7<5-1[4:1],2x,
{12}2,3,4,8,7,6,
{4}1x<5[4:1],5>1[4:1],1-7-3[4:1],
(233)
{8}6h[4:1],,,6,,2h[8:1],
{12}8x,7,6,1x,2,3,7x,6,5,
{4}4x-8[8:1]/8,2,5>6[8:3]b,C1f,,,
(231)
{8}3b/7b,,46,7,38,2,
{4}2>6[4:1],6<2[4:1],2-4-8[4:1],7x,
{12}7,6,5,1,2,3,
{4}8V64[4:1],4q8[16:3],2x,
(229)
{12}2h,2h,2h,2h,2h,2h,2h,2h,2h,
{8}1x/3x,,48,48,5x/6x,,
{12}7h,7h,7h,7h,7h,7h,7h,7h,7h,
{8}6x/8x,,18,18,3x/4x,,
(230)
{12}2x,4x,3x,4x,3x,4x,2h[8:1]b,,,7x,5x,6x,5x,6x,5x,7h[8:1]b,,,1bx,2,3,
{16}1bx,8,7,6,
{4}5h[8:1],51,26,37,
(229)
{4}E4/B3/8,7,6,
(225)
{4}2/E6/B6,3,4,5h[1:1]/7,
{12}8x,1,2,3,4,,
(215)
{16}6x,7,8,1,2,3,4,5,6,
(190)
{32}7,8,1,2,3,4,
(239)
{2}5w1[4:1]*w1[4:1],
(218)
{4},
(171)
{12}8x,7,6,
(194)
{16}7x,6,5,4,6x,5,4,3,5x,4,3,2,8bx,7,6,5,
(213)
{16}8x,1,2,3,8x,7,6,5,8x,1,2,3,
{32}4,5,6,7,8,1,2,3,
{2}4bxV28[72#24:1],
(220)
{4}5bV71[200#23:2]b,
{48}4x/5x,E4/E6,E3/E7,E2/E8,D1f,,,,,,,,
(234.5)
{16}2b/5b,,3,4,3,,2x/7x,,8<5[8:1],1,8,,38,2,1,8,7,6,5,4,3h[8:1]/C1,,,,4b/7b,,6,5,6,,2x/7x,,1,8,1,,
{12}7,4,7,3,6,3,7,4,7,
{16}3b/8b,,2,1,2,,3x/6x,,5,4,5,,
{4}5-7>8[8:1],4/5-3>2[8:1],65,6<1[4:1],1p5[4:1],5,
{8}3q8[4:1]b,,,6h[8:1]b,,,
(236)
{16}1b/6b,,7,8,7,,3x/6x,,4>1[8:1],5,4,,47,6,5,4,3,2,1,8,7h[8:1]/C1,,,,3b/8b,,2,1,2,,3x/6x,,5,4,5,,4x,3,2,1,5x,6,7,8,4x,3,2,1,
{8}4b/8b,5,6,3x/7x,2,1,4x/8x,48,15,15,26,26,
(230)
{16}1,2,3,4,15,8,7,6,25,3,4,5h[8:1],
{24}7b,8,1,2,3,4,5,6,7,8/4b,3,2,1,8,7,6,5,4,
(231)
{48}3bxqq8[4:9]b*pp6[4:9]b/A7f,B7f,C1f,B3f,A3f,,,,,,,
{4},,,,,,,,,,,
(235)
{8}3x/5x,3,3,4x/6x,6,6,2x/5x,2,2,3x/7x,7,7,
{16}1,8,1,8,2,7,2,7,
{8}1,8,3b/6x,2x/7b,8x/1b,1b-4[8:1]b/8b-5[8:1]b,2b/7b,
{32}1b/8b,E2/E8,E7/E3/C1f,E4/E6,,
