&title=熱帯夜の祭り (feat. Pica)
&artist=M2U
&first=0.03
&demo_seek=16.84
&lv_2=1
&des_2=Lv Cat
&inote_2=
(100){4},{8},,,,,,,4,
,,,,,4,
,,,,,5,,,,,,5,
,,,,,6,
,,,,,6,
,,,,,7,,,,,,7/8,
,,,,,1x,
,,,,,1x,
,,,,,2,,,,,,2,
,,,,,3,
,,,,,3,
,,,,,4,,,,,,4/5,
,,,,,6h[4:3],
,,,,,,,,,,,5h[4:3],
,,,,,,,,,,,4h[4:3],
,,,,,,,,,,,3h[4:3],
,,,,,,,,,,,2-6[8:5],
,,,,,,,,,,,7-4[8:5],
,,,,,,,,,,,3,
,,,,,3,
,,,,,2,,,,,,2,
,,,,,1,
,,,,,1,
,,,,,8,,,,,,8b/7b,
,,,,,6,
,,,,,6,
,,,,,5,,,,,,5,
,,,,,4,
,,,,,4,
,,,,,3,,,,,,3/4,
,,,,,,,,,,,B8/B7,
,,,,,B1/B2,,,,,,B6/B5,
,,,,,B3/B4,
,,,,,B8/B7,
,,,,,B1/B2,,,,,,B4/B5,
,,,,,Ch[4:3],
,,,,,,,,,,,8x,
,,,,,8,
,,,,,7,
,,,,,6/5,
,,,,,4>1[8:5],,,,,,,,,,,,8<5[8:5],
,,,,,,,,,,,3-7[8:5],
,,,,,,,,,,,8<4[8:5],
,,,,,,,,,,,5b/4b,
,,4,
,,3,,,{4}3,
{8},2,,,2,,,1,
,,{4}1,{8},8,,,8,
,,7,,,{4}7,
{8},6,,,6,,,5,
,,{4}5bx/4bx,{8},3h[8:3],,,4h[8:3],
,,5h[8:3],,,{4}6h[8:3],
{8},7h[8:3],,,8h[8:3],,,1h[8:3],
,,{4}2x,{8},4h[8:3],,,3h[8:3],
,,2h[8:3],,,{4}1h[8:3],
{8},8h[8:3],,,7h[8:3],,,6h[8:3],
,,{4}5x,{8},5,,,5,
,,4,,,{4}4,
{8},5,,,5,,,4,
,,{4}4,{8},6<1[8:5],,,,,,,,,,,,2q5[8:9],
E
&lv_3=6
&des_3=Lv Cat
&inote_3=
(100){4},{8},,,,,,,5,
,,5,,,4,
,,{4}4,{8},6,,,6,
,,4,,,{4}4,
{8},3,,,3,,,2,
,,{4}2,{8},8,,,8,
,,1,,,{4}1/8,
{8},7,,,7,,,6,
,,{4}6/5,{8},4,,,4,
,,3,,,{4}4/3,
{8},2,,,2,,,4,
,,{4}4,{8},3,,,3,
,,5/4,,,{4}5b/4b,
{8},6h[8:3],,,5h[8:3],,,4h[8:3],
,,{4}3h[8:3],{8},4,,,5,
,,6/5,,,,,,7h[8:3],
,,8h[8:3],,,1h[8:3],
,,{4}2h[8:3],{8},1,,,8,
,,7/8,,,,,,7V53[8:5],
,,,,,,,,,,,2V86[8:5],
,,,,,,,,,,,6/5,
,,6/5,,,5/4,
,,{4}3/4,{8},2/1,,,2/1,
,,8/1,,,{4}7/8,
{8},7,,,7,,,6/5,
,,{4}5/4,{8},2,,,2,
,,3/4,,,{4}4/5,
{8},4h[8:3],,,5h[8:3],,,6,
,,{4}6/5,{8},5h[8:3],,,4h[8:3],
,,3,,,{4}3/4,
{8},2h[8:3],,,1h[8:3],,,8,
,,{4}8/1,{8},7h[8:3],,,6h[8:3],
,,5,,,{4}5h[8:9]/4h[8:9],
{8},,,,,,,,,,,,,B8,
,,B7,
,,B6/B5,,,,,,B1,
,,B2,,,B3/B4,
,,,,,B8,,,B7,
,,B6,,,{4}B5,
{8},B4,,,B3,,,C,
,,,,,B1,,,B2,
,,B3,,,{4}B4,
{8},B5,,,B6,,,Cfh[4:3],
,,,,,,,,,,,8x,
,,{4}8x,
{8},7,,,7,,,6,
,,{4}6,{8},5,,,5,
,,4,,,{4}4,
{8},3,,,3,,,2,
,,{4}2/1,{8},8b,8,8,
7,7,7,6,6,6,{4}6/5,
{8},4,4,4,5,5,5,3,
3,3,{4}5/4,{8},4,4,4,
3,3,3,2,2,2,{4}1/8,
{8},7,7,7,6,6,6,5,
5,5,{4}4bx/6bx,{8},3V57v2-8[8:7],,,,,,,,,,,,7V13v6-4[8:7],
,,,,,,,,,,,2qq6-4[8:7],
,,,,,,,,,,,5qq1-7[8:7],
,,,,,,,,,,,B8/B7,
,,,,,B6/B5,
,,,,,B3/B4,
,,,,,B1/B2,
,,,,,8,,,7,
,,6,,,{4}5,
{8},4,,,3,,,2,
,,{4}1/8,
E
&lv_4=10
&des_4=Lv Cat
&inote_4=
(100){4},{8},,,,,,,5/4h[8:3],
,,5h[8:3],,,6q3[4:1],
,,{4}4,{8},4/5h[8:3],,,4h[8:3],
,,3p6[4:1],,,{4}5,
{8},1/8h[8:3],,,1h[8:3],,,2q7[4:1],
,,{4}8,{8},8/1h[8:3],,,8h[8:3],
,,7p2[4:1],,,{4}1,
{8},1,1,1,2/8,8,8,7/5,
5,5,4h[8:1],6h[8:1],3,8,8,8,
7/1,1,1,2/4,4,4,5h[8:1],3h[8:1],
6,2,2,2,3/8,8,8,7/4,
4,4,5h[8:1],6h[8:1],3,7,7,7,
6/1,1,1,2/5,5,5,6b/3b,3b/6b,
,2-5[4:1],,,6,,,7-4[4:1],
,,{4}3,{8},3-8[4:1],,,7,
,,6-1[4:1],,,{4}2,
{8},3/4,,,6/5,,,5h[4:1]/7h[4:1],
,,{4}4h[4:1]/2h[4:1],{8},5h[4:1]/3h[4:1],,,7h[4:1]/1h[4:1],
,,8h[4:1]/2h[4:1],,,{4}8x/2x,
{8},6,6,5,4/3,3/2,,3,
3,4,5/6,6/7,8/7,1-4[8:1],,,6-1[8:1],
,,3-6[8:1],,,8,8,
8b,7/1,2,3,8/4,7,6,5/1,
2,3,4x/5x,5x/4x,5x/4x,7x/4x,3,2,
5/1,6,7,8/4,3,2,8x/1x,1x/8x,
8x/1x,7x/2x,6,5,2/4,3,4,7/5,
6,5,6/3,6/3,6/3,5x/4x,6,7,
3/8,2,1,6/8,7,8,7/2,8/1,
,2-5[8:1],{4}2,{8}8-5[8:1],8,,4qq1[8:3],
{4}4,{8}5,5,,6-1[8:1],{4}6,
{8}4-1[8:1],4,,8qq5[8:3],{4}8,{8}1,1,
,2>5[8:1],{4}2,{8}6<1[8:1],6,,3p5>4[4:1],
{4}3,{8}7x,7x,,6<1[8:1],{4}6,
{8}2>5[8:1],2,,7p1<8[4:1],{4}7,{8}3bx,3bx,
,3xh[8:3],,,4h[8:3],,,5h[8:3],
,,{4}6h[8:3],{8},5,{4}5,
{8}7/5,7/5,,6/4,{4}6/4,3/4,
{8},2/4,{4}2/4,{8}3/5,3/5,,6/5,
,,{4}7/4,{8},B8/B7,{4}B6,
{8}B1/B2,B3,,E6/B5,{16},E4/B3,,,E2/B2,,,E8/B8,
,,{8}B5/B6,{4}B7,{8}B4/B3,B2,,Ch[8:3],
,,,,,8<5[4:1],,,4,
4,,1>4[4:1],,,5,5,
,7-4[8:1],,,2-5[8:1],,,6<3[4:1],
,,{4}Cf,{8},3,4,5,
6,5,4,2,3,4,6/5,6/5,
6/5,7,6,5,4,5,6,8,
7,6,4/3,4/3,4/3,1,2,3,
6,5,4,2,3,4,5/4,5/4,
5/4,6,7,8,3,2,1,5,
6,7,8b/1b,1b/8b,,7/3h[4:1],1,8,
2/6h[4:1],8,1,8/4h[8:5],1,7,8x,8x,
8x,2/6h[4:1],8,1,7/3h[4:1],1,8,1/5h[8:5],
8,2,1x,1x,1x,6/2h[4:1],4,5,
3/7h[4:1],5,4,5/1h[8:5],4,6,8x,8x,
8x,3/7h[4:1],5,4,6/2h[4:1],4,5,4/8h[2:1],
5,3,1x,1x,,2bx/5bx,{16}3,4,{8}3,
7x/4x,{16}6,5,{8}6,7x/3x,{16}3,4,{8}3,1x/8x,8x/1x,
7x/2x,6bx/4bx,{16}6,5,{8}6,2x/5x,{16}3,4,{8}3,2x/6x,
{16}6,5,{8}6,8x/1x,1x/8x,2x/7x,6bx/4bx,{16}6,5,{8}7,
2x/5x,{16}3,4,{8}2,2x/6x,{16}6,5,{8}7,8x/1x,1x/8x,
2x/7x,3bx/5bx,{16}3,4,{8}2,7x/4x,{16}6,5,{8}7,7x/3x,
{16}3,4,{8}2,1b/8b,8b/1b,,7v4[4:1],,,3,
,,2v5[4:1],,,{4}6,
{8},6p1[8:3],,,3,,,3q8[8:3],
,,{4}6,{8},1-4[8:3],,,6,
,,8-5[8:3],,,{4}3,
{8},4-2[4:1],,,5-7[4:1],,,1-4-6v8b[8:5],
E
&lv_5=13
&des_5=Lv Cat
&inote_5=
(100){4},{8},,,,,,,5<8[4:1],
,,4,,,4>1[4:1],
,,{4}5,{8},6V82[4:1],,,3,
,,3V17[4:1],,,{4}6,
{8},8<7-4[4:1],,,2,,,1>2-5[4:1],
,,{4}7,{8},5-8[4:1],,,4-1[4:1],
,,5-7[8:1],{4}5,{8}4-2[8:1],4,
,8bx<4[4:1],,3,{4}3-8[8:1],{8}7,7qq4[8:3],
,8,1,1,2,5/2-5[8:1],,6,
{4}7>2[8:1],{8}4,3qq5[8:3],,8,7,7,
6,4/6-1[8:1],,2,{4}3-8[8:1],{8}8,7-4-6-3[8:3],
,1,2,2,2,5/3-8[8:1],,7,
{4}6-1[8:1],{8}1,2-5-3-6[8:3],,7-2b[8:1],{4}7,
{8},E2/B2,,,B6/E6,,,B3/B8/B7/B4,
,,{4}B2/B5/B6/B1,{8},E2/B2/E8/B7,,,E4/B3/E6/B6,
,,7/2<7[4:1],,,,6,
5,4/3h[8:3],{32},,E8,B7,{8}B6,5x,4,3,6/5,
{16},1/2,,,{8}8/7,6/5,5/4,4/3,2,8,
{16}1h[16:3],,,8z4[16:5],,,{8}8h[8:3],{16},,,,,,,,,,5,
2,6,3,7,4,{8}6/5,8/7,{16},,4,7,
3,6,2,5,{8}3/4,1/2,8/1,6/2-6[8:1],6,7,
8-4[8:1],5,4,3,4/2,7/5,1/8,6/3,
7b/2b,5b/1b-5[8:1],{16}7,7,{8}7,6<1[8:1],{16}3,3,{8}3,2qq5[8:3],
8,7,6b,6b,7b,4x/8x-4[8:1],{16}2,2,{8}2,
3>8[8:1],{16}6,6,{8}6,7pp4[8:3],1,2,3b,3b,
2b,5x/1x-4<5[8:1],{16}7,7,{8}7,6-8>1[8:1],{16}3,3,{8}3,2V41-5[8:3],
8,7,6b,8b,6b,4x/8x-5>4[8:1],{16}2,2,{8}2,
3-1<8[8:1],{16}6,6,{8}6,7V58-4[8:3],1,2,3b,1b,
3b,2bx/5bx<8[8:1],{16}5,5,{8}5,2-4[8:1],{16}2,2,{8}2,8-5[8:1],
5-2-7[4:1]*-2-6[4:1],2,,,,1x>4[8:1],{16}1,1,{8}1,
6-8[8:1],{16}6,6,{8}6,4-1[8:1],1-6-3[4:1]*-6-2[4:1],6,,,,5x-8[8:1],
{16}5,5,{8}5,4-1[8:1],{16}4,4,{8}4,8<5[8:1],
5-1[8:1],1>4b[8:1],A5,A1,A4,1x-4[8:1],{16}1,1,{8}1,
8-5[8:1],{16}8,8,{8}8,4>1[8:1],1-5[8:1],5,8b/A1f,7b/A5f,
,6h[8:3],,,5,,,3h[8:3],
,,{4}4,{8}2/5,1h[8:3],,,7h[8:3],
,,8q4[4:1],,,{4}5h[8:3],
{8},6p2[4:1],,,1h[8:3],,,8pp4[8:3],
,,7,6,5,4,{16}6,1,7,2,
8,1,7,3,6,4,{8}7h[16:1]/6h[16:1],{16},3h[16:1]/2h[16:1],,,{8}8h[16:1]/1h[16:1],7/2,
6/3,5/2,4/3,6/5,{16}7/4,,,5V31v7[16:5],,,{8}5h[8:3],
{16},,,,,,,,,,7,8,6,1,5,2,
{8}4/3,4/3,{16},,2,1,3,8,4,7,{8}5/6,5/6,
7/4,6-1[8:1],4,4,3-8[8:1],5,5,7,
6/5,1/2,2b/8b,7b/1b,5b/4b,3q5[8:3],,,5<2[8:3],
,,2qq4[8:3],,,6,6,
5,6p4[8:3],,,4>7[8:3],,,7pp5[8:3],
,,3,3,4,2q5[8:3],,,5-7>2[8:3],
,,2V48-6[8:3],,,5,5,
5,7p4[8:3],,,4-2<7[8:3],,,7V51-3[8:3],
,,4,4,4,5b/2b-5[8:1],{16}7,7,{8}7,
8-3[8:1],{16}4,4,{8}4,5-2<6[4:1],7,6,5,4,
3x/5x,4b/7b-4[8:1],{16}2,2,{8}2,1-6[8:1],{16}5,5,{8}5,4-7>3[4:1],
2,3,4,5,4x/6x,8b/5b-2[8:1],{16}7,7,{8}7,
8-3[8:1],{16}4,4,{8}4,1x-6>2[4:1],6,7,8,8,
7x/1x,2b/5b-8[8:1],{16}3,3,{8}3,2-7[8:1],{16}6,6,{8}6,8x-5-7-4[4:1],
4,3,1b,1b,4b/3b,{16}1bx,4,3,5,2,4,
8b,4,3,5,2,4,1b,4,3-7[8:1],4,2-6[8:1],4,{4}1-5[8:1],
{16},,8bx,8,5,4,7,5,1b,5,6,4,7,5,8b,5,
6-2[8:1],5,7-3[8:1],5,{4}8-4[8:1],{16},,1bx,1,3,5,2,4,
8b,4,3,5,2,4,1b,5,4-8[8:1],7,4-1[8:1],6,{4}4-7[8:1],
{16},,1bx,1,6,5,3,4,8b,2,3,7,6,5,8b,4,
5-1b[8:1],1,2,3,4b,4b,{8}4b,,3h[8:3]/4h[8:3],,,,,,6h[8:5]/5h[4:1],
,,E7,B7,
B8,2h[8:3]/1h[8:3],,,,,,7h[8:5]/8h[4:1],
,,E7,B6,B5,3h[16:3]/4h[2:1],,,5h[4:1],
,,6h[8:3]/5h[8:1],,,E7,B7,
B8,8xh[8:3]/Ch[8:9],,,,8,7,6<3b[8:3],
E
