&title=アディショナルメモリー
&artist=じん
&first=0
&des=ReaL2sN Respect for はっぴー
&wholebpm=200
&des_6=ReaL2sN Respect for はっぴー
&lv_6=13+
&inote_2=
&inote_3=
&inote_4=
&inote_5=
&inote_6=(200)
{1},
{8}4hx[8:25]/2h[4:1],,,,2,2h[4:1],,,
{8},2,2h[4:1],,,2,,2h[4:1],
{8},,2,,2,2h[4:1],,,
{16},,B2,,C,,B6,,,,A3,D4,A4,D5,5hx[8:22]/7h[4:1],,
{8},,7,,7,7h[4:1],,,
{8},7,7h[4:1],,,7,,7h[4:1],
{8},,7,,,4,,7x<4[8:1]/3x>8[8:1],
{16},,E7/E3,E6/E2,E5/E1,,,,1x-5[8:1]/8x-4[8:1],,1x/8x,,,,,,
{8}2b/7b,,4,5,3,8,1,7,
{8}5-3[8:1],5,1-7[8:1],1,5-1[8:1],5,6,,
{8}7/2,,5,4,6,1,8,2,
{16}4-6[8:1],,4,,2-4[8:1],,2,,7,,7,,5,6,5,6,
{8}7x/2,,5,4,6,1,8,2,
{8}4-6[8:1],4,8-2[8:1],8,4-8[8:1],4,3,,
{4}7-4[8:1]/2-8[8:1],7/2,3-8[8:1]/6-4[8:1],3/6,
{16}6,,8,,1,,3,,5,4,5,,3,6,3,6,
{8}7x/2,,5,4,6,1,8,2,
{8}4-6[8:1],4,8-2[8:1],8,4-8[8:1],4,5,,
{8}2/7,,4,5,3,8,1,7,
{16}5-3[8:1],,5,,7-5[8:1],,7,,2,,2,,4,3,4,3,
{8}2x/7,,4,5,3,8,1,7,
{8}5-3[8:1],5,1-7[8:1],1,5-1[8:1],5,4,,
{8}2b-5[8:1],1,2,7b-4[8:1],8,7,1b-5[8:1],8,
{8}1bw5[8:1],1x,,,7/3,4-2[8:1]/6-8[8:1],,,
{8},,5/6,,3-1[8:1]/5,4,4,,
{8}4V28[4:1],,8-5[16:3],,4,4,4,,
{8}5/6-3[8:1],,3,,2>6[4:1],,6,6,
{32},,,,4/A1,E2,,,4,,,,,,,,A7/3,D7,A6,,3v6[8:1]*-1[8:1],,,,,,,,,,,,
{8},,4/3,,4/6v3-1[4:1],5,5,,
{8}4,,1^3p6[8:3]/3,,4,4,4,,
{8}4,,3h[4:1]/4,,5,,2,2-4[8:1]/4,
{8},8-2[8:1]/2,,8/6-8[8:1],,4-8[8:1]/6,,2x/4bx,
{8},,7/5,6,5,7,1/8-5[8:1],1,
{8},2,4,3,1-4b[8:1],2,8,8,
{8}6,,7>3[4:1]/5,,3V17[4:1],3,4,4,
{8},3/5,3/5,,2hx[4:1],B3/B4,7hx[4:1],B6/B5,
{8},,1,1/7p3[4:1],,3p7[4:1],,C,
{8},4,4,,7/5,6,8,4>5[8:5],
{16},,,,,,3,4,5-1[16:3],,,,,,,2-4[8:1],
{8},8-2[8:1]/2,,8/6-8[8:1],,4-8[8:1]/6,,2xpp5[8:13]/4bx,
{2},6-8[8:1],
{2}1-7[8:1],6-1[8:1],
{8}Ch[4:5],,,,,,8x,8x,
{4}7x^2b[4:1],,,3x,
{8}1/7qq4[8:12],,,,,,1,2,
{2}3-1[8:1],8-2[8:1],
{8}4,,,4pp1^3[8:5],5,,D1,D8,
{4}D7,,6/4,7/3,
{4}2/8h[4:1],5,3/5,2/6,
{8}7/1h[4:1],,4,,6,5,6,,
{8}2/8,,3,4,3,,5,{16}1,2,
{8}3h[4:3],5,5,6,6,7,7,8,
{8}8/4,,3/1,3,3/8,3,3/7,3,
{8}6/4,6,6/5,6,6/7,6,6/8,6,
{8}1bx-5[8:1]/5bx,,,8x-4[8:1],,,6x-2[8:1],,
{8},5x^8b[8:1],,,{48}1bx/D1f,2bx,3bx,4bx,,,,,,,,,,,,,,,,,,,,,
{8}8b-2[8:1]/7b-3[8:1],,7^4[8:1]/8-4[8:1],,7/8,,3,2-5[8:1]/6-1[8:1],
{8},2-7[8:1]/6-3[8:1],,,,1,1/7-4[8:1],,
{8}5-1[8:1],,5x<8[8:1]*>2[8:1],,5x,,1,1-6[8:1],
{8},2,3-8[8:1],4,5-2[8:1],6,7-4[8:1],8,
{8}1>4[8:1]*-5[8:1],,1,,7-3[8:1],,1,1<6[8:1],
{8},3,4,5-2[8:1],,8>3[8:1],7,6,
{8}5-1[8:1],,4-8[8:1],,6-1[8:1],,8x,8x,
{16},,2/7,,2/7,,,,4/5,3,2,1,8,7,6,,
{8}1b-7[8:1]/2b-6[8:1],,2^5[8:1]/1-5[8:1],,2/1,,6,7-4[8:1]/3-8[8:1],
{8},7-2[8:1]/3-6[8:1],,,,8,8-5[8:1]/1-4[8:1],,
{8}8/1,,7v2[8:1]/2v7[8:1],,2/7,,4/5,4/5-8[8:1],
{8},1,2,3,5/4-1[8:1],8,7,6,
{8}6-3[8:1]/3-6[8:1],,6/3,,8/1>4[8:1],,6,8<5[8:1],
{8},4,3-7[8:1],,8-4[8:1],,1<6[8:1],,
{4}5-8[8:1],4v1[8:1]*v7[8:1],4x<3[8:3],4x,
{16},,5,,5,,5,,4,6,4,6,4,6,4,6,
{8}5/7x-4[8:1],,1,3,,2-6-4[16:3],1,2,
{8},8-5[8:1],5,8,1-4[8:1],4,1,8,
{8}2-5[8:1]/7,,8,6,,6-1-5[4:1],8,6,
{16},,2-7[8:1],,7,,2,,6,5,4,3,2,1,8,7,
{8}6/2-5[8:1],,5,7,,8-4-6[16:3],6,8,
{8},1-5[8:1],5,1,8-4[8:1],4,8,1,
{8}2/6-1[8:1],,1,3,,4-8-3[4:1],1,4,
{16},,7-3[8:1],,4,,7,,2,1,8,7,6,5,4,3,
{8}2^5[8:1]/6,,5,7,,6^4-2[16:3],7,6,
{8},1>4[8:1],3,1,8<5[8:1],6,8,1,
{8}7^4[8:1],,4,2,,3^5-7[16:3],2,3,
{16},,1h[8:1],,7h[8:1],,5h[8:1],,4h[8:1],,2h[8:1],,8,1,8,1,
{8}2x-4[8:1]/7,7,2-5[8:1]/6,6,8/2,8,7-5[8:1]/2,2,
{8}7-4[8:1]/3,3,1/7,1,1-5b[8:1],3-7[8:1],1,3,
{16},,2,3,4h[4:1],,,,3,,7,,5,,4b-8[8:1]/8b,,
{8},4b,,{32}6b/3b,,,,6b/3b,B6/B3/E3/E7/B4/B5/E5,A7/A2/B7/B2/Cf/D8/D2/B8/B1,,,
{1},
{1},
{1},
E
