&title=魔法に照らされたアンコール
&artist=MIMI feat.wawa
&first=0.025
&des_1=uapy
&des_2=uapy
&des_3=uapy
&des_4=uapy
&des_5=uapy
&lv_5=13
&des_6=uapy
&des_7=uapy
&des=uapy
&inote_5=(120){4},,,,
,,,,{2}3h[8:1]/5h[12:1],
6h[8:1]/4h[12:1],
3h[8:1]/4h[12:1],6h[8:1]/5h[12:1],
2h[8:1]/4h[12:1],7h[8:1]/5h[12:1],
{8}6,5,4,3,{2}Ch[4:1],
{8}3xh[8:1],5,3h[8:1],5,3h[8:1],5,3h[8:1],4,
3h[8:1],2,3h[8:1],1,3h[8:1],8,7xh[8:1],4,
6h[8:1],4,6h[8:1],4,6h[8:1],3,6h[8:1],2,
2xh[8:1],4,6h[8:1],8,{2}1x-5[8:1],
{24}6xh[8:1],4xh[8:1],,,,,,,,,,,3xh[8:1],5xh[8:1],,,,,,,,,,,7xh[8:1],
5xh[8:1],,,,,,,,,,,2xh[8:1],4xh[8:1],,,,,,,,,,,6xh[8:1],
8xh[8:1],,,,,,,,,,,3xh[8:1],1xh[8:1],,,,,,,,,,,6xh[8:1],
5xh[8:1],,,,,,,,,,,3xh[8:1],4xh[8:1],,,,,{8}2x,5,
{4}3x<5[8:1],7,6>4[8:1],3,
2>4[8:1],5,7<5[8:1],3,
4/1>3[8:1],6,5/8<6[8:1],3,
2<6[4:1],6>2[4:1],2,8,
7h[2:1],B6/E6,3h[2:1],B4/E4,
{8}5x,5,6/4,6/4,7x<3[8:1]/3x<7[8:1],8/2,,,8b/2b-4[32:3],
5-7[32:3],2,5,{12}1-5[8:1],{24}8,2,,,{4}1,
{12}6,{24}6,4,,4,{8}7-5[32:3],3-1[32:3],7-3[8:1],3,7,1,
{12}2,{24}2,4,,4,{8}5-3[32:3],7-5[32:3],5-1[8:1],7,{24},,,,,,{12}2,
{24}2,8,,8,{8}4-1[8:1],7-4[8:1],4,7,8,6x/2x,
{12}3,{24}3,4,,,{8}1-3[32:3],5-7[32:3],1-5[8:1],5,{4}1,
{12}8,{24}8,4,,,{8}6-4[32:3],2-4[32:3],6-8[32:3],2,6,5x,
{12}1-5[8:1],{24}3,4,,,{8}1,6x,{12}8-4[8:1],{24}6,5-2[8:1],,,{4}8,
{8}8xh[8:1],{24}1,,6,{8}5,7,3x>8[8:1],8x>3[8:1],,,{2}E7h[8:1]/B6h[16:3],
B2h[8:1]/E3h[16:3],
E5h[16:3]/B5h[8:1],B7h[12:1]/B2h[8:1]/B6h[24:5]/B3h[4:1],
5xh[16:3]/3xh[8:1],4h[16:3]/6h[8:1],
5h[16:3]/3h[8:1],2h[16:3]/6h[8:1],
{16}3h[12:1]/5h[8:1],,,4,,,,,6h[12:1]/4h[8:1],,,5,,,,,2h[12:1]/4h[8:1],
,,3,,,,,7h[12:1]/5h[8:1],,,6,,,,,2h[12:1]/1h[8:1],
,,3,,,,,7h[12:1]/8h[8:1],,,6,{48},,,,,,,,,,,,{24}2h[12:1]/5h[8:1],
,,,,3x,{4}4x,{24}7h[12:1]/4h[8:1],,,,,6x,{4}Ch[4:1],
8x,8,{48}8/E2,E3,{24}E4,,,,,{4}8,
2x/8x,2,{48}2/E8,E7,{24}E6,,,,,{4}2,
6x/2,6,{48}6/E3,E4,{24}E5,,,,,{4}6,
4x/6x,4,{2}4x/5xpp7[32:5]*qq3[32:5],
{6}4x/6xh[6:1],5h[6:1],{24}4h[24:7],,,,,,,3,,,{4}5/2,
{6}5/3h[6:1],4h[6:1],{24}5h[24:7],,,,,,,6,,,{4}7/4,
{6}1/7h[6:1],8h[6:1],{24}1h[24:7],,,,,,,2,,,{4}3/1,
{6}8/2h[6:1],1h[6:1],8,{24}7/2,,,4,5,4,{4}6x/3x,
5,5/B3/B4,3,3/B7/E7,
6,6/B2/B3,2xh[4:1],{8}8x,1,
2,2,2/4,3/5,6,6,6/4,7/3,
{12}8x,{24}8,2,,2,{12}4,{24}4,5,,5,8x-4b[8:1],7x,6x,4x,3x,2x,{4}8b,
{12}1b/7b-5[32:3],{24}7,4-2[32:3],,4,{8}7,4,{12}8-4[8:1],{24}1,7,,1,{4}8,
{12}3,{24}3,5,,5,{12}2-4[32:3],{24}2,6-8[32:3],,6,{8}2-6[8:1],6,2,8,
{12}7,{24}7,5,,5,{12}4-6[32:3],{24}4,2-4[32:3],,,{8}4-8[8:1],2,{24},,,,,,{12}7,
{24}7,1,,1,{12}5-8[8:1],{24}5,2-5[8:1],,2,{8}5,2,1,3x/7x,
{12}6,{24}6,5,,5,{12}8-6[32:3],{24}8,4-2[32:3],,4,{8}8-4[8:1],4,{4}8,
{12}1,{24}1,5,,5,{12}3-5[32:3],{24}3,7-5[32:3],,,{8}3-1[32:3],7,3,4x,
{12}8-4[8:1],{24}6,5,,5,{8}8,3x,{12}1-5[8:1],{24}3,4-7[8:1],,4,{8}1,4,
1xh[8:1],{24}8,,3,{12}4,{24}4,2,,2,{8}6x<1[8:1],1x<6[8:1],{24},,,,,,{12}3xh[12:1],
{24}5,4,{48},{16}6h[48:7],{48},,,,{24}5,7,,7,{8}1h[8:1],{16}8,7x/1x,,,{8}2-6[8:1],
5-8[8:1],2,5,1-5[8:1],7-4[8:1],1-3[32:3],7,1,
6xh[8:1],{16}5,7/4h[48:7],{48},,,,{24}5,3,,3,{12}4,{24}4,2,{48},{16}5x/1x,,,{8}2-6[8:1],
6-2[8:1],2,5,{24}7,,3x<6b[96:13],{8}6x-3b[32:3],E8/B7/E2/B2,{24},,,,,,{12}2x,
{24}2,8,,8,{12}5,{24}5,6,,6,{12}1-3[12:1],{24}1,5-7[12:1],,,,,,,,,{12}4,
{24}8,2,,6,{12}5,{24}7,1,,4,{12}3>8[8:1],{24}6,2>5[8:1],,,,,,,,,{8}8x-4[8:1],
6/5,8,3h[8:1],{12}5-1[8:1],{24}2,8x-6[12:1],,,,,,,,,{8}2xh[8:1],
{24}5,,4,{8}7h[8:1],{24}4,,5,{8}2qq3[4:1],1/4<8[8:1],,,,,,,{2}4xh[2:1],
5h[2:1],6-4[8:1],
3xh[2:1],4h[2:1],
{8}2,3,5,6,{2}3-6[8:1],
{8}7h[8:1],5,7h[12:1],5,6h[8:1],4,6h[12:1],4,
3h[8:1],5,3h[8:1],5,2h[12:1],4,2h[12:1],4,
{4}3h[8:1]/5h[12:1],3h[8:1]/5h[12:1],6h[8:1]/4h[12:1],6h[8:1]/4h[12:1],
{8}3,4,5,6,{12}7x/2x,{24}E3,E4,,E7,{4}E6,
E
