&title=STAR BEAT!〜ホシノコドウ〜
&artist=Poppin'Party
&first=-0.05
&lv_5=13+
&des_5=小kai也算开
&inote_5=
(195){4},{8},,,,,,,,,,,,,{16}8,
1,
{1}2xh[8:15]/E7f,
{4},B5,B6,B7,
{1}3h[16:17]/8pp4[16:11],
{4},6h[8:5]/B4,B3,B2,
{1}8h[16:17]/1pp5[16:11],
{4},4h[8:5]/B5,B6,B7,
{1}8pp4[16:7],
{8}6x/5x,7,,4x/3x,{4}2,5/4,
5,5,5,5,
5,4/5,3/5,{8}2/5,1,
{4}6/1>4[16:13],6,6,6,
6,3/6,2/6,1/6,
7/8>3[16:11],7,7,7,
7,7/1,7/2,7/3,
8/4>1[16:11],8,8,8,
8,5/4,6/3,7/2,
{2}E6/E4,B6/B3,
B7/B2,E8/E2,
{8}1x-3-5[2:1],{4},{8}6,7,8,,1x-7-5[8:5],
,,,2,{4}1,8x>5[4:3],
5,6,{8}7,8,,1x<4[8:5],
,,,,,1,2,3,
4x>7[2:1],{4},{8}5,{2}4h[8:3],
{4}8x>5[2:1],E5,{8}E7,E8,,1h[8:13],
{4},E2,B2,B3,
,{8}E8,B7,{4}B6,1bx/E6,
{8}8h[4:1]/4h[4:1],{4},{8}7,3,6,2,5,
{4}5h[4:1]/1-4[8:1],{8}1,6,2,7,{4}4-1[8:1],
4x/8x-5[8:1],8x/2x,2h[8:1]/6h[8:1],3h[8:1]/7h[8:1],
4/8h[4:1],{8}4,3h[4:1],,5,2,6,
{4}1h[4:1],{8}7,3,6,2,5,1,
{4}4h[4:1],{8}E8,E4,E1,E5,E2,E6,
{4}2xh[4:5],{8}E6,B6,{4}B7,8bx,
C,{8}7,6/3,{16}5/4h[4:1],{8},{16}6,{8},7,
{4}4/8h[4:5],{8}E4,B3,{4}B2,1bx,
C,1bx,{8}8/1,{16}1,8,{8}1,7/2,
{4}5/4-1[8:1],4b/5b,{8},8>3[8:1],7,8,
{4}4x<7[8:1],4x/8x>3[8:1],8x/4x<7[8:1],4x/8x,
5/4-1[8:1],5b/4b,{8},1<6[8:1],2,1,
{4}5x>2[8:1],5x/1x<6[8:1],1x/5x>2[8:1],5x/1x,
8/7v4[8:1],8b/7b,1/2v5[8:1],1b/2b,
3/4v7[8:1],3b/4b,6/5v2[8:1],6b/5b,
8h[4:1],{8}E2,7h[4:1],,E3,{4}6h[8:1],
1h[4:1],{8}E8,2h[4:1],,E7,{4}3h[8:1],
4/5-8[8:1],5b/4b,{8},2-6[8:1],1,2,
{4}7x-2[8:1],7x/3x-6[8:1],3x/7x-2[8:1],7x/3x,
4/5-8[8:1],5b/4b,{8},7-3[8:1],8,7,
{4}2x-7[8:1],2x/6x-3[8:1],6x/2x-7[8:1],2x/6x,
5xh[8:1]/4xh[8:1],7b/8b,5xh[8:1]/4xh[8:1],1b/2b,
5xh[8:1]/4xh[8:1],8b/1b,5b/6,3/4b,
{8}8b/6x,7,7,1b/3x,2,2,7x/5b,6,
6,2x/4b,3,3,3x/4x,2x,1x/8x,7x,
{4}6x/5x,{8}6/5,6/5,7/4,7/4,8/3,8/3,
{4}1/2,4b-1b[8:1]*-6[8:1],4b,Cf,
{24}1/2<5b[16:9],D3/E3,D4f/E4,D5/E5,,,,,,{8}5x,4,3,2,1,
{24}8/7>4b[16:9],D7/E7,D6f/E6,D5/E5,,,,,,{8}4x,5,6,7,8,
{4}1/2,8/7,{8}1/8,2,7,3h[8:3],
{4}6,{8}5,6/2,,2,6,3,
6-2b[8:1],5,{4}6,{8}3-7b[8:1],4,{4}3,
{8}6x/5x,7,8x/1x,2,3x/4x,6,,6h[8:15],
{4},{8}E8/B8,B7/E7,{4}B6/B5,B4/B3,
,{8}E2/B1,B2/E3,{4}B3/B4,B6/B5,
{24}5/6>1b[16:9],D7/E7,E8/D8f,D1/E1,,,,,,{8}1x,8,7,6,5,
{24}4/3<8b[16:9],D3/E3,D2f/E2,D1/E1,,,,,,{8}8x,1,2,3,4,
{4}4/3,5/6,{8}4/5,3,6,2h[8:3],
{4}7,{8}8,7/3,,3,7,2,
7-3b[8:1],8,{4}7,{8}2-6b[8:1],1,{4}2,
{8}8x/7x,6,5x/4x,3,1x/2x,7,,7h[8:15],
{4},{8}E6/B5,B6/E7,{4}B7/B8,B1/E2,
,{8}E4/B4,B3/E3,{4}B2/B1,B8f/E8,
,{8}7,6,5h[4:1],2,{4},{8}6h[4:1],
B3/B4/E4,,7h[4:1],{4}E3/B2/B3,8h[8:1]/3h[8:1],
{8}1/6,7,8/3,2,1/6,7,8/3,2,
{4}1/6,{8}1b/6,8b/3,,6,4,4,
8b,3,6,{16}3,4,{8}3,6,{4}3h[8:1],
{8}4,6,3,{16}6,5,{8}6,3,{4}6h[4:1],
{8}1b,6,3,{16}6,5,{8}6,3,{4}6h[8:1],
{8}5,3,6,{16}3,4,{8}3,6,{4}2bh[8:1],
{16}7x,6x,{8}5x/2b,{16}7x,6x,{8}5x/2b,{16}7x,6x,{8}5x/2b,{16}7x,6x,{8}5x/2b,
{16}6x,5x,{8}4x/1b,{16}6x,5x,{8}4x/1b,{16}5x,4x,{8}3x/8b,{16}5x,4x,{8}3x/8b,
{24}5,4,3,2,1,8,7,6,5,4,3,2,1,8,7,6,5,4,3,2,1,8,7,6,
{1}5/1b,
2xh[8:15]/E7f,
{4},B5/E6,B6/E7,B7/E8,
{1}3h[16:17]/8pp4b[16:11],
{4},6h[8:5]/B4,B3/E3,B2/E2,
{1}8h[16:17]/1pp5b[16:11],
{4},4h[8:5]/B5,B6/E7,B7/E8,
{1}8pp4b[16:7],
{8}5/4,{16}6,5,{8}7,{16}3,4,{8}2,7,3,5,
{4}8b-5b[8:1]/1bv4b[8:1],8b/1b,{8}6,3,,6,
,5,7,{16}3,4,{8}1,8b,,2,
{4}5b-8b[8:1]/4bv1b[8:1],5b/4b,{8}7x,7x,,2,
,4,{4}6/3,{8}8/1,{16}8,7,6,5b/1,2,3,
{4}6b/4,2b,{8}5,7,,3,
,4,2,{16}6,5,{8}8,1/2,3,4,
{4}5b/4,7b,{8}3,2,{4}8/1,
{16}1,8,1,8,1,8,1,7,1,8,2,7,1,8,2,7,
{2}1bh[1:7]/Ch[1:7],B8,
B1,B7,
B2,B6,
B3,B5,
E
