&title=僕らの時間
&artist=テヅカ feat. 大西あみみ
&first=0
&des=Yuzukeai
&lv_5=12+
&inote_5=(214)
{1},,
{12}2,6,4,5,3,7,4,6,3,5,,5,2-4[8:1],,,6,,,7-5[8:1],,,4,,,3-6[8:1],,,8,,,7-4[8:1]/1,,,2,,,3,,3,7,,,46,,6,2,,2h[4:1],,,6,37,,,4,,4,8,,,3-5[8:1],,,7,,,6-4[8:1],,,2,,,1-5[8:1],,1,6,,6,3,,
5,2,,6,4,,5,3,,7,4,,8-4[8:1],,,8b/2,,,1,1,,5,,,3b/7,,,,6-1[8:1],,,4,,,5-2[8:1],,,8,,,7-4[8:1],,,1,,,8-3[8:1],,,6,,,7,,7,5,,5,4,,4,2,,37,,,,15,,,3,,3,5,,5,2,3,4,7,,7,5-1[8:1],,5,6,,6h[4:1],,,2,3/7,,,3,,3,8,,8,2,,2,5,,5,3,2,1,7,6,5,42,,,1b/3b,,,2,5,4,7,,7,
5,,5,6,,6,2,,2,4,,4,3^6[8:1],,3,7,,,7^2[8:1],,7,2,,,3,,3,8,7,62,5,,,1,2,37,4^1[8:1]/8^5[8:1],,,4b/8b,,,,,,,,,
6v3[2:1],,,,,,,,,1,,,2v7[2:1],,,,,,,,,6,,,5v8[2:1],,,,,,,,,2,,,1v4[2:1],,,,,,5,,,6,,,7qq4[4:5],,,,,,,,,3,,,2,,,,,,,,,,,,1h[6:1]/5h[6:1],,,,,26,,,37,,,8,{16}4,5,6,7,{12}8,,6,2b,,,45,,,4b/3h[4:1],,,7,,,5/6,,6,2,,,4/3h[4:1],,,8-5[6:1],,,4-1[6:1],,,,,,6h[6:1],,2,4,,,3h[6:1],,7,5,,5,6,,,2-6[4:1],,,6-1[4:1],,,,,,
6h[4:1],,,2,,,4/3,,3,7,,,5/6h[4:1],,,1-4[6:1],,,5-8[6:1],,,,,,2,,2,7,,7,4,,4,6,,37,,,2/8h[12:3],,,,2,,3,,4,,5^2[8:1]/7,,,6,,,4-7[8:1],,,3,,,5^2[8:1],,,6,,,4-7[8:1],,,3,,,5-2[8:1],,,6,,,4,,1,7,,7,8v3[16:3],,,8,,,,,,15,,1,4<8[4:1],,,8>4[4:1],,,4<7[4:1],,,8,,,4,,,2,8,1,6^3[8:1],,,1-5[8:1],,,6,,,8-4[8:1],,,48,,,3h[4:1],,,4,3,6,5,,8,1,,3v8[2:1]/7,,,,7,,,,,,7,,,,,,7/1-4[2:1],,,,,,7,,,,,,1v6[2:1]/5-8[2:1],,,,,,,,,,,,7h[4:1],,,
{16},,5,4,{12}3,,,1-4[8:1],,,7,,,73,,,37,,,2,,6,26,,,26,,,1/5-1[8:1],,,5,,2,8,,3,3,,6,1,,5,5,,3,7b/3,,,,,,37,,1b/5,,,6,
4-1[8:1],,4,7-3[8:1],,,8,,8,4<1[4:1],,,1,,,4q2[4:1],,,7,,,5h[4:1],,,3,,3,6,,6,4,,4,8,,83,,,,
2q6[8:1]/7,,,8p4[8:1],,,2p6[8:1],,,5,,,4-7[8:1],,1,14,,,2-5[8:1],,6,62,,,7,,7,5,,5,
8-6[8:1],,2-4[8:1],8,,2,1-5[8:1],,5,1,,3<2[8:3],,,3b,,,,5b,,,,,7b,4,,4,
8-5[8:1],,8,3-7[8:1],,,4,,4,8>5[4:1],,,5,,,8q6[4:1],,,4,,,1h[4:1],,,7-3[8:1],,7,2,,,8-4[8:1],,8,6,,6,,,,37,,3,5,,5,{24}1,,,,1,,{12}2/7b,,,6-1[8:1],,4,46,,,2-5[8:1],,5,25,,,36,,3,7,,7,4^1[8:1],,4,7p3[8:1],,,2p6[8:1],,2,5^8[8:1],,,1q5[8:1],,1,6-1[8:1]*-8[8:1],,,6b,,,2,4,3,6,5,7,2b/8,,,,,1,8,,8,1,,27,,,1,16,,,8,,8,4>6[8:4],,4,6b,,,5,,,4,,4,7>4[8:3],,7,,,,5^8[4:1],,,8^2[8:1],,,4^7[4:1],,,7^1[8:1],,,3^6[4:1],,,6^8[8:1],,,2^5[4:1],,,5^7[8:1],,,1,,,5h[4:1],,,2,,2,4,,,3-7[8:1],,,6,,,5,,5,1,,,2-6[8:1],,,7,,,8<5[4:1],,,
{8}5pp4[8:3],,,4>6[8:3],,,1,,
{12}2,,2,8,,,7,5,6,3,4,2,5b/1,,,15,,,6,,6,3>5[8:3],,3,,,,4^1[4:1],,,1^7[8:1],,,5^2[4:1],,,2^8[8:1],,,6^3[4:1],,,3^1[8:1],,,7^4[4:1],,,4^2[8:1],,,8,,,4h[4:1],,,1,,1,5,,,7-3[8:1],,,4,,,2,,6h[12:4],,,,1-5[8:1],,,7,,7^4[8:1],,,7,3,,,15,,,15,26,37,4p8[8:1]/8p4[8:1],,,4/8^3[8:1],,,6,,,7,5,6,2b/6,,,
1-5[8:1],,1,7^4[8:1],,7,2-6[8:1],,2,8-4[8:1],,8,1^4[8:1],,1,7-3[8:1],,7,8>5[4:1],,8,6b,,,7V58[4:1],,7,8,,,2-6[8:1],,2,6,,,8b,4,6,1,7,5,8,3,5,1,6,4,
8^5[8:1],,8,2-6[8:1],,2,1-5[8:1],,1,3,,3b,,,6,57,,,24,,3,5,,5,3,2,1,7-3[8:1],,7,8-4[8:1],,8,6,,6b,,,7,7,,3,8/3bqq8[2:3],,6bq1[8:11]/1,,,,,,,,,,,,,,,,,,,,,,,,,{16},,25,36,47
,
&inote_6=
