&title=[覚]痛快リズムアクション「B.B.K.K.B.K.K.」
&artist=Sampling masters なる&せりな feat.なでしこ
&first=0
&des=S.S.5.5.S.S.5.
&clock_count=4
&lv_7=0
&inote_7=(132.00)
{8},,,,,,,,
{8},,,,,,,,
{8}2/7,3/6,2/7,3/6,1/8,,
{8}4/5h[8:30],,3,,,,3,,
{8},,3,,,3,3,,
{8},,3,,,,3,,
{8},,3,,,3,3h[8:28],,
(132.00)
{32}8/8?V64[1.81818##0.45454],,,,,,,,
{8}8?V64[1.36364##0.45454]/8?V64[1.36364##0.45454],,
{8}8?V64[0.90909##0.45454],,
{8},,
{8},,
{8},,,,,,
{32}5/5?V71[1.81818##0.45454],,,,,,,,
{8}5?V71[1.36364##0.45454]/5?V71[1.36364##0.45454],,
{8}5?V71[0.90909##0.45454],,
{8},,
{8},,
{8},,,,
(132.00){32}7?-5[4.09091##0.22727],1?-3[4.48863##0.22727],8?-4[4.88636##0.22727],,,,,,
(16.50)
{256}7/7?-5[3.63636##0.22727]/7?-5[3.63636##0.22727],,,,,,,,
{256}1/1?-3[3.63636##0.22727]/1?-3[3.63636##0.22727],7?-5[3.12500##0.22727],,,,,,,
{256}8/8?-4[3.63636##0.22727]/8?-4[3.63636##0.22727],1?-3[3.12500##0.22727],,,,,,,
{256}1/1?-3[2.72727##0.22727]/1?-3[2.72727##0.22727],8?-4[3.12500##0.22727],,,,,,,
{256}7/7?-5[1.81818##0.22727]/7?-5[1.81818##0.22727],1?-3[2.21591##0.22727],,,,,,,
{256}8/8?-4[2.27272##0.22727]/8?-4[2.27272##0.22727],7?-5[1.30681##0.22727],,,,,,,
{256}1/1?-3[1.36364##0.22727]/1?-3[1.36364##0.22727],8?-4[1.7613##0.22727],,,,,,,
{256}1?-3[0.90909##0.22727],,,,,,,,
{256},,,,,,,,
{256},7?-5[1.36363##0.22727],,,,,,,
{256},1?-3[0.45455##0.22727],,,,,,,
{256},8?-4[0.90909##0.22727],,,,,,,
{256},1?-3[0.90909##0.22727],,,,,,,
{256},,,,,,,,
{256},,,,,,,,
{256}2?-4[4.09091##0.22727],8?-6[4.48863##0.22727],1?-5[4.88636##0.22727],,,,,,
{256}2/2?-4[3.63636##0.22727]/2?-4[3.63636##0.22727],,,,,,,,
{256}8/8?-6[3.63636##0.22727]/8?-6[3.63636##0.22727],2?-4[3.12500##0.22727],,,,,,,
{256}1/1?-5[3.63636##0.22727]/1?-5[3.63636##0.22727],8?-6[3.12500##0.22727],,,,,,,
{256}8/8?-6[2.72727##0.22727]/8?-6[2.72727##0.22727],1?-5[3.12500##0.22727],,,,,,,
{256}2/2?-4[1.81818##0.22727]/2?-4[1.81818##0.22727],8?-6[2.21591##0.22727],,,,,,,
{256}8/8?-6[1.81818##0.22727]/8?-6[1.81818##0.22727],2?-4[1.30681##0.22727],,,1/1?-5[2.04545##0.22727]/1?-5[2.04545##0.22727],8?-6[1.5341##0.22727],,,
{256}2/2?-4[0.90909##0.22727]/2?-4[0.90909##0.22727],1?-5[1.76136##0.22727],,,1/1?-5[1.59191##0.22727]/1?-5[1.59191##0.22727],2?-4[0.62500##0.22727],,,
{256}8/8?-6[0.90909##0.22727]/8?-6[0.90909##0.22727],1?-5[1.30682##0.22727],,,,8?-6[0.62500##0.22727],,,
{256},,,,,,,,
{256},2?-4[1.36363##0.22727],,,,,,,
{256},8?-6[0.45455##0.22727],,,,,,,
{256},1?-5[1.07954##0.22727],,,,,,,
{256},8?-6[0.39773##0.22727],,,,,,,
{256},,,,,2?-4[0.17045##0.22727],,,
{256},1?-5[0.17045##0.22727],,,,8?-6[0.17045##0.22727],,,
{256},6?-4[4.2614##0.22727],2?-4[3.97727##0.22727],1?<7[5.17046##0.22727],8?-4[4.77273##0.22727],,,,
{256}2/2?-4[3.63636##0.22727]/2?-4[3.63636##0.22727],,,,6/6?-4[3.63636##0.22727]/6?-4[3.63636##0.22727],2?-4[3.3523##0.22727],,,
{256}2/2?-4[3.18182##0.22727]/2?-4[3.18182##0.22727],6?-4[3.3523##0.22727],,,,,,,
{256}8/8?-4[3.63636##0.22727]/8?-4[3.63636##0.22727],2?-4[2.6705##0.22727],,,,,1/1?<7[3.63637##0.22727]/1?<7[3.63637##0.22727],8?-4[3.23864##0.22727],
{256},,,,,,,,
{256}6/6?-4[2.04545##0.22727]/6?-4[2.04545##0.22727],1?<7[3.01136##0.22727],,,,,2/2?-4[1.4773##0.22727]/2?-4[1.4773##0.22727],6?-4[1.64773##0.22727],
{256},,,,8/8?-4[2.04545##0.22727]/8?-4[2.04545##0.22727],2?-4[1.0795##0.22727],,,
{256}1/1?<7[2.1591##0.22727]/1?<7[2.1591##0.22727],8?-4[1.76136##0.22727],,,,,,,
{256}1?<7[1.70455##0.22727],,,,,,,,
{256},,,,,2?-4[0.17045##0.22727],,,
{256},6?-4[1.3068##0.22727],,,,2?-4[1.42046##0.22727],,,
{256},,,,,8?-4[1.3068##0.22727],,,
{256},,,,,1?<7[1.07954##0.22727],,,
{256},,,,,,,,
{256},,,,,,,,
{256},,,,,,,,
{256}3?-1[1.36364##0.22727],3?-7[1.53409##0.2272],3?-5[1.70455##0.2272],,,,,,
{256}3/3?-1[0.90909##0.22727]/3?-1[0.90909##0.22727],,,,3/3?-7[0.90909##0.22727]/3?-7[0.90909##0.22727],3?-1[0.62500##0.22727],,,
{256}3/3?-5[0.90909##0.22727]/3?-5[0.90909##0.22727],3?-7[0.62500##0.22727],,,,3?-5[0.62500##0.22727],,,
{256},,,,,,,,
{256},8?-6[1.30682##0.22727],8?-4[1.47727##0.2272],8?-5[1.64773##0.2272],,,,,
{256}8/8?-6[0.90909##0.22727]/8?-6[0.90909##0.22727],,,,8/8?-4[0.90909##0.22727]/8?-4[0.90909##0.22727],8?-6[0.62500##0.22727],,,
{256}8/8?-5[0.90909##0.22727]/8?-5[0.90909##0.22727],8?-4[0.62500##0.22727],,,,8?-5[0.62500##0.22727],,,
{256},,,,,,,,
{256},,,,,,,,
(132.00)
{8}2h[8:2],,,,6h[8:2],,
(16.50)
{256}4?-1[1.36364##0.22727],4?-7[1.76136##0.22727],,,,,,,
{256}3h[64:1]/4,4?-1[0.85227##0.22727]/4-?1[0.85227##0.22727],,,,4?-1[0.62500##0.22727],,,
{256}5h[64:1]/4,4?-7[0.85227##0.22727]/4-?7[0.85227##0.22727],,,,4?-7[0.62500##0.22727],,,
{256}4b,,,,,,,,
{256}4b,,,,,,,,
(132.00)
{16}2/5,,4,3,5,4h[8:1],,6,6h[8:1],,3,3h[16:3],,,4,,
{16}5h[8:1],,4,4h[16:3],,,6,4,6h[8:1],,3,3,,8,1,8,
{16}2h[8:1],,8,1,7,1,6,1,5,,7/8,,4,,8/2,,
{16}4/6,,7,5,7,3,7,1,7,,3/4,,7/8,,2/5,,
{8}6h[8:30],,4,,,,4,,
{8},,
(16.50){256}4,1?v8[4.03408##0.22727],,,,,,,
{256},,,,,,,,
{256}4,,,,,,,,
{256},,,,,,,,
{256},,,,,,1h[64:1]/1?v8[1.93181##0.22727]/1?v8[1.93181##0.22727],,
{256},,,,,,1?v8[1.47727##0.22727],,
{256},,,,,,,,
{256},,,,,,,,
{256}1h[64:1],,,,,,,,
{256},,,,,,,,
(16.50){256}2?-4[4.09091##0.22727],7?-5[4.48863##0.22727],1?v8[7.15909##0.22727],,,,,,
(16.50)
{256}2/2?-4[3.63636##0.22727]/2?-4[3.63636##0.22727],,,,,,,,
{256}7/7?-5[3.63636##0.22727]/7?-5[3.63636##0.22727],2?-4[3.12500##0.22727],,,,,,,
{256}2/2?-4[2.72727##0.22727]/2?-4[2.72727##0.22727],7?-5[3.12500##0.22727],,,,,,,
{256}7/7?-5[2.72727##0.22727]/7?-5[2.72727##0.22727],2?-4[2.2159100##0.22727],,,,,,,
{256}2/2?-4[1.81818##0.22727]/2?-4[1.81818##0.22727],7?-5[2.21591##0.22727],,,,,,,
{256}7/7?-5[1.81818##0.22727]/7?-5[1.81818##0.22727],2?-4[1.30682##0.22727],,,,,,,
{256}1h[64:1]/1?v8[4.09091##0.22727]/1?v8[4.09091##0.22727],7?-5[1.30682##0.22727],,,,,,,
{256}1?v8[3.63636##0.22727],,,,,,,,
{256},,,,,,,,
{256},2?-4[0.45455##0.22727],,,,,,,
{256},7?-5[0.45455##0.22727],,,,,,,
{256},2?-4[0.45455##0.22727],,,,,,,
{256},7?-5[0.45455##0.22727],,,,,,,
{256},,,,,,,,
{256}1h[64:1],,,,,,,,
{256},2?-5[4.26136##0.22727],6?-3[4.43181##0.22727],7?<4[3.9204##0.22727],,,,,
{256}7/7?<4[3.63636##0.22727]/7?<4[3.63636##0.22727],,,,2/2?-5[3.63636##0.22727]/2?-5[3.63636##0.22727],7?<4[3.35227##0.22727],,,
{256}6/6?-3[3.63636##0.22727]/6?-3[3.63636##0.22727],2?-5[3.35227##0.22727],,,,,,,
{256}2/2?-5[2.95455##0.22727]/2?-5[2.95455##0.22727],6?-3[3.12500##0.22727],,,,,7/7?<4[2.38637##0.22727]/7?<4[2.38637##0.22727],2?-5[2.55682##0.22727],
{256},,,,,,,,
{256}6/6?-3[2.27273##0.22727]/6?-3[2.27273##0.22727],7?<4[1.76136##0.22727],,,1?v2[4.54545##0.22727],8?v7[4.72591##0.22727],,,
{256},,,,1h[64:1]/1?v2[4.09091##0.22727]/1?v2[4.09091##0.22727],6?-3[1.53409##0.22727],,,
{256}8h[64:1]/8?v7[4.09091##0.22727]/8?v7[4.09091##0.22727],1?v2[3.80682##0.22727],,,,,,,
{256}8?v7[3.63636##0.22727],,,,,,,,
{256},,,,,,,,
{256},7?<4[0.73863##0.22727],,,,2?-5[0.17045##0.22727],,,
{256},6?-3[0.85227##0.22727],,,,,,,
{256},,,,,,,,
{256},,,,,,,,
{256},,,,1h[64:1],,,,
{256}8h[64:1],,,,,,,,
{256},,,,,,,,
{256},,,,,,,,
{256},,,,,,,,
{256},,,,,,,,
{256},,,,,,,,
(180.00)
{16}3,4,3,,3,4,3,,3,4,3,,2/5,,,,
{8}6h[8:60],,4,,,3,3,,
{8}4,,2,,,3,3,,
{8}4,,2,,,3,3,,
{8}4$b,,,,,,,,
{8}4b?>8[0##0.50000],,,,,,,,
{8}4$b,,,,,,,,
{8}4?-2[0##0.16667],,,,,,,,
{8}2h[8:6],,,,,,
{32}8?-6[3##0.16667],4?-2[3.29166##0.16667],6?-4[3.58333##0.16667],2?-8[3.87499##0.16667],,,,,
{32}8/8?-6[2.66667##0.16667]/8?-6[2.66667##0.16667],,,,,,,,
{32}4/4?-2[2.66667##0.16667]/4?-2[2.66667##0.16667],8?-6[2.29166##0.16667],,,,,,,
{32}6/6?-4[2.66667##0.16667]/6?-4[2.66667##0.16667],4?-2[2.29166##0.16667],,,,,,,
{32}2/2?-8[2.66667##0.16667]/2?-8[2.66667##0.16667],6?-4[2.29166##0.16667],,,,,,,
{32}8/8?-6[1.33333##0.16667]/8?-6[1.33333##0.16667],2?-8[2.29166##0.16667],,,,,,,
{32}4/4?-2[1.33333##0.16667]/4?-2[1.33333##0.16667],8?-6[0.95833##0.16667],,,,,,,
{32}6/6?-4[1.33333##0.16667]/6?-4[1.33333##0.16667],4?-2[0.95833##0.16667],,,,,,,
{32},6?-4[0.95833##0.16667],,,,,,,
{32},,,,,,,,
{32},8?-6[0.95833##0.16667],,,,,,,
{32},4?-2[0.95833##0.16667],,,,,,,
{32},6?-4[0.95833##0.16667],,,,,,,
{32},,,,,,,,
{32},,,,,,,,
{32},,,,,,,,
{32}2?>4[3##0.16667],5?<7[3.29166##0.16667],1?v8[3.91666##0.16667],,,,,,
{32}2/2?>4[2.66667##0.16667]/2?>4[2.66667##0.16667],,,,,,,,
{32}5/5?<7[2.66667##0.16667]/5?<7[2.66667##0.16667],2?>4[2.29166##0.16667],,,,,,,
{32}1h[8:1]/1?v8[3.00000##0.16667]/1?v8[3.00000##0.16667],5?<7[2.29166##0.16667],,,,,,,
{32},1?v8[2.62500##0.16667],,,,,,,
{32}5/5?<7[1.66667##0.16667]/5?<7[1.66667##0.16667],,,,,,,,
{32}2/2?>4[1.00000##0.16667]/2?>4[1.00000##0.16667],5?<7[1.29166##0.16667],,,,,,,
{32}5/5?<7[1.00000##0.16667]/5?<7[1.00000##0.16667],2?>4[0.62500##0.16667],,,,,,,
{32},5?<7[0.62500##0.16667],,,,,,,
{32},,,,,,,,
{32},2?>4[1.29166##0.16667],,,,,,,
{32}1h[8:1],5?<7[0.62500##0.16667],,,,,,,
{32},,,,,,,,
{32},,,,,,,,
{32},5?<7[0.29166##0.16667],,,,,,,
{32},,,,,,,,
{32}1?-4[3##0.16667],1?-5[3.29166##0.16667],1?-6[3.58333##0.16667],,,,,,
{32}1/1?-4[2.66667##0.16667]/1?-4[2.66667##0.16667],,,,,,,,
{32}1/1?-5[2.66667##0.16667]/1?-5[2.66667##0.16667],1?-4[2.29166##0.16667],,,,,,,
{32}1/1?-6[2.66667##0.16667]/1?-6[2.66667##0.16667],1?-5[2.29166##0.16667],,,,,,,
{32}1/1?-5[2.00000##0.16667]/1?-5[2.00000##0.16667],1?-6[2.29166##0.16667],,,,,,,
{32}1/1?-4[1.33333##0.16667]/1?-4[1.33333##0.16667],1?-5[1.62500##0.16667],,,,,,,
{32},1?-4[0.95833##0.16667],,,,,,,
{32}6$b,,,,,,,,
{32},,,,,,,,
{32},,,,,,,,
{32},1?-4[0.95833##0.16667],,,,,,,
{32},1?-5[0.29166##0.16667],,,,,,,
{32},,,,,,,,
{32},,,,,,,,
{32},,,,,,,,
{32}6?-8[0##0.16667],,,,,,,,
{32}7?-5[3##0.16667],2?-6[3.12498##0.16667],7?-1[3.25000##0.16667],3?-5[3.54166##0.16667],,,,,
{32}7/7?-5[2.66667##0.16667]/7?-5[2.66667##0.16667],,,,2/2?-6[2.66667##0.16667]/2?-6[2.66667##0.16667],7?-5[2.45833##0.16667],,,
{32}7/7?-1[2.66667##0.16667]/7?-1[2.66667##0.16667],2?-6[2.4583##0.16667],,,,,,,
{32}3/3?-5[2.66667##0.16667]/3?-5[2.66667##0.16667],7?-1[2.29166##0.16667],,,,,,,
{32}7/7?-1[2.00000##0.16667]/7?-1[2.00000##0.16667],3?-5[2.29166##0.16667],,,,,,,
{32}2/2?-6[1.50000##0.16667]/2?-6[1.50000##0.16667],7?-1[1.62500##0.16667],,,,,,,
{32}7/7?-5[1.00000##0.16667]/7?-5[1.00000##0.16667],2?-6[1.12500##0.16667],,,3/3?-5[1.50000##0.16667]/3?-5[1.50000##0.16667],7?-5[0.79166##0.16667],,,
{32}7/7?-1[1.00000##0.16667]/7?-1[1.00000##0.16667],3?-5[1.29166##0.16667],,,,,,,
{32}3$b,7?-1[0.62500##0.16667],,,,,,,
{32},,,,,,,,
{32},,,,,2?-6[0.79166##0.16667],,,
{32},7?-1[0.95833##0.16667],7?-5[0.25000##0.16667],,,,,,
{32},3?-5[0.79166##0.16667],,,,,,,
{32},,,,,,,,
{32},7?-5[0.29166##0.16667],,,,,,,
{32},,,,,,,,
{32}3?-1[0##0.16667],7?-2[1.62500##0.16667],4?-7[1.91666##0.16667],8?-4[2.20832##0.16667],,,,,
{32}7/7?-2[1.33333##0.16667]/7?-2[1.33333##0.16667],,,,,,,,
{32}4/4?-7[1.33333##0.16667]/4?-7[1.33333##0.16667],7?-2[0.95833##0.16667],,,,,,,
{32}8/8?-4[1.33333##0.16667]/8?-4[1.33333##0.16667],4?-7[0.95833##0.16667],,,,,,,
{32},8?-4[0.95833##0.16667],,,,,,,
{32},,,,,,,,
{32},,,,,,,,
{32},,,,,,,,
{32},5?-2[1.62500##0.16667],8?-4[1.91666##0.16667],1?<6[2.20832##0.16667],,,,,
{32}5/5?-2[1.33333##0.16667]/5?-2[1.33333##0.16667],,,,,,,,
{32}8/8?-4[1.33333##0.16667]/8?-4[1.33333##0.16667],5?-2[0.95833##0.16667],,,,,,,
{32}1/1?<6[1.33333##0.16667]/1?<6[1.33333##0.16667],8?-4[0.95833##0.16667],,,,,,,
{32},1?<6[0.95833##0.16667],,,,,,,
{32},,,,,,,,
{32},,,,,,,,
{32},,,,,,,,
{32},,,,,,,,
{8}3$b,,6$b,,3$b,,,,
{8}3?-1[0##0.16667],,6?-8[0##0.16667],,3?-1[0##0.16667],,,,
{8}4$b,,
{32}5$b,,,,1?v8[1.83333##0.16667],,,,
{32}1h[8:1]/1?v8[1.66667##0.16667]/1?v8[1.66667##0.16667],,,,,,,,
{32},1?v8[1.29166##0.16667],,,,,,,
{32}4?-2[0##0.16667],,,,,,,,
{32}5?-7[0##0.16667],,,,,,,,
{32}1h[8:1],,,,,,,,
{32},7?<5[2.95833##0.16667],2?-5[3.24999##0.16667],7?-4[3.54166##0.16667],2?>4[3.83332##0.16667],,,,
{32}7/7?<5[2.66667##0.16667]/7?<5[2.66667##0.16667],,,,,,,,
{32}2/2?-5[2.66667##0.16667]/2?-5[2.66667##0.16667],7?<5[2.29166##0.16667],,,,,,,
{32}7/7?-4[2.66667##0.16667]/7?-4[2.66667##0.16667],2?-5[2.29166##0.16667],,,8?v1[3.50000##0.16667],,,,
{32}2/2?>4[2.66667##0.16667]/2?>4[2.66667##0.16667],7?-4[2.29166##0.16667],,,,,,,
{32}8h[8:1]/8?v1[3.00000##0.16667]/8?v1[3.00000##0.16667],2?>4[2.29166##0.16667],,,,,,,
{32},8?v1[2.62500##0.16667],,,,,,,
{32}4$b,,,,,,,,
{32},,,,,,,,
{32},,,,,,,,
{32},,,,,,,,
{32},,,,,,,,
{32},,,,,,,,
{32}8h[8:1],,,,,,,,
{32},,,,,,,,
{32}4?-2[0##0.16667],,,,,,,,
{32}2?-5[3.00000##0.16667],6?-2[3.29166##0.16667],3?-7[3.58332##0.16667],7?-4[3.87499##0.16667],1?v8[5.16667##0.16667],,,,
{32}2/2?-5[2.6667##0.16667]/2?-5[2.6667##0.16667],,,,,,,,
{32}6/6?-2[2.6667##0.16667]/6?-2[2.6667##0.16667],2?-5[2.29166##0.16667],,,,,,,
{32}3/3?-7[2.6667##0.16667]/3?-7[2.6667##0.16667],6?-2[2.29166##0.16667],,,,,,,
{32}7/7?-4[2.6667##0.16667]/7?-4[2.6667##0.16667],3?-7[2.29166##0.16667],,,,,,,
{32}4$b,7?-4[2.29166##0.16667],,,,,,,
{32}5$b,,,,,,,,
{32}1h[8:1]/1?v8[3.00000##0.16667]/1?v8[3.00000##0.16667],,,,,,,,
{32},1?v8[2.62500##0.16667],,,,,,,
{32},,,,,,,,
{32},,,,,,,,
{32},,,,,,,,
{32},,,,,,,,
{32}4?-2[0##0.16667],,,,,,,,
{32}5?-7[0##0.16667],,,,,,,,
{32}1h[8:1],,,,,,,,
{32},,,,,,,,
{8},,,,,,,,
{8},,,,,,,,
{8}6,,3,6,,{16}3,,,,3,,
{8}6,5/6,4/6,3/6,{16}2/6,,,,1b/8b,,,,
{8}3h[8:4]/7h[8:1],,4h[8:2],,,2,5/3,7,
{8}4h[8:4]/8h[8:1],,5h[8:2],,,3,2/6,7,
{8}5h[8:4]/8h[8:1],,6h[8:2],,,2,4,6,
{8}1/8,,2/6,2/6,,3,4/5,6,
{8}7h[8:4]/3h[8:1],,8h[8:2],,,6,1/7,3,
{8}8h[8:4]/4h[8:1],,1h[8:2],,,7,6/2,3,
{8}1h[8:4]/4h[8:1],,2h[8:2],,,3/4,5/6,7/8,
{8}1/6,,,2/5,3/6,4/7,3/6,2,
{8}8h[8:1],,4/5h[8:1],,3/8h[8:1],4,3/5h[8:1],2h[8:1],
{8}8h[8:1],4h[8:1],5h[8:1],3h[8:1],8h[8:1],4,3/5h[8:1],2,
{8}1h[8:1],,7/4h[8:1],6,1h[8:1]/5,6,4h[8:1]/7,8,
{8}1h[8:1],7h[8:1],4h[8:1],5h[8:1],1h[8:1],6,7/4h[8:1],,
{8}8h[8:1],,5h[8:1]/3,,4/7h[8:1],3,2/6h[8:1],2,
{8}8h[8:1],3,3/5h[8:1],,7h[8:1],4,3/6h[8:1],2,
{8}1h[8:1]/5h[8:1],,4h[8:1]/7h[8:1],,8/2h[8:1],7,6/3h[8:1],,
{8}1h[8:6]/5h[8:2],,,,8h[8:2],,,,
{16}2/6,,4,,2h[8:1]/6,,,,2/6,,4,6,2,,4,,
{16}2h[8:1]/6h[8:1],,,,4,6,4,,6h[8:1],,,,2/4,,2/6,,
{16}3h[8:1]/7h[8:1],,,,1,5,3,7,1h[8:1],,5,3,7,,1,,
{16}3h[8:1]/7h[8:1],,,,1h[8:1],,5,,3,7,3,,1/5,,,,
{16}2/4,,3,,5/7,,6,,2/4,,3,,5/7,,6,,
{16}3/1,,2,,8/6,,7,,1/2,,3/4,,5/6,,7/8,,
{16}1,5,3,7,2,6,4,8,1,5,3,7,2/6,3/7,4/8,5/1,
{8}2/6,
{32}2?-5[1.16667##0.16667],6?-1[1.12500##0.16667],,,,,,,
{8},
{32}2?-5[0.66667##0.16667]/2?-5[0.66667##0.16667]/6?-1[0.66667##0.16667]/6?-1[0.66667##0.16667],,,,,,,,
{32}2?-5[0.33333##0.16667],6?-1[0.29166##0.16667],,,,,,,
{8}2b/6b,,,,,,,,
{8},,,,,,,,
{8},,,,,,,,
{8},,,,,,,,
