&title=スキャットアー!
&artist=ニューロン
&smsg_5=財宝くれくれ
&first=0.22
&lv_1=1
&lv_5=13+
&des_1=音
&des_5=GANTZ
&wholebpm=168
&demo_seek=28.9
&demo_len=14
&inote_1=(168)
{4}1,8,1,8,1,8,1,8,1,8,1,8,1,8,1,8,1,8,1,8,1,8,1,8,1,8,1,8,1,8,1,8,
1,8,1,8,1,8,1,8,1,8,1,8,1,8,1,8,1,8,1,8,1,8,1,8,1,8,1,8,1,8,1,8,E
&inote_5=(168)
{48}
18,27,36,45,,,{16},,
{16}
2,2,,7,7,,27,,3,3,,6,6,,36,,
18,,27,,2,7,2,7,2,7,2,7,
{24}1,8,1,8,1,8,
1,8,1,8,1,8,1,8,1,8,1,8,1,8,1,8,1,8,1,8,1,8,1,8,
1,8,1,8,1,8,{16}1,,,,,,,,,,,,
3-8[8:1]/7-4[8:1],,,,37,,,,26,2/6<5[1:1],,,,,,,
,,,,,,,,,,,,,,,,
2h[8:1],7h[8:1],,,3h[8:1],8h[8:1],,,2h[8:1],7h[8:1],,,1h[8:1],6h[8:1],,,
2h[8:1],7h[8:1],,,3h[8:1],8h[8:1],,,2h[8:1],7h[8:1],,,1,6,1,,
7bV53[4:1]/8bV24[4:1],,,,
,,,,
,,25,,25,,5h[8:1]/6h[8:1],,
,,4h[8:1]/7h[8:1],,,,1h[8:1]/2h[8:1],,,,2,1,2,1,3,8,
3,8,2,1,2,1,3,8,3,8,2,1,3,8,2,1,
{16}
3,8,2,1,3-6[28#48:1]*-8[28#48:1],8,,,,,,,,,,,
,,,,,,,,,,,,3,,,,
1,7,1,7,1,,17,,8,2,,12,,,,,
3h[8:1]/4h[8:1],,,,25,,25,,1,6,,78,,,,,
1,7,1,7,1,,17,,8,2,,12,,,,,
3h[8:1]/4h[8:1],,,,25,,25,,1,6,,78,,,,,
1,7,1,7,1,,17,,8,2,,12,,,,,
3h[8:1]/4h[8:1],,,,25,,25,,1,6,,78,,,,,
1,7,1,7,1,,17,,8,2,,12,,,,,
1b/8b,,,2b/7b,,,3b/6b,,,,,,1-5[8:1]/8-4[8:1],,,,
1b/8b,,,,3h[8:1],,6,,2,7,,1pp4[2:1]/8qq5[2:1],,,,,
,,,,,,,,,,,,1-4[8:1]/8-5[8:1],,,,
1b/8b,,,,3h[8:1],,6,,2,7,,1pp4[2:1]/8qq5[2:1],,,,,
,,,,,,,,,,,,1-5[8:1]/8-4[8:1],,,,
1b/8b,,,,3h[8:1],,6,,2,7,,1pp4[2:1]/8qq5[2:1],,,,,
,,,,,,,,,,,,1^4[8:1]/8^5[8:1],,,,
1b/8b,,,,3h[8:1],,6,,2,7,,1pp4[2:1]/8qq5[2:1],,,,,
,,,,,,,,,,,,1-5[8:1]/8-4[8:1],,,,
1b/8b,,,,27,,27,,3,6,3,6,3,6,3,6,
3,6,{24}4,5,4,5,4,5,4,5,4,5,4,5,4,5,4,5,4,5,4,5,4,
5,4,5,4,5,4,5,4,5,4,5,4,{16}6,3,6,3,7,2,7,2,
,,,,,,,,,,,,,,,,
7qq3[4:3],,,8,8,,1,,1,,,,1,,,,
2q8[8:3],,,,,,,,,,,,,,,,
27,,,1,8^5[8:1],,18,,8p4[8:1],,,,1pp4[2:1]/8,,,,
1,,,,,,,,,,,,,,,,
2pp6[4:3],,,1,1,,8,,8,,,,8,,,,
7p1[8:3],,,,,,,,,,,,,,,,
8-4[8:1]/2-5[8:1],,,,82,,,,36,,4,,5,,3V15[8:3]/6V84[8:3],,
,,,,,,,,,,,,,,,,
2-5[8:1]/6-1[8:1],,,,26,,,,,,,,,,,,
,,,,,,,,,,,,3-8[8:1]/7-4[8:1],,,,
37,,,,,,,,,,,,2-5[8:1]/6-1[8:1],,,,
26,,,,,,,,,,,,3-8[8:1]/7-4[8:1],,,,
37,,,,,,,,,,,,,,,,
,,,,,,,,,,,,2h[8:1]/6h[8:1],,,,
26,,3,4,3,,6,5,,3,4,,6,5,,3,
4,,6,5,,3,4,3,,6,5,6,4,6,3,6bV48[8:3],
,,,,,,,,,,,,,,,,
2,1,2,1,2,,8,3,8,,27,,1,,27,,
8,,27,,1,,27,,18,,,,,,,,
1>5[4:1],,,,5<1[4:1],,,,1>5[4:1],,,,5<1[4:1],,,,
1,,,,5,,,,45,,45,,1b/6b,,,,
7,8,7,8,7,,1,6,1,,27,,8,,27,,
1,,27,,8,,2h[16:1]/7h[16:1],,,,,,,,,,
8<4[4:1],,,,4>8[4:1],,,,8<4[4:1],,,,4>8[4:1],,,,
8,,,,4,,,,26,,26,,45,,45,,
4,5,4,5,4,5,4,5,4,5,4,5,3,6,3,,
2b/7b,,,1b/8b,,,3b/6b,,,,,,2,4,,7,
5,,6,4,6,,64,,28,,2,8,2,,28,,
1,6,1,6h[8:1],,3,7,3,7,,37,,1,8,1,,
2,8,2,7,1,7,2,8,2,7,1,7,2,8,2,8,
2,,7,3,7,,2,6,2,,3,5,3,,47,,
56,,7,5,7,,56,,4,6,4,,6,,5,,
56,,4,7,4,,8,3,8,,{24}2,1,2,{16}1,,{24}1,8,1,
{16}
8,,,,18,,78,,16,,2,5,2,,34,,
2h[8:1]/5h[8:1],,,,36,,47,,3,8,,1b/2b,,,,,
1^4[8:1]*^6[8:1],,,,1,,,,,,,,5-8[8:1]*-2[8:1],,5,,
,,,,,,,,,,17,,2,,3,,
4,5,4,5,4,,36,,4,5,,27,,,1V74[4:1]/2-6[8:1],,
,,,,,,,,,,25,,1-5[8:1]/8-4[8:1],,27,,
1b/8b,,,,36,,36,,,,2,,1-5[8:1]/8-4[8:1],,,,
1b/8b,,,,36,,36,,,,7,,18,,,,
{28}
1,2,3,4,5,6,7,
8,1,2,3,4,5,6,
7,8,1,2,3,4,5,
6,7,8,1,2,3,4,
{16}
57,,,,,,,,,,,,1-4[8:1]*-6[8:1],,,,
1,,,,,,,,
{8},,,,E
