&title=crescent moon
&artist=FELT
&first=0
&des=xxhb
&lv_5=12+
&inote_5=(187)
{8}
6/2h[8:3],,,3h[8:3],,,4h[8:3],,,5h[8:3],,,6p4[4:1],,,,
7h[8:3],,,6h[8:3],,,5h[8:3],,,4h[8:3],,,3q5[4:1],,,,
2h[8:2],,3,3h[8:2],,4,4h[8:2],,5,5h[8:2],,6,6p4[4:1],,,,
7h[8:2],,6,6h[8:2],,5,5h[8:15],4h[4:7],
,,,,,,,,,,,,,,
{8}2b/7b,,
{16}
2h[4:1]/6,,4,,7h[4:1],,5,,1h[4:1],,,,8,,71,,2<8[8:1],,2,,6>4[8:1],,6,,
2-6[8:1],,2,,7h[4:1],,,,3h[4:1],,1,,6h[4:1],,8,,4h[4:1],,,,5,,4/6-2[8:1],,,,
6,,8-4[8:1],,,,1-5[8:1]/8-6[8:1],,,,1b/8b,,,,
7h[4:1]/3,,5,,2h[4:1],,4,,8h[4:1],,,,1,,28,,7>1[8:1],,7,,3<5[8:1],,3,,
7-3[8:1],,7,,2h[4:1],,,,1,,8,,7,,
{16}6,5,6,,47,,38,,2b/1b,,,,,,,,,,,,,,,,,,,,5,,5,,5,,
5,4,5,,6b/3b,,,,
{8}
2h[4:1],,8,7,6,5/4<7[8:1],,3q7[8:1],,2v7[8:1],,2,
1h[4:1],,7h[4:1],,
{16}
4h[4:1],,,5,4,,3,,2,,1/8>3[8:1],,,,7q3[8:1],,,,6v3[8:1],,,,6,,
5h[4:1],,,,1,,
{8}
3-8[8:1],3,,7-4[8:1],7,,2-5[8:1],2,,6-1[8:1],6,,3-8[8:1],3,,7-2[8:1]*-4[8:1],,
7,,1-4[8:1],1,,6-1[8:1],6,,3-6[8:1],3,,8-3[8:1],8,,5,,
{16}
8b,,,,5/4h[16:3],,,2,4,,2-5[8:1],,2,,6-1[8:1],,6,,3-8[8:1],,3,,7,,7h[4:1],,,,
6,5,4,3,2/1h[16:3],,,2,1h[16:3],,,2,1-5[8:1],,1,,2-6[8:1],,2,,7-3[8:1],,7,,8-4[8:1],,8,,7h[4:1],,,,
8,7,1,6,
2h[8:3],,3,,4h[8:1],,,,2b/4b,,,,1,,2>5[8:1]/8<5[8:1],,,,28
,,,,3,,24,,8,,1/7<4[8:1],,,,
7,,8,,1>4[8:1]*<6[8:1],,,,1b,,,,4,,3/5<8[8:1],,
,,35,,,,1,2,1w5[8:1],,,,1b,,,,
{2}
2>4[2:1],4<6[2:1],6<8[2:1],8>2[2:1],
2>5[2:1],5<8[2:1],8q3[2:1],,
1<4[2:1],4>7[2:1],7<2[2:1],2<5[2:1],
5>8[2:1],8<4[2:1],4w8[4:1],,
{8}
82,7,56,4,3h[4:1],,8,1-4[8:1]/7,,7,1-6[8:1],,1-5[8:1],,1b,,
17,2,43,5,6h[4:1],,1,2-5[8:1],,6,6-1[8:1],,4-8[8:1],,54,,
{16}
5h[16:3],,,6h[16:3],,,7h[8:1],,8-2[8:1],,,8/3-7[8:1],,,3,,
4h[16:3],,,3h[16:3],,,2h[8:1],,1-7[8:1],,,1/6-2[8:1],,,6,,
{4}
1s5[2:1],,,,,,,2b/7b,
{16}
5h[4:1]/4b,,,,2h[8:1],,7h[8:1],,
4,5,4,5,3,6,2,7,
{32}
1,8,7,6,5,4,3,2,
1,8,7,6,5,4,3,2,
{16}
1-5[8:1],,,,1/8>4[8:1],,6,,8/4h[4:1],,,,6,,7-4[8:1]/4,,,,7/2-6[8:1],,,,8<5[8:1]/2,,,,81,,,,,,4,,35,,6/2-5[8:1],,,,
2/6h[4:1],,,,
5,,7h[4:1]/2,,,,2,,3h[4:1]/4,,,,4,,1/8h[4:1],,,,1,,3>1[8:1]/7<5[8:1],,,,7-3[8:1],,,,
7b/6h[4:1],,,,5,,6,,4b/7,,,,3,,2/5b,,,,
6,,2,,8,1,8,,36,,1>4[8:1]/8<5[8:1],,,,
1b/8b,,,,
2h[8:1],,7h[8:1],,
3,6,4,5,3,6,4,5,
{32}
4,3,2,1,8,7,6,5,
4,3,2,1,8,7,6,5,
{16}
4/8-4[8:1],,,,8/1<5[8:1],,3,,1/5h[4:1],,,,3,,2-5[8:1]/5,,,,2/8>3[8:1],,,,5-2[8:1]*-8[8:1]/8,,,,5,,,,,,1,,28,,3/7-4[8:1],,,,
7/3h[4:1],,,,
4,,2h[4:1]/7,,,,7,,6h[4:1]/5,,,,5,,8/1h[4:1],,,,8,,2-5[8:1]/7-4[8:1],,,,27
,,,,
18,,1,,5,,2,,7,,4,,8,,3s7[1:1],,
{1}
,,
{8}
5h[8:3],,,4,36,,,13,,86,,45,27,,,
4,6,57,,3,42,,,
{16}
84,37,2h[8:1]/6h[8:1],,,,,,15,,3b/7b,,,,,,,,
{8}
4/7-4[8:1],,78,1-5[8:1],,12,2h[4:1],,3,2-6[8:1],1,2/8h[4:1],,4,37,,
5/2-5[8:1],,21,8-4[8:1],,78,7h[4:1],,6,7-3[8:1],8,7/1h[4:1],,5,62,,
{8}
1-5[8:1]/8,,3/1b,,8-4[8:1]/1,,6/8b,,1<5[8:1]/7,,3/1b,,8>4[8:1]/2,,6/8b,,
21,21,,5,6b/4b,,8,17,,24,,86,
{16}
2b,3,4,5,{32}7b,8,1,2,3,4,5,6,{16}
73,,6,,4,,5,,2h[4:1]/6,,,,1,,1,,
1,2,8,3,7,4,6,5,
6h[4:1],,,,4h[8:1],,5,3,
26,,3,,5,,4,,7h[4:1]/3,,,,8,,8,,
8,7,1,6,2,5,3,4,
3h[4:1],,,,5h[8:1],,4,6,
73,,6,,12,,83,,74,,6,5,6,,
2h[2:1]/5,,,,5,,,,5,,4v6[8:1]/7-3[8:1],,,,4b/7b,,,,
1b,,,,
1,,3,,2,,8,,6,,7,,,,
1,,5,,3,7,3,,8,,
{8}
4q5[2:6],4>5[8:23],
{1},,,,,,,,,,,
E
,,
