&title=ReviXy
&artist=ikaruga_nex
&first=0.01
&des=drem
&lv_5=14
&inote_5=(180)
{4},,,,
{32}1,2,3,4,5,6,7,8,
{16}1,3,5,7,
1b,,,1b,
,,1b,,
{16}2/7-3[8:1],,2/7,,
,,,,
4/1-3[8:1],,1/4,,
,,,,
{16}7-5[12:1],,4-8[8:1],,
3,,,,
,,,,
7,,4,,
{16}3/6-2[8:1],,3/6,,
,,,,
1/4-2[8:1],,4/1,,
,,,,
{16}6-8[12:1],,1-5[8:1],,
2,,,,
,,,,
6,,1,,
{16}7x-1[8:1]/2x-6[8:1],,7/2,,
,,,,
8-6[8:1]/5-1[8:1],,8/5,,
,,,,
{16}2-4[12:1],,5-1[8:1],,
6-8[8:1],,,,
,,,,
2,,5,,
{16}6-4[8:1]/3-7[8:1],,3/6,,
,,,,
5-7[8:1]/8-4[8:1],,5/8,,
,,,,
{16}3h[8:1]/8h[8:1],,,3h[8:1]/4h[8:1],
,,1/5,,
1h[4:1]/5h[4:1],,,,
{32}2x/6x,3x/7x,4x/8x,,,,,,
{16}3xv1[8:1]/7xv1[8:1],,5,,
,,,,
2v8[8:1]/6v8[6:1],,4,,
,,,,
{16}7v5[8:1],,5-1[8:1],,
4-2[8:1],,,,
,,,,
8,,4,,
{16}2v4[8:1]/6v4[8:1],,8,,
,,,,
3v5[8:1]/7v5[8:1],,1,,
,,,,
{16}2v4[8:1],,4-8[8:1],,
5-7[8:1],,,,
,,,,
1,,5,,
{16}7-4[8:1]/3x,,,,
7x/2-7[8:1],,,,
2x/5-2[8:1],,,,
5x/8,,,,
{16}6x/3-8[8:1],,,,
3x/5-7[8:1]*-8[8:1],,,,
5x-2[8:1]*-3[8:1],,,,
5x,,,,
{16}4,5,3,6,
2,7,1,8,
{32}2,3,4,5,6,7,8,1,2-7b[12:1]/6-3b[12:1],,,,,,,,
{16}2b/6b/Cf,,,,
,,,,
,,,,
5/6,5b/6b,,3/4,
{16}3b/4b,,2,,
5h[8:1],,4h[8:1],,
7,7h[16:3],,,
1,,7,8,
{16},6,5,,
7h[4:1]/4,,,,
2h[4:1],,1,,
8,,7,,
{16}4/6,,3,,
8h[8:1],,1h[8:1],,
6,6h[16:3],,,
4,,6,5,
{16},7,8,,
6-2[8:1]/1,,,,
4-1[8:1]*-7[8:1],,4,,
,,,,
{16}6/5,,7,,
4h[8:1],,5h[8:1],,
2,2h[16:3],,,
8,,2,1,
{16},3,4,,
2h[4:1]/5,,,,
7h[4:1],,8,,
1,,2,,
{16}3/5,,6,,
5h[8:1],,4h[8:1],,
3h[8:1],,7h[8:1],,
8h[8:1],,1h[8:1],,
{16}2,4b,,7,
5b,,3,3,
4bw8[8:1],,,,
,,,,
{16}2-4[12:1],,2,,
6,,7,,
7-4[8:1],5,,5,
7,,3,,
{16}2-6[8:1],5,,5,
2,,,,
7v5[8:1],,4-2-8[8:1],,
,,,,
{16}7-5[12:1],,7,,
1,,2,,
2-5[8:1],4,,4,
2,,6,,
{16}7-3[8:1],4,,4,
7,,,,
2-6[8:1]/5-1[8:1],,2/5,,
,,,,
{16}3-1[12:1],,3,,
7,,6,,
6-4[12:1],8,,8,
6,,2,,
{16}3-5[12:1],1,,1,
3,,8,,
7-3[8:1],,3-7[8:1],,
,,,,
{16}1-3[12:1],,5-7[12:1],,
1p5[12:1],,5p1[8:1],,
1,,,,
7,,8,,
{16}2,1,2,,
,5/7,,,
2/4,,3/5,,
Cf/7b,,,,
{16}8h[4:1]/2x,,,,
1,,1,,
8h[4:1]/7x,6,5,,
7,,7,,
{16}8h[4:1]/D3,E4,D5,,
1,,1,,
8h[4:1]/7x,6,5,,
7,,7,,
{16}8h[4:1]/D3,E4,D5,,
1,,1,,
8h[4:1]/7x,6,5,,
7,,7,,
{16}8h[4:1]/D3,E4,D5,,
1,,1,,
8,,7,,
5x/6,4,3,2,
{16}1h[4:1]/7x,,,,
8,,8,,
1h[4:1]/D3,E4,D5,,
2,,2,,
{16}1h[4:1]/7x,6x,5x,,
8,,8,,
1h[4:1]/D3,E4,D5,,
2,,2,,
{16}1/7,,6,,
2/8,,3,,
6/8,,5,,
1/3,,4,,
{16}2/6,,3bx,5bx,
4bx,,2bx,6bx,
4bxv7[8:1]*v1[8:1],,,,
4,,,,
{16}8h[8:1]/2x,,,,
1/8h[8:1],,1,,
8h[8:1]/7x,6,5,,
7/8h[8:1],,7,,
{16}8h[8:1]/D3,E4,D5,,
1/8h[8:1],,1,,
8-4[8:1]/7x,6,5,,
1/8,,,,
{16}1h[8:1]/2x,3,4,,
2/1h[8:1],,2,,
1h[8:1]/D7,E6,D5,,
8/1h[8:1],,8,,
{16}1h[8:1]/2x,3,4,,
2,,2,,
1,,8,,
6x/7,5,4,3,
{16}2h[8:1]/8x,,,,
1/2h[8:1],,1,,
2h[8:1]/8x,7,6,,
1/2h[8:1],,1,,
{16}2h[8:1]/D8,E7,D6,,
1/2h[8:1],,1,,
2-6[8:1]/8x,7,6,,
2/4,,,,
{16}8/2,,3,,
7/1,,6,,
3/1,,4,,
8/6,,5,,
{16}3x,4,3,6x,
5,6,3x,4,
2x,4,3,7x,
5,6,4x,5,
(177)
{32}2b-6[4:12]/7bpp3[4:12],E1f,,,{8},,,
(160)
{8},,,,
(150)
{8},,,,
(140)
{8},,,,
(130)
{8},,,,
(115)
{8},,,,
{8}1x/2,4,3x/4,8,
7x/8,5,6x/5,1,
(115)
{16}5/1bhx[8:1],,,6,
2hx[8:1],,7,,
3hx[8:1]/7,,8,8,
4hx[8:1],,2,,
{16}4/5hx[8:1],,,2,
6hx[8:1],,3,,
7hx[8:1]/3,,4,4,
8bhx[8:1],,6,,
{16}8/1bhx[8:1],,,6,2hx[8:1],,7,,
3hx[8:1]/7,,8,8,
4hx[8:1],,2,,
{16}5x,5,4,6,
3x,7,2,8,
{32}1x,2,3,4,
8,7,6,5,
2bx-6[12:1],3,4,5,
7,6,5,4,
{16}2b,,7-1[16:1],7-5[16:1],
7s3[8:1],,,,
,,4,4,
5bv8[12:1]/3,,5/7,,
{16}5b<8[12:1]/3,,1-4[16:1],2-5[16:1],
3-7[12:1],,,,
,,6,6,
5b,3,3,4,
{16}2b-4<5-1[16:3]/5,,,6,
6-8>2-4[16:3],,,,
2-6[12:1],,,,
5b,,7,,
{16}8b-5q4[16:4]/2,1,7,8/1,
2,,,,
B8/B7/E7/E1/E8/D7/A7/D8f/A8/D1,,,,
B1/B2/E3/E1/E2/D3/A2/D2f/A1/D1,,,,
{16}B5/B4/E4/E6/E5/D4/A4/D5f/A5/D6,,2-8[16:1],2-4[16:1],
2z6[8:1],,,,
,,5,5,
4bv1[12:1]/6,,4/2,,
{16}4b>1[12:1]/6,,8-5[16:1],7-4[16:1],
6-2[12:1],,,,
,,3,3,
4b,6,6,5,
{16}7b-1>2-6[16:3]/4,,,3,
3-5<7-1[16:3],,,,
7-3[12:1],,,,
2b,,4,,
{32}4,5,4,,7,,7,,
3,4,3,,7,,7,,
{32}2,1,2,1,2,,,,
6,5,6,5,6b,,,,
(120)
{4}1h[4:1]/8x,2h[4:1],
(130)
{4}3h[4:1],4h[4:1],
(140)
{4}6h[4:1],8h[4:1],
(150)
{8}2h[4:1],,4,4,
(160)
{8}4/2,6,
(177)
{8}7/5,3,
(180)
{8}4/1,7,5/8,2,
(185)
{32}1/5,2,3,4,5,6,7,8,
{16}1<1[4:1],,,,
1b,,,,
8b-4[8:1],,,,
(185)
{16}A8f/3hx[8:28],,,,
,,,,
,,,,
,,,,
{32}B4,B5,E6,,,,,,
{16},,,,
,,,,
,,,,
{32}B1,B8,E8,,,,,,
{16},,,,
,,,,
,,,,
{32}B4,B5,E6,,,,
,,
{16},,,,
,,,,
3-6[8:1],7,3,7,
{16}3b>5[8:3],,,,
8,,,,
4,,,,
7-2[8:1],,,,
{16}7b<1[8:3]/3,,,,
4,,,,
8,,,,
3,,3,,
{16}4,5,4,5,
3,6,3,6,
2,7,2,7,
1,8,1,8,
{16}7b/2b,,{32}3,,4,,
,,6,,5,,,,
2-6b[8:1]/8-4b[8:1],3,4,5,6,7,8,1,
{16},,,,
{16}3/7,,2,1,
2-5[8:1],,3/8,,
2/6-1[8:1],,7,,
2/6,,3,,
{16}6/2,,7,8,
7-4[8:1],,6/1,,
7/3-8[8:1],,2,,
7/3,,6,,
{16}3/7,,2,1,
2-5[8:1],,3/8,,
2/6-1[8:1],,7,,
2/6,,3,,
{16}6/2,,7,8,
7,,6/1,,
{32}E4,E5,E6,E7,E8,E1,E2,E3,
E4/E5/7bx,,,,,,,,
{16}2/6,,3,4,
3v8[8:1],,2/5,,
3/7-4[8:1],,6,,
3/7,,2,,
{16}7/3,,6,5,
6v1[8:1],,7/4,,
6/2-5[8:1],,3,,
6/2,,7,,
{16}2/6,,3,4,
3v8[8:1],,2/5,,
3/7-4[8:1],,6,,
3/7,,2,,
{16}3-1[12:1]/7,,8,8,
3b,,6,6,
8w4b[8:1],,1/7,,
8,,,,
{16}2,4,3,4,
2>5[8:1],,1,,
2-8b[12:1]/6,,7b,,
2/6,,7b,,
{16}2,4,3,4,
2v5[8:1],,1,,
2-8b[12:1]/6,,7b,,
2/6,,7b,,
{16}2,4,3,4,
2>5[8:1],,1,,
2-8b[12:1]/6,,7b,,
2/6,,7b,,
{16}7x,5,6,5,
7,,8/4,,
{24}7x,6,5,1x,2,3,
8x,7,6,2x,3,4,
{16}5>2[8:1]/1b,,,,
5b/8<5[8:1],,,,
8b/3>8[8:1],,,,
3b/6>3[8:1],,,,
{16}6b/1<6[8:1],,,,
1b/4>1[8:1]*-1[8:1],,,,
4b<7[8:1]*-7[8:1],,,,
4b,,,,
{16}4,6,4,6,
3,7,3,7,
2,8,2,8,
1,1,1,1,
{32}2bxv4<5p1[8:4]/8bxv6>5q1[8:4],3/7,4/6,,,,,,
{16},,,,
,,,,
,,,,
{16}8-4[8:1]/3-1[8:1],,1/4,,
,,,,
5/2,,3,4,
,1,8,,
{16}2v8[8:1]/6v8[8:1],,3/5,,
,,,,
7,5,7,5,
6,,3,,
{16}2-4[8:1]/5-1[8:1],,1/4,,
,,,,
3/8,,2,1,
,4,5,,
{16}6v4[8:1]/2v4[8:1],,7/1,,
,,,,
3,5,3,5,
2,,7,,
{16}1x-5[8:1]/6x-8[8:1],,8/5>4-2[8:1],,
,,,,
,,4,3,
,6,5,,
{16}7v5[8:1]/3v1[8:1],,8/4,,
,,,,
2,4,2,4,
3,,6,,
{16}7-5[8:1]/4-8[8:1],,8>1-3[8:1]/5,,
,,,,
,,1,2,
,7,8,,
{16}2/6,,5,,
3/7,,4,,
{24}4x/8x,3x/7x,2x/6x,1hx[32:3]/5hx[32:3],,,
B3/B7/C,,,,,,
{16}8bhx[4:3],,2x,,
1x,,,6x,
,,3x,,
1bx,,,,
{16}2v4[8:1]/6v8[8:1],,4>3-1b[8:1]/8,,
,,,,
,,8,,
1/7,,6/4,,
{16}2-4[8:1]/5-1[8:1],,1<8-6b[8:1]/4,,
,,,,
,,4,5,
4,5,3,,
{16}6v8[8:1]/2v4[8:1],,8<7-5b[8:1]/4,,
,,,,
,,4x/3,,
2/6,,,,
{16}3-1[8:1]/8-4[8:1],,4<5-7b[8:1]/1,,
,,,,
,,1,8,
1,8,2,,
{16}3v1[8:1]/7v5[8:1],,1>2-4b[8:1]/5,,
,,,,
,,5,,
4/6,,7/1,,
{16}3-1[8:1]/8-4[8:1],,4-7-5b[32:7]/1-4-8b[32:7],,
,,,,
,,,,
1,6,1,6,
{16}2,7,2,7,
3,8,3,8,
4,1,4,1,
{32}5v2b[8:1]*v8b[8:1],6,7,8,1,2,3,4,
{16}5b/Cf,,,,
,,,,
,,,,
,,,,
