&title=カゲロウ
&artist=晓Records
&first=0.15
&lv_5=13
&des=ImagineWind
&inote_5=
(119){4},1>1[1:1],,,,1>1[1:1],
,,,1>1[1:1],
,,,1>5[2:1],
,5<1[2:1],
,1>1[1:1],,,,1>1[1:1],
,,,1pp5[4:3],
,{8},6,
7,8,{4}7h[4:3],,2h[4:1],
,{8}1b-4[8:1],1,7-3[8:1],7,2-5[8:1],2,
8-4[8:1],8,2>5[8:1],1-7[8:1],2-6[8:1],1,{4}2,
7h[8:1],{8}2-5[8:1],1,8-5[8:1],7,1>4[8:1],2,
7-5[8:1],8-4[8:1],7-3[8:1],8-2[8:1],7<8[2:1],8,{4}7,
1h[8:1],{8}3-6[8:1],3,8-4[8:1],8,2-5[8:1],2,
7-3[8:1],7,2-4[8:1],1<5[4:1],2,1,,2,
1>8[1:1],1,{4}1h[4:1],,2h[4:1],
{8},4,{4}4q5[2:1],,{8},6,
7qq3[8:3],8,{4}7h[4:1],,{16}5h[16:3],{8},{16}4h[16:3],
{8},3qq7[4:1],{4}3h[4:1],,{8}6-2[8:1],6,
8<1[8:3]*>7[8:3],1,{4}8,,{16}3h[16:3],{8},{16}8h[16:3],
{8},1,{4}2/7-4[8:1],{8}7,1h[8:3],{4},{8}7,
6,{4}5>5[4:13]*<5[4:13],{1},,,{4},,,1>4[4:1],
,7>2[4:1],
,5<4[2:1],,,,8<5[4:1],
,2<7[4:1],
,4>5[2:1],,,,{8}2-6[8:1],
2,8-4[8:1],8,1-5[8:1],1,
7-3[8:1],7,2,1w5[8:1],8,1,,3-1[8:1],
4,8qq5[8:3],{4}7,,3>6[4:1],
,5h[8:1],4h[8:1],3h[8:1],
{8}2-5[8:1],2,2/8-4[8:1],8,8/1-5[8:1],1,1/7-4[8:1],7,
7/2-5[8:1],2,2/8-6[8:1],8,1-3[8:1]/8-4[8:1],1,{4}8-6[8:1]/1-5[8:1],
8/1>1[4:3]*>1[4:3],1b,{2},{8}6,
7,8p4[8:1],8,2q6[8:1],2,7<4[8:1],7,
1q5[8:1],1,7<4[8:1],8>2[8:1],7-3[8:1],8,{4}7,
2h[8:1],{8}7<4[8:1],8,1>4[8:1],2,8<5[8:1],7,
2-4[8:1],1-5[8:1],2-6[8:1],1-7[8:1],2>1[2:1],1,{4}2,
8h[8:1],{8}6>3[8:1],6,1q5[8:1],1,7<4[8:1],7,
2-6[8:1],2,7-5[8:1],8>4[4:1],7,8,,6,
7<1[4:3],8,{4}7h[8:3],,8h[4:1],
{8},7,6>4[8:1],6,1q5[8:1],1,8-4[8:1],8,
8/2,1,6/2-5[8:1],3,2/7-1[8:1],8,7/3-6[8:1],2,
3/7-4[8:1],8,7/2>5[8:1],1<7[8:1],2-6[8:1],1,{4}2,
{8}7,8,1/7-5[8:1],6,7/2-6[8:1],3,2/7>2[8:1],8,
7/3-7[8:1],4-6[8:1],3-1[8:1],4-8[8:1],3<2[4:1],4,{4}3,
{8}5,6,2/7-5[8:1],8,3-6[8:1],2,3/8-4[8:1],7,
8/2-6[8:1],1-7[8:1],2-4[8:1],1<5[4:1],2,1,,4,
2>2[4:3],3,{4}2h[4:1],,2V46[8:3],
{8},1,{4}2h[4:1],,{8}3/6,{16}5,4,
{8}5<1[4:1],3,{4}5b,,{8}6/3,{16}4,5,
{8}4p8[8:1],6,{4}4<8[2:1],{8}1,2,{16}3,{8},{16}4-1[8:1],
{2}4h[8:1],{8}2/5,1,4/5,1,
6/4qq1[8:3],8,{4}4,,{8}2/7,{16}8,1,
{8}8<4[4:1],2,{4}8,,{8}7/2,{16}1,8,
{8}1q5[8:1],7,{4}1<5[2:1],{8}4,3,{16}2,{8},{16}1-4[8:1],
{2}1h[8:1],{8}6-1[8:1],5,4>1[8:1],4<7[8:1],
4-8[8:1],4,{4}4b,,{8}7/1,{16}1,8,
{8}1-5[8:1],7,{4}1/6,,{8}2/8,{16}8,1,
{8}8-4[8:1],2,{4}8/3>7[4:1],{8}6,5,{16}4,{8},{16}8w4[8:1],
{2}8h[8:1],{8}7-4[8:1],8,1>4[8:1],1<6[8:1],
1-5[8:1],1,{4}1,,{8}6/4,{16}4,5,
{8}4-8[8:1],6,{4}4/7,,{8}3/5,{16}5,4,
{8}5-1[8:1],3,{4}5/2>6[4:1],{8}7,8,{16}1,{8},{16}5w1[8:1],
{2}5h[8:1],{8}3,2,{4}1>5[8:3],
{8}5,5<1[8:3],,1,{2}1bs5[8:3]*z5[8:3],
{4},7h[4:1],{8}2,1>4[8:1],,6,
{4}7-4[8:1],{8}3,2q6[8:1],,8-5[8:1],,8>5[32:9],
,8,{4},{8},3h[4:1],,7,
{4}8<5[8:1],{8}3,2>4[8:1],,5,{4}6-8[8:1],
{8}2,1,{4},{8}7,8<5[8:1],,3,
{4}2-5[8:1],{8}6,7p3[8:1],,1-4[8:1],,1<4[32:9],
,1,{4},{8},6h[4:1],,2,
{4}1>4[8:1],{8}6,7<5[8:1],,4,{4}3-1[8:1],
{8}6,7,{4}8b,
