&title=Yoropiku Pikuyoro
&artist=Bakusute Sotokanda Icchome
&first=0.14
&des=Toiletwa
&lv_5=14
&inote_5=(198)
{8}6b,5,4,3,6,5,4,3,6,5,4,3,6,5,4,3,
E7/B7,4,5,6,3,4,5,6,3,4,5,6,3,4,5,6,
7b/B3,,8/1,,2b/B6,,1/8,,7b/B3,,8/1,,5/4,7h[4:1]/2h[4:1],,,8b/1b,,,6b/5b,4b/7b,8b/3b,,
A7/D8/A8/E8/A3/D4/A4/E4,,A2/D2/A1/E2/A6/D6/A5/E6,,E8/B7/B8/B4/E4/B3,,C,,
3,4b-2[8:1],3,5-1[8:1],6,4-2[8:1],3,5-1[8:1],6,4-2[8:1],3,5,6,7x/1x,6/2,7/1,6/2,
5b-7[8:1],6,4-8[8:1],3,5-7[8:1],6,4-8[8:1],3,5-7[8:1],6,4,3,2x/8x,3/7,2-6[8:1],,
2b/7,8,1,2-5[8:1],3,1-6[8:1],8,2-5[8:1],3,1,8,7x/4x,6/5,7/4,6-1[8:1]/5-8[8:1],,
6b/5b,,3-8[8:1]/4-1[8:1],,3b/4b,,C,,7/3,2pp1[8:3]/6pp5[8:3],7/3,2b/6b,,,,,
1x,2,3,4h[4:2],,1,8,7,6^3[4:1],,3q7[4:1],,1b,,8,1,2,3,4/7,6h[4:2]/5,,7,8,1,7/2,5/4,7-4[8:1]/2-5[8:1],,7/2,,8b/1b,,
8x,7,6,5h[4:2],,8,1,2,3^6[4:1],,6p2[4:1],,8b,,1,8,7,6,5/2,3h[4:2]/4,,2,1,8,2/7,4/5,2-5[8:1]/7-4[8:1],,2/7,,1b/8b,,
6b/5b,,8b/7b,,3b/4b,2b/5b,6bh[8:5]/1b,,,7b,1b,3b,5b-1[8:1]b,,,,
3b/4b,,1b/2b,,6b/5b,7b/4b,3bh[8:5]/8b,,,2b,8b,6b,4b-8[8:1]b,,,,
1-4[8:1]/2,,8/1,,8-5[8:1]/7,,1/8,,4,3,2,1,8,7,6,5,
1b>5[4:1],,5<1[4:1],,1>5[4:1],,5<1[4:1],,1>1[4:2],,C,,1>5[4:1],,C,,
8,7,6/5,7,8/1,2,3/4,2,8/1,7,6/4,2,3/5,7,6/4,2,
{16}8b,1,8,1,8,1,8,1,8,1,8,1,8,1,8x,,,,
E5,,,,C,,,,E1,,,,3,,
2b/5b,,3,4,3,,2pp4[8:1],,,,6,,7,,8,,1x,8,7,6,1x,2,3,4,8x,7,6,5,4x/3x,,2/5,,6b/1b,,
7,8,7,,6pp8[8:1],,,,4,,3,,2,,1,8,1,,7,2,7,,6-1[8:1]/3-8[8:1],,,,6b/3b,,,,
7b/4b,,6,5,6,,7qq5[8:1],,,,3,,2,,1,,8x,1,2,3,8x,7,6,5,1x,2,3,4,5x/6x,,7/4,,3b/8b,,
2,1,2,,3qq1[8:1],,,,5,,6,,7,,8,1,8,,2,7,2,,8-4[8:1]/1-5[8:1],,,,8b/1b,,,,
4x/6x,,7,,3/5,,2,,8,1,8,,2h[8:3]/7,,,,
,,5-1[8:1],,1<4[4:1]b,,5,,Cf,,,,3,,2,,1/7,,6,,2/8,,3,,5,4,5,,3h[4:3],,,,,,2,,8,,6,,4v1[8:1]*v7[8:1],,,,4b,,,,
5x/3x,,2,,6/4,,7,,1,8,1,,7h[8:3]/2,,,,
,,4-8[8:1],,8>5[4:1]b,,4,,Cf,,,,6,,7,,
{8}8b<4[4:1],,4>8[4:1],,8<4[4:1],,4>8[4:1],,8b<8[4:2],,C,,8b<4[4:1],,C,,
{16}3b,,2b,,1b,,8b,,7b,,6-1[8:1]/4-1[8:1],,,,6b/4b,,,,8/2,,,,1/5,,7b-4[8:1]/3b-8[8:1],,,,,,,,
Ch[4:7]/E1f,,,,,,,,,,,,,,,,1x,,,,2x,,,,3x,,,,4x,,,,
6b/5b,,,,6/5,,7^4[8:1]/4,,,,8,,8,,,,3b/4b,,,,3/4,,2/5,,,,,,,,,,
E8/B8,,,,E4,,B3,,,,E1,,E8,,E7,,E6,,E5,,E4,,E3,,,,,,,,,,E2/B1,,,,E6,,B6,,,,
4,,3,,2,,
8b/1b,,6b/3b,,8b-5[8:1]/1b-4[8:1],,,,8b/1b,,,,7b/2b,,,,
{16}
3,4,3,4,3,4,3,4,3,5,3,5,3,5,3,5,2,6,2,6,2,6,2,6,1,7,1,7,1,7,1,7,
2,8,3,8,2,8,3,8,2,8,3,8,2,8,3,8,
4,8,4,8,4,8,4,8,3,7,3,7,3,7,3,7,
2,6,1,6,2,6,1,6,2,6,1,6,2,6,1,6,3,5,3,5,1b,7,1,7,3,5,3,5,3,5,3,5,2b,4,2,4,2,4,2,4,3,4,3,4,3,4,3,4,
2,1,3,8,4,7,5,6,5,6,5,6,5,6,5,6,
4b,5,4,5,4,5,4,5,4,5,4,5,4,5,4,5,4b,5,3,6,4,5,3,6,4,5,3,6,4,5,3,6,
4b,5,1,5,4b,5,2,5,4b,5,1,5,4b,5,2,5,
3b,8,3b,8,2b,7,2b,7,1b,6,1b,6,2b,7b,2b,7b,
3-8[8:1],,4,,5-7[8:1],,4,,2-5[8:1],,1,,8,,7,,
8,7,6,5,4/1,2,3,4,5/8,7,6,5,3/4,,2,,
1b-5[8:1],,8,,7-4[8:1],,6,,2-6[8:1],,1,,8,,7,,8,7,6,5,4/8,3,2,1,4-8[8:1]/8,7,6,5,4b/8,,,,
7/1,,2/6,,5-7[8:1]/3-1[8:1],,4,,5/3,,,,8b,,,,7/3,,2-7[8:1]/6-3[8:1],,7/3,,2b/6b,,,,8x/4x,,1/5,,2/6,,
1,,7/3,,4-2[8:1]/6-8[8:1],,5,,4/6,,,,1b,,,,2/6,,8-5[8:1]/4-1[8:1],,2/6,,8b/4b,,,,
7x/3x,,7/3,,7/3,,
4b,6,4,6,4,6,4,6,3b,7,3,7,3,7,3,7,2b,8,3,5,1b,7,4,6,2b,8,4,5,{32}3b,4,5,6,7,8,1,2,
3h[4:3]/7h[4:3],,,,,,,,,,,,,,,,,,,,,,,,{16},,,,2b/6b,,1b/5b,,8b/4b,,7bh[8:3]/3,,,,,,{48}3bx,8bx/4bx,1x/5x,2bx/6bx,7x/3x,8bx/4bx,1x/5x,2bx/6bx,,,,,
2x<2[16:32]*<3[16:28]*<4[16:24]*<5[16:20]*<6[16:16]/6x>6[16:32]*>7[16:28]*>8[16:24]*>1[16:20]*>2[16:16],
