&title=Sunset Tea Cup
&artist=YUC'e
&first=1.536
&des=
&des_5=NekkiOwO
&lv_5=14
&inote_5=(80){4}7h[4:1]/1pp4[2:1],1,5<1[4:1],{8}5,1,
{4}2p5[4:1],2/3,{8}4-8[8:1],3/5,4/2>5[8:1],1v6[8:1],
2,1,{4}3h[4:1],{8}5p8[8:1],7,5/1>4[16:1],{16}2,8,
{8}1<6[16:1],{16}7,3,{8}1pp4[8:3],{16}4,6,{4}1,{8}8-5[8:1]*-3[8:1],8,
{4}B8f,{8}5-1[8:1],5h[4:1],{4}B5,{8}5<1[8:1],4,
{4}2qq6[4:1]*-4[8:1],E3,{8}3>8[8:1],2/4,3V57-4[4:1],4,
{4}3/8v3[8:1],{8}8<5[16:1],{16}6,2,{8}8>3[16:1],{16}3,5,{8}8<5[16:1],{16}6,1h[8:1],
{8}8-4[16:1],{48}8,7,6,5,4,3,{8}8/2qq6[8:3]*pp6[8:3],{16}3,7,{2}2,
{8}7/B2,7/B3,{16}1/B5,1,{8}1/B7,6/E4,6/B2,{16}3/B8,3,{8}3/E6,
4/5qq2[4:1],6,B7/E8/B8,7-3[12:1],6,B7/1w5[16:1],{16}2,8,{8}1,
7/B2,7/B4,{16}3/E8,3,{8}3/E6,8/B2,8/E5,{16}4/E1,4,{8}4/B6,
8/1h[8:1],{16}3,2,4-8[16:1],1,5-1[16:1],2,{8}4,5-2[16:1]*-8[16:1],{16}5,5,{8}5/B5f,
{16}1,8,1,8,7/3,7/3,7/3,7/3,6,5,6,5,2/5,2/5,2/5,2/5,
{48}3<6[16:1],4,3,4,,,{8}2,1/3,{48}1-5[16:1],8,1,8,,,{8}7/2,1/7-3[16:1],{48}6,5,6,5,,,{8}7/3,
{16}2/8,2,2/7,2,2/6,2,2/5,2,2/4,4,4/1,4,4/8,4,4/7,4,
{48}7/4xh,8,1,2,3,4,5/8xh,6,7,8,1,2,{64}3/7xv4[16:1],4,5,6,7,8,1,2,7xh/3v8[16:1],4,5,6,7,8,1,2,{8}3/7h,5-8[16:1]*-2[16:1],{16}5,5,{8}5b,
{16}2xh[16:1],{32}8,8,{16}2xh[16:1],{32}1>4[16:1],1,{16}2,{32}7,8,{16}7,1,6xh[16:1],{32}4,4,{16}6xh[16:1],{32}5<8[16:1],5,{16}6,{32}3,4,{16}3,5,
2xh[16:1],{32}3,3,{16}2xh[16:1],{32}4,4,{16}5/2,{32}3,4,{16}3,5,3-6[16:1]/7-2[16:1],{32}8,1,{16}8,2,{8}7x/3x,{32}1x,1x,1x,1x,
{16}7x/2q3[8:1],{32}1,8,{16}1x,5,{8}2/5h[32:3],{16}5h[16:1],2,7xp6[8:1],{32}8,1,{16}8x,4,{8}7/4h[32:3],{16}4h[16:1],7,
{8}2xh[16:1]/5xh[16:1],{48}2/5,1,8,7,6,5,{8}7xh[16:1]/4xh[16:1],{48}7/4,8,1,2,3,4,{32}7/5x,6,5,4,7x>3b[12:1]/3x<7[12:1],6,5,4,{8}3/7,3h/7h,
{16}8xh[16:1],{32}4,4,{16}8xh[16:1],{32}6,6,{16}8,{32}5,6,{16}5,7h[16:1],2xh[16:1],{32}7,7,{16}2xh[16:1],{32}1,1,{16}2,{32}2,3,{16}2,1/4,
{8}4xh[16:1]/8xh[16:1],{32}4/8,5/1,6/2-6[16:1],7/3,4x/8,,,6,{16}6,2,4x-1[16:1]*-7[16:1],{32}2,6,{16}3,5,{8}4b,{32}8,8,8,8,
{16}2x/7xh[16:1],{32}1,8,{16}2x/7xh[16:1],3,7/5,{32}6,6,{16}6,3,6x/3xh[16:1],{32}5,4,{8}6x/3xh[16:1],{16}2/4,{32}3,3,{16}3,8/4,
{8}4xh[16:1]/8xh[16:1],{32}8/4,7/3,6/2,5/1,{8}4xh[16:1]/8xh[16:1],{32}8/4,5/1,6/2,7/3,{8}8xh[16:3]/4xh[16:1],{16}5,5,{64}1x,2,3,4,5,6,7,8,1,2,3,4,5,6,7,8,
{4}1b/C,{8}8/1v6[8:1],7,1/3,2h[8:1],8v3[8:1],7/1,
{4}8/6h[4:1],4h[4:1],{8}3v8V24[16:3],6/4,{4}3/6h[8:1],
8h[4:1]/5V31[8:1],{8}5,6,4/3h[8:3],{16}1,1p4[8:1],,,7,1/8q5[8:1],
,,1,8/2h[16:3],,,7,7,{2}7/2-4<5-7[4:1],
{8}8h[8:1],1h[8:1],{32}2h[16:3],,,4,,,{16}4,{8}5/3>8[32:3],8,{32}6/3,,,7,,,{16}7,
{8}8h[8:1]/6>3[32:3],6,{32}1,,,2,,,{16}2,{8}3/1<6[32:3],3,{32}4/1,,,5,,,{16}5,
{8}4/6-1[8:1],3,{32}6/2,,,2,,,{16}6/4,{8}2/4-8[8:1],1,{32}4/3,,,2,,,{16}1,
{48}7/Cf,6,5,4,,,{16}2,5,{48}2/Cf,3,4,5,,,{16}7,7h[4:1],{32}E8,,,B3,,,{16}B6,B1/B2/E2,B5/E5/B4,{8}B7/E7/B6/B3/E3/B2/Cf,
1>5[8:1],5<1[8:1],4,8,5<1[8:1],1>5[8:1],8v3[8:1],5,
8V64[8:1],6,8,3-7[16:1],2h[8:1],3p2[16:3],{16}5,4,{8}7/3,
8<4[8:1],4>8[8:1],5,1,4>8[8:1],8<4[8:1],1,5,
8h[8:1],{16}4,5/3,2-5[16:1]/8v5[8:1],6,4/5V71[8:1],3,{8}2/8,1w5[16:1],{16}2,8,{8}B1f,
{16}7h[16:1],2,7h[16:1],1,8/7,8/7,8/7,8/7,3h[16:1],6,3h[16:1],5,4/3,4/3,4/3,4/3,
{48}2,3,2,3,,,{8}8/4,{48}6,5,6,5,,,{16}3,2/5,{48}3,4,3,4,,,{16}2,4/7,{48}7,6,7,6,,,{8}1b,
{16}7/1,7,7/2,7,7/3,7,7/4,7,7/5,5,5/8,5,5/1,5,5/2,5,
{48}2/5xh,1,8,7,6,5,4/1xh,3,2,1,8,7,{64}6/2xv5[16:1],5,4,3,2,1,8,7,2xh/6v1[16:1],5,4,3,2,1,8,7,{8}6/2h,4-1[16:1]*-7[16:1],{16}4,4,{8}4b,
{32}3x,4,{16}1,{32}6,5,{16}8-3[32:1],4,{64}8,7,6,5,,,,,{16}5,{32}6x,5,{16}8,{32}3x,4,{16}1-6[32:1],5,{64}1,2,3,4,,,,,{16}4,
2x,{32}6,5,{16}7x,{32}3v8[32:1],4,{16}2,{64}8,7,6,5,{16}4,6-3[32:1],7x,{64}8,1,2,3,{16}4,2,{8}2h[8:1],{32}4,4,4,4,
{16}4x,{32}2,1,{16}3x,{32}7,8,{16}6,{64}1,2,3,4,{16}5,6/3,{32}7x,6,{16}8,{32}2x,3,{16}1,4/5,{64}5,6,7,8,{16}1,4/8,
{8}6b/2x-6[16:1],{48}5,4,3,2,1,8,{8}2b/7-3[16:1],{48}7,8,1,2,3,4,{16}5s1[8:1]/7b<3b[8:1],4,{8}1b-5[16:1],{16},,,,6xh[32:3],
{32}2,2,{16}6xh[32:3],{32}8-4[16:1],8,{16}6,{64}8,7,6,5,{16}4,8,3xh[32:3],{32}7,7,{16}3xh[32:3],{32}1-5[16:1],1,{16}3,{64}1,2,3,4,{16}5,1,
{8}8-4[16:1],{32}4/8,7/3,2/6,5/1,8b/4-8[16:1],,,6,{16}3,7,{32}4b/8-5[16:1]*-3[16:1],,,6,{16}2,7,{32}8,,,4x,,,2x,1x,
{16}3x,{32}6,5,{16}7x,1,8/7,{48}7/8,1/6,2/5,{16}3/4,1b,{32}5x,4,{16}6,{32}1x,8,{16}2,2/1,{48}2/1,8/3,7/4,{16}6/5,4b,
{8}5xh[16:1]/1xh[16:1],{32}1/5,2/6,3/7,4/8,{8}5xh[16:1]/1xh[16:1],{32}1/5,4/8,3/7,2/6,{8}1h[16:3]/5xh[16:1],{16}5,5,{64}8-4[16:1],7,6,5,4,3,2,1,8,7,6,5,4,3,{32}2,
{8}E2f/8b-6[16:1],E4f/B4,{16}E1f/8-4[16:1],E2,E3f,E4,{8}A2f/B2/8b-5[16:1],A4f/B4,{16}8/D4f,A3,D3f,A2,
{4}B1f/A1/E1/E2/Ch[8:1],{16}5/6,2,5/6,2,8/1-5[16:1],2/7,{8}3/6-8[16:1],{128}5/1-3[16:1],B1f,,,,,,,,,,,,,,,6/2,E7f,,,,,,,,,,,,,,,{8}B6f/B7/1b-5[16:1],
B8f/E8,{16}A8f/1-4[16:1],D8,A7f,D7,{8}E6f/B6/A6/D6/1b-5[16:1],B7/B8f,{16}1/E6f,E7,E8f,E1,
{48}2x,3,4,5,6,7,{8}8,{48}1xw5[16:1],8,7,6,5,4,{16}E3/A3,E8/A7,{8}B1f,{16}3,{32}6,4,{16}5-7[16:1],{32}7,1,{16}8-4[16:1],2,
{8}5b-1[16:1],2>4[16:1]/8<6[16:1],{16}2/5pp7b[16:1]*qq3b[16:1],2,{8}8-4[16:1],5b-1[16:1],2>4[16:1]/8<6[16:1],{16}5/2,2,{8}2/8,
5x/1-6[16:1],{64}5/1b-4[16:1],2/6,3/7,4/8,{16}5/1,1x-5[16:1]*-5[16:1],3,1x,7,{8}1x/2-6[16:1],4/8-5[16:1]*-3[16:1],2x/7x<4[16:1],{64}8b-4[16:1],B8f,,,,,,,{8}7/1>4[16:1],
8w4[16:1],{16}1/6,7,{8}8b,{16}2/6,{32}1/7,1/7,{8}1/7,{16}3/7<8[32:5],{32}6/4,6/4,{16}6/4,5/1,
{4}7bv4[16:1]/3bv8[16:1],{64}3b/7b,Cf,,,,,,,{16}E2/E3,E7/E6,{8}Ch[2:1],B7/B6,{16}E1,E8,{8}E7,
E
