&title=Archidoxen
&artist=Se_IRA
&first=-0.692
&des=57qx55uQ
&lv_5=14
&des_5=57qx55uQ
&inote_5=
(160){4},{8},,,,,,6h[8:1],
{16}5,6h[8:1],,5,,,{8}6h[8:1],{16}5,6h[8:1],,5,,,{8}6h[8:1],
{16}5,6h[8:1],,5,,,3h[16:1],4,,5,,6,5,6,
{8}3h[8:1],{16}4,3h[8:1],,4,,,{8}3h[8:1],{16}4,3h[8:1],,4,,,{8}3h[8:1],
{16}4,3h[8:1],,4,,,6h[16:1],5,,4,,3,4,3,
{8}6h[8:1],{16}5,7h[8:1],,5,,,{8}6h[8:1],{16}5,7h[8:1],,5,,,{8}6h[8:1],
{16}5,7h[8:1],,5,,,3h[16:1],4,,5,,6,5,7,
{8}3h[8:1],{16}4,2h[8:1],,4,,,{8}3h[8:1],{16}4,2h[8:1],,4,,,{8}3h[8:1],
{16}4,2h[8:1],,4,,,6h[16:1],5,,4,,3,4,2,
{4}5-7[8:1],5/4,4-1[8:1],4/5,
5-1[8:1],5/4,4v1[8:1],{8}4/5,5,
{16}2h[16:3],,,1,,1,{8}3,{16}7h[16:3],,,8,,8,{8}6,
{16}3,4,,4,,4,{8}3,6,{16}6,5,,5,{8}7,
8/1,1,2,2,3,3,4,4,
5,5,6,6,7,7,{4}8h[4:1],
{16}2,1,2,1,2,1,2,1,{32}2,3,4,5,{16}7,6,7,6,7,6,
{8}8,{16}1,1,,7,8,6,4,4,,5/3,,6/2,,,8/1,
8,,7/1,,2b,,,{4}3/6pp6[4:1],6,
{16}4,4,,5,{8}5/3,{16}2,2,4-7[8:1],3,,3,{8}4V61[4:1],{16}1,1,
{4}4,2-4[8:1]*-6[8:1],2,{16}7,5,7,5,
8,8,,1,{8}1/7,{16}6,6,4,5,,5,3,4,{8}3h[8:1],
{16}6,,,7/5,,5/7,,,{4}6/2qq2[4:1],2,
{16}5,5,,,{8}4/3,{16}2,2,{8}4,{16}6,6,{8}5,{16}3,3,
{8}4-2[8:1],{16}5,5,{4}4z8[4:1],{2}8s4[4:1],
{16}1,1,,5,{8}5/4,4/5,{16}6h[8:1]/5h[8:1],,,6h[8:1]/7h[8:1],,,{8}7/6,
{4}8-4[8:1]/1-5[8:1],1b/8b,{16}3,4h[8:1],,3,{8}4h[8:1],{16}2,5h[8:1],
,2,{8}5h[8:1],{16}1,4,1,4,8,8,,7,1,1,6,6,
{8}5-3[16:1],{16}7,5,,8,8,1,{8}7-5[16:1],{16}2,7,,,{8}3/4h[8:1],
2-8[16:1],{16}3,2,,,5,5,4h[8:1]/6h[8:1],,,7h[8:1]/3h[8:1],,,{8}2/8,
{2}1s5[8:1],{16}6,5h[8:1],,6,{8}5h[8:1],{16}7,4h[8:1],
,7,{8}4h[8:1],{16}8,5,8,5,6,2,4,3,6,5,7,2,
1,3,8,{48}2,3,4,,,,7,6,5,,,,{16}1h[8:1],,8,{8}1h[8:1],{16}8,2h[8:1],,5h[8:1],
,4,{8}5h[8:1],{16}4,6,6,2h[8:1],,4,{8}1h[8:1],{16}4,2,,6h[16:1],
{8}5,7/4,{16}8p6[8:3],3,8,3,,,,,,,,,3,
{32}7,6,{16}5,3,{32}7,6,{16}5,{8}3,{16}8,{32}2,3,{16}4,8,{32}2,3,{16}4,{8}8,
{16}1,8h[32:1],1,7,2h[32:1],7,3,6h[32:1],3,5,4h[32:1],5,{8}3,3h[8:1],
{16}4,2,5,1,6,8,{8}7h[8:1],2,{16}8,8/1,,2,{8}2/1,
3/4,{16}6,6/5,,4,{8}4/5,{32}7,6,{16}5,{32},,1,2,{8}3,{32}8/4h,7/3h,6/2h,5/1h,
{1}8h/4b>4[2:7],
,,,3qq4[2:3],
,7qq8[2:3],
{16},,,,,,,,,,,,,,,,3h[16:3],
,,4,,,5,4,6h[16:3],,,5,,,3,4,
2h[16:3],,,1,,,7,8,6h[16:3],,,5,,,2,4,
3h[16:3],,,6,,,8,2,1h[16:3],,,3,,,4,6,
5h[16:3],,,7,,,8,1,6h[16:3],,,4,,,3,5,
2,6,2,6,2,6,2,6,2,6,2,6,2,6,2,6,
3,7,3,7,3,7,3,7,3,7,3,7,3,7,3,7,
2,8,2,8,2,8,2,8,1,7,1,7,1,7,1,7,
2h[16:1],6h[16:1],2h[16:1],6h[16:1],3h[16:1],5h[16:1],3h[16:1],5h[16:1],4,4,4,4,4h[32:1],4h[32:1],4h[32:1],4h[32:1],
{4}4w8[8:1],4b>4[2:3]*<4[2:3],{1},,{16}5/6,
,,4/3,,,{8}8/1,
{4}7b/2h[4:1],{16}8-4[8:1],7,6,5,{4}4/8b,{16}1-5[8:1],2,3,4,
{4}5/1b,{16}7,6,5,4,2,2h[8:1],,3,1,4,8,5,
1h[16:1],{32}7,6,{16}5,3,4,1,8,5,6h[16:1],{32}2,3,{16}4,7,5,6,1,8,
2h[16:1],{32}7,6,{16}5,3,8,1,7,5,6,6,4,4,5,5,3,3,
{4}4b/2b,{16}5/1-5[8:1],6/2h,7/3h,8/4h,{4}1b/5h,{16}4/8-4[8:1],3/7h,2/6h,1/5h,
{4}8b/4h,{16}5,3,7,1,8,8h[8:1],,2,7,1,7,1,
{8}6h[8:1],{16}4,4,,5,{8}5/3,2h[8:1],{16}4,4,{32}1,2,{16}3,{8}5,
{32}7/8h[8:1],6,{16}5,{32},,2/1h[8:1],3,{8}4,{32}8/5,7/4,3/6,2/5,,,1/4,2/5,6/3,7/4,,,8,7,6,5,{8}4,
{16}2-6[8:1],3h[16:1],2h[16:1],3h[16:1],{4}2b,{8}7/8,{16}6-1[8:1],5,,5,{8}6,
3,{16}2-5[8:1],4,,4,{8}2,{16}6,6,,7/5,,3,{8}4/2,
{4}1p4[8:1]/8q5[8:1],1b/8b,{8}2/1,{16}3-8[8:1],4,,4,{8}3,
6,{16}7-4[8:1],5,,5,{8}7,{16}3,3,,4/2,,6,5,7,
{8}8z4[8:1]/1s5[8:1],1/8,{4}8b/1b,{8}7/8,{16}6-1[8:1],5,7,5,{8}6b,
3,{16}2-5[8:1],4,3,4,{8}2b,{16}6,6,,7/8,,2,{8}1/3,
{16}5,4,5,4,6,3,6,3,{32}8,7,{16}6,4,5,3,6,2,7,
{32}1b/8h[8:1],2,3,4,,,2b/8h[8:1],3,4,5,,,7b/1h[8:1],6,5,4,,,8b/1h[8:1],7,6,5,,,2b/5b,3/6,4/7,5,6,7,8,1,
{4}2-7[8:1]/6-3[8:1],2b/6b,{16}1,8h[8:1],,1,{8}8h[8:1],{16}2,7h[8:1],
,2,{8}7h[8:1],{16}3,5,4,6,5,5,,7,1,8,1,8,
{8}2-4[16:1],{16}1,2,,5h[8:1],,,{8}6-8[16:1],{16}5,6,,,{8}2/1h[8:1],
3-5[16:1],{16}6,3,,7,7,6,8h[8:1],,,7h[8:1]/1h[8:1],,,{8}2/6,
{2}5z1[8:1]/3s7[8:1],{8}8/2,{16}4,4/7,,5,{8}5/2,
{16}3,3/1,,7,{8}7/8,{16}1,1,6,5h[8:1],,7,{32}4,3,2,1,{16}6,6,
8,7,8,7,8,7,8,7,{32}1,2,3,4,{16}7,5,7,5,7,5,
{32}4b/8,7,{16}6,{32},,1/5b,2,{8}3,{32}8b/2b,3/7,{16}4/6,{32},,1b/7b,6/2,{8}5/3,{24}4,4,4,4,4,4,
{4}4bz8[2:1],{8},,,,7h[16:1],1h[16:1],
E
