&title=幕を下ろそう、パレードへ
&artist=海茶
&first=0.1
&des=Ultra
&lv_5=13
&inote_5=(146)
{8}E5/5h[1:3],,E4/B3,,E5,,E4/B3,,E8/A7,,E7,,E6,,E5/D5,,
{24}E2,,,E3,E4,E5/D5,,,,,,,,,,,,,{8}A4,A3,A2,,,,
{8}1,,2,,3,,4h[2:1],,8,,{24}7x,6x,5x,,,,4,,,,,,{99999}6-3[2:1],2-7[2:1]b,{4},,,,
{4}5b/1>4[2:1],E6,B6,B7,8<5[2:1]/4,E4,E3,E2,
{8}1h[4:1],,8,,7,7,6^4[4:1]-7[8:1]/4,,3h[8:1],,3^5[8:1]-2[4:1]b,,8h[8:1],,8,,
{4}7<4[2:1]/3x,E3,E2,E1,8>3[2:1]/4,E5,E6,E7,
{8}4h[8:1]/8h[8:1],,48,,3h[8:1]/7h[8:1],,3qq5[2:1]/7,,6h[8:1],,6,,7h[8:1],,7,8<6[8:1]b,,
{8}3,2,1-5[8:1]b,,5,6,7^5[8:1],,2,1,8-4[8:1],,6,7,8<4[4:1],,
{8}4>8[4:1],,8<4[4:1],,,,3,2-6[8:1],,7/2,8-4[8:1],,8/2,3>1[8:1],,
{8}7,6,5,4-8[8:1],,45,6<8[8:1]b,,2,3,4,5-1[8:1]b,,4/5,3-7[4:1],,
{8}7-2[4:1],,2-5[4:1],,5-1[4:1],,1qq5[8:3]*pp5[8:3]b,,,,,,Cf,,,,
{16}3x^1[8:1],,7-3[8:1]b,,3<8[4:1],,7b,,,,1-5[8:1],,2,,3,,3,,4x,3xh[16:3],,,5,,2pp1[4:1]/6,,,,
{16}8,,7,,6^8[8:1],,2-6[8:1]b,,6>1[4:1],,2,,,,8,,7-3[8:1],,,,7/2-5[8:1]b,,1,,2/6<4[4:1],,7,,4b/6,,,,1,,1,,
{16}6^8[8:1]/2,,2-6[8:1]b,,6>1[4:1],,2,,,,8-4[8:1],,7,,6,,6,,5x,6xh[16:3],,,4,,7qq8[4:1]b/3,,,,
{16}1,,2,,3qq4[4:1],,,,7h[8:1],,,,6h[8:1],,,,3/5-1[8:1],,2,,5w1[8:1],,,,5>2[8:1]*<8[8:1]b,,,,5b,,,,1,8,1,8,
{16}2/7x-5[8:1],,3-7[8:1]b,,7V14[4:1],,3b,,,,5-1[8:1],,6,,7,,7,,8x,7xh[16:3],,,1,,6pp5[4:1]/2,,,,
{16}4,,3,,2x-4[8:1],,6-2[8:1]b,,2V85[4:1],,6,,,,4,,3,,2,,1-5[8:1],,7-3[8:1]b,,1,,7,,
{16}1b,,,,26,,35,,4x-2[8:1],,8-4[8:1]b,,4V61[4:1],,8,,,,2-6[8:1],,3,,4,,4,,5x,4xh[16:3],,,6,,3pp1[4:1]/7,,,,
{16}8,,7,,7pp5[4:1]b,,,,2h[8:1],,,,3,,3,,46,,46,,7-3[8:1]/5,,,,5w1[8:1]b/7,,,,5b/C/B7/B3,,,,3xh[4:1],,,,
{16}7,,7<4[8:1]/3h[4:1],,,,{16}E7,E6,E5,,{16}3,,2,,1,,
{16}26,,2>5[8:1]/6h[4:1],,,,{16}E3,E4,E5,,,,
{16}Ch[8:5]/3,,,,1,,1>4[8:1],,,,{16}E2,E3,E4,,
{16}7,,6/5-3[8:1],,4,,5/6-2[8:1]*-1[8:1],,7,,6,,,,3x/8x,,,,
{99999}4qq4[4:1],4?pp4[4:1]b,{16},,,,,,,,,,{16}E5,E6,E7,,
{16}1,,2,,3,,84,,4>1[8:1]/8h[4:1],,,,{16}E4,E3,E2,,{16},,7,,6,,
{16}5<8[8:1],,5,,1>4[8:1]b,,1,,5x-8[8:1],,5,,1x-4[8:1]b,,1,,5b,,6,,
{16}3,4,3,,25,,{32}6x<8[8:1]b/1,2x,3x,4x,,,,,
{16}5,,,,4,,3,,2/1-5[8:1]b,,,,5,,4,,3>1[8:1],,,,5,,6,,7/8-4[8:1],,,,
{16}7,,6<1[4:1],,6,,1>4[4:1],,,,4<7[4:1],,,,7^2[4:1],,,,2-6[8:1],,,,4-8[8:1],,,,
{16}43,,2-6[8:1],,,,12,,8-4[8:1]b,,,,4,,3,,2,,1>3[8:1]b,,,,4/1,,5-1[8:1],,,,
{16}56,,7,,8,,8<6[8:1],,,,81,,1-3[4:1],,,,3-8[4:1],,,,8-4[4:1],,,,4-7[4:1],,,,
{99999}7>3[4:1],7?>7[2:1]b,{16},,,,,,,,,,,,8b,,,,
{16}3h[8:1],,,,3,,E6,,E7,,1h[4:1],,,,,,2,,3,,A8,,E8,A7,,,{99999}3,B6,{16},,{99999}4,E8,{16},,,,
{16}4,,3,,2,,A5,,E6,,{99999}Ch[4:1],{16},,,,1,,1,,E8,,{99999}2,E7,{16},,{99999}3,E6,{16},,{99999}4,{99999}{16}A5,,,,{99999}3,A6,{16},,,,
{16}4,,3,,2,,B7,,B5,,3h[4:1],,,,,,,,2,,A8,,D8,E8,,,B6,,E6,,,,
{16}A5,,A6,,1,,,,2,,,,3,,3,,4,,{99999}4,{16}D5,,E5,E4,E3,E2,E1,E8,E7,E6,Ch[2:1]f,,,,,,,,
{16}2x^8[8:1]b,,6-2[8:1],,2>8[4:1],,6b,,,,1-5[8:1],,1,,2,,2,,3x-7[8:1],3xh[16:3],,,4,,5pp4[4:1],,,,
{16}8,,1,,2^4[8:1],,6-2[8:1]b,,2<4[4:1],,6,,,,3,,2-7[8:1],,,,2/6-3[8:1]b,,5,,6/1>7[4:1],,2,,7/1b,,,,8,,8,,
{16}6x^8[8:1]b,,2-6[8:1],,6>8[4:1],,2b,,,,7,,6-8[8:1]*-1[8:1],,5,,6b-3[8:1]*-4[8:1],,,,6b-2[8:1]b,,,,6b,,,,
{16}3,4,3,4,3bqq4[4:1]/E6/B5/B6,,,,,,5,6,7bqq8[4:1]b,,,,,,,,{99999}1b^8[8:1]-5[32:1]b,1?-4[8:1]^5[32:1],{16},,,,1b,,,,{48}E5f,B4/B5,B6/B3,E7/E3,A7/A2,D8/D2,A8/A1,D1,,,,,
{16},,,,2x,1x,2xh[16:5],3x,,5x,,7x,,5,6,4,7,8,7,8,{32}1bx,2x,3x,4x,{16}5x,7x,,7x-5[8:1],,5x,,,3x,,3,4,3,,
{16}6x,5x,6xh[16:5],5x,,7x,,1x,,2,1,2,8,3,7,4,5xh[4:1],,6x,6x,,4x/7x,,5x/6x,,3x,5x,4x,6x,5x,7x,7x,
{16}3x,4x,3xh[16:5],2x,,8x,,6x,,4,5,4,6,3,5,4,6xb/2xb,,3x,5x,,3xb/7xb,,1b/Cf,,,,,
{16}2x,2x,1x,1x,3x,4x,3x,2x/5x,,3x/6x,,4x,4x/7x,,5x/6x,,3x/6x<3[4:1],,5x/4x,,3bx>6[4:1]b,,,,6x<3[4:1],,,,3bx>6[4:1]b,,,,4xh[4:1],,,,{32}E4f,B3,B2,E2,,,,,
(140){8},,,,,,,,,,5/E4,,B3,B2,E2,,1/E8,,E7,,E6,,
{8}4/E6/A6,,A7/B7,,B8/A8,,5/E4/A3,,A2/B2,,B1/A1,,
(146)E8,E7,E6,E5,E4,E3,{24}2s6[4:6]b/E2,A1,D1,A8,D8,
{24}
