&title=星が瞬くこんな夜に
&artist=supercell
&first=0
&des=和成天下三咲町总代
&des_5=和成天下三咲町总代
&lv_5=13+
&inote_5=(182){4},,,,,,,7h[1:1]/2-6[8:1],
{1}2,
{8}B2/E3,,,B8,,,{4}B3,
B5/E6,,,B2,
{2}B7/E8,2/1<5[2:1],
{1}5p1[2:1]*>1[2:1],
{8}2h[8:3],,,3h[8:3],,,{4}5-1[8:1],
{1}5/Cf/6z2[2:1]*-2[2:1],
8pp5[2:1]/3qq6[2:1],
{4}6h[8:1]/5p8>5[4:5],6h[8:1],6h[8:1],6h[8:1],
6h[8:1],6h[8:1],6-2[8:1],6,
3h[8:1]/4q1<4b[4:5],3h[8:1],3h[8:1],3h[8:1],
3h[8:1],3h[8:1],3-7b[8:1],3-5[4:1],
5-7[4:1],7-1[4:1],1-3[4:1],3z7[2:1],
6h[8:1],6h[8:1],6h[8:1],6-4[4:1],
4-2[4:1],2-8[4:1],8-6[4:1],6s2[2:1],
3h[8:1],3h[8:1],3h[8:1],3b,
{8}2/4,3,{4}3h[8:1],{8}7/5,6,{4}6h[8:1],
{8}3-1[8:1],4,{4}3bx,{8}6-8[8:1],5,{4}6bx,
{8}2,4,{4}3h[8:1],{8}7,5,{4}6h[8:1],
{8}3<6[8:1],8,{4}3bx,{8}7p3[8:1],8,{4}7bx,
{8}2,1,{4}2h[8:1],{8}7,8,{4}7h[8:1],
{8}4qq2[8:1],5,{4}4bx,{8}5pp7[8:1],4,{4}5bx,
{8}1,2,{4}3h[8:1],{8}8,7,{4}6h[8:1],
1b/7h[4:3],{16}1bx,2x,{8}3x,{16}2bx,3x,{8}4x,{16}3bx,4x,{8}5x,
1/8-6[2:1],,,B1,C,B5,{4}A5,
{8}2/1-5[2:1],,,A2,E3,E4,{4}A4,
{8}8/2-4[2:1],,,A8,E8,E7,{4}A6,
{8}1/8-6b[2:1],,,B1,C,B5,{4}A5,
{8}2/1-5b[2:1],,,A2,E3,E4,{4}A4,
{8}8/2h[4:1],,,7,5pp7[2:1],7,{4}5,
{8}7<7b[2:3],,,B6,B5,B4,{4}B3,
{8},,,B2,B1,B8,{4}B7,
{8}Ch[4:1],,,B6/E6,B4,B8,{4}B2,
{8}Ch[4:1],,,B4/E4,B6,B2,{4}B8,
{8}Ch[4:1],,,E8/B8,B2,B6,{4}B4,
{8}Ch[4:1],,,E2/B2,B8,B4,{4}B6,
{8}4/5,6,6,4/5,3,3,5/4,7,
7,5/4,2,2,4/5,4/5,3/6,3/6,
{16}1b/7h[8:1],2,{8}3,{16}8b/2h[8:1],7,{8}6,{16}1b/8h[8:1],2,{8}3,{16}8b/1h[8:1],7,{8}6,
{32}B1,B2/E3,B3,B4/E5,B5,B6/E7,B7,B8/E1,,,,,,,,,{16}6h[16:1],5h[16:1],4h[16:1],3h[16:1],,,,,{4}4b/6b<1-5[8:3],
{8}2,3,{4}4>2-6[8:3],{8}7,6,
{4}5<8[4:1],{8}3,3h[8:5],,1,8,7,
{4}6pp1[8:3],{8}4,3,{4}2pp5[8:3],{8}6,7,
{4}8<5[4:1],{8}2,1h[8:5],,4,5,6,
{4}7<4-8[8:3],{8}8,1,{4}2-6>3[8:3],{8}1,8,
{4}7v4[4:1],{8}3,3h[4:3],,5,6,7,
{4}8-6[8:1]*-5[8:1],8-3[8:1]*-2[8:1],8-4[8:1],8b,
{8}6-1[8:1]/2-5[8:1],1b/5b,,,8<5[8:1]/4>1[8:1],5b/1b,,,7/2,
7/2,3/6,6/3,{4}5/4qq1[8:3],{8}8,7,
{4}6>3[4:1],{8}8,8,1,1,4,5,
{4}6v1[4:1],{8}2,3,{4}4qq8[8:3],{8}7,6,
{4}5pp1[8:3],{8}3,3,2,2,8,7,
6h[4:3],,,3,3h[4:1],,,5,
{4}5q1[8:3],{8}4,3,,2,,1,
{4}1h[4:1],2h[4:1],3h[4:1],4h[4:1],
{12}5,5,5x,6,6,6x,{2}7h[2:1],
{1}8>8-3-6-1-4-7-2-5-8b[2:7],
,,,1<1-7-5-3-1-6-4-1-5[2:7],
,,,{8}6-1[8:1],
6,,2-5[8:1],{4}2,{8}7-4[8:1],7,
,3-8[8:1],{4}3,{8}5-1[8:1],5,{4}5b,
3h[4:1],{8}7v4[8:1],8,{4}7b,{8}2v5[8:1],1,
{4}2b,{8}8<5[8:1],1,{2}8b,
{1}7pp4[1:1],
{2}4<7[2:1],{32}A3,D3,A2,D2,A1,D1,{16}A8f,,,,,{8}8/7,
8/7,6/1,1/6,5/2,5/2,4/3,3/4,
8/1,8/1,7/2,7/2,6/3,6/3,5/4,5/4,
{16}3,4,{8}4x,{16}3,5,{8}5x,{16}3,6,{8}6x,{16}3,7,{8}7x,
{16}3,8,{8}8x,{16}3,1,{8}1x,3x/4x,2/5,1/6,7x/8x,
{16}8,7,8,7,1,6,1,6,2,5,2,5,3,4,3,4,
2x,5x,3x,4x,1x,6x,8x,7x,{32}1b,2,3,4,5,6,7,8,{4}2/1,
{16}2x,7,2,7,1,8,1,8,4x,5,3,6,2,7,1,8,
2x,5,2,5,3,4,3,4,8x,7,1,6,2,5,3,4,
{8}3x>8[8:1],3,,7x<4[8:1],{4}7,{8}1x>4[8:1],1,
,8x<5[8:1],{4}8,{8}4x-8[8:1],4,{4}7h[8:1],
{16}7x,1,7,2,7x,3,7,4,5x,4,6,4,7x,4,8,4,
8x,5,8,4,8x,3,8,2,1x,2,8,2,7x,2,6,2,
{8}5x<8[8:1],5,,1x>4[8:1],{4}1,{8}7x-2[8:1],7,
,3x-6[8:1],{4}3,{8}8x-4[8:1],8,2,1xh[8:3],
5p8<3[8:5],,,2,{2}2h[8:3],
{4}1>6q3[8:5],{8}8,7,,7h[4:1],,,8pp5[2:1],
,,3,4h[8:5],,,5,
{4}6h[8:1],{8}7,2v5[8:1]/6v1[8:1],,2b/6b,,,{4}4/8-5[8:1],
8/3-7[8:1],3/6<1[8:1],6/2>5[8:1],
2/6-1[8:1],3/6,4>1[8:1]/8<5[8:1],4b/8b,
{8}4x/8x,4/8,5/1,5/1,2x/6x,2/6,7/3,7/3,
5x/6x,4/7,8/3,1/2,5x/4x,6/3,2/7,8/1,
6x/5x,2/3,7x/8x,4/5,1x/8x,6/7,3x/4x,1/8,
{24}8x,7,6,1x,2,3,7x,6,5,2x,3,4,8x,7,6,1x,2,3,{32}8x,7,6,5,4,3,2,1,
{1}8b/Ch[2:7],
,6h[2:3],
{4},,,,4h[8:1],
5,4h[8:1],5,
4h[8:1],5,4h[8:1],5,
4qq2[8:1],4pp6[8:1],4w8[8:1],4b,
{8}2-5[8:1]/6-1[8:1],5b/1b,,,8<5[8:1]/4>1[8:1],5b/1b,,,6/3b>8-4b[8:3],
3,7,6,5<7-3[8:3],5,2,3,
4b>1b[4:1],4,6,6h[8:5],,8,1,2,
3bqq8b[8:3],3,5,6,7qq4[8:3],7,3,2,
1b>4b[4:1],1,7,8h[8:5],,5,4,3,
2b>5-1b[8:3],2,1,8,7-3<6[8:3],7,8,1,
2bv5b[4:1],2,6,6h[8:5],,3,2,1,
{4}8-3[8:1],8-5[8:1],8-2[8:1]*-3[8:1],8-5[8:1]*-6[8:1],
{8}8b,,,7/1,{4}7/1,7h[1:2]/1-6[8:1],
1-4[8:1],1-5[8:1],1-3[8:1],1-6b[8:1],
1-4b[8:1],1-5b[8:1],1-3qq5b[1:1],1,
6h[8:1],6h[8:1],6h[8:1],6h[8:1],
3/6-4[8:1],6/1>4[8:1],1/7p3[8:1],7/2-6b[8:1],
{1}2/Cf/7-5-8-4-1-3[2:3],
,Ch[4:3],
{24}B2/B6,E3`E7,B3`B7,B4`B8,{4},,,{16},{48},{8}4,
7h[8:1],4,7h[8:1],3,6h[8:1],3,6h[8:1],
(165)2,5h[8:1],2,{32}B2,B3,B4,B5,B6,B7,B8,B1,,,,,,,,,(130){8}1h[4:1],
,5h[8:1],2h[8:1],5h[8:1],3h[8:1],5h[8:1],4h[8:1],5h[8:1],
4,4/5,6/3,6/3,7/2,7h[8:3]/2-6b[8:1],2,2b,
E
