&title=fragments
&artist=秋桜
&first=0.77
&wholebpm=123
&des=ヤミヨル
&des_5=ヤミヨル
&demo_seek=67
&demo_len=21
&lv_5=13
&inote_5=(123)
{1},,
{8}3/4-8[2:1],,,,,,,,3,,,2,,,1^6[2:1]/8,,1h[2:1],,,,,,,{16}6,5,6-3[8:3],,,,,,,,2-7[8:3],,,,,,,,
5,,,5,,,5^2[2:1],,6h[4:1],,,,,,,,5-8[4:1],,,,,,,,1-4[4:1],,,,,,,,7-4[4:1],,6h[16:1],,6h[16:1],,6h[16:1],,6^1[4:1],,,,,,,,{4}2-6[2:1],,,8^5[2:1],
{8}8h[4:3],,,,,,,5,5-2[8:1],,6,6-3[8:1],,1^6[2:1],,2,2h[4:3],,,,,,,4,4-7[8:1],,8,8-3[8:1],,6^3[2:1],,36,2h[4:3],,,,,,,4,3-6[8:1],,6,7-4[8:1],,2,1,8^3[8:3],7h[4:3],,,,,,6-2[8:1],,8^5[8:3],,4,4^1[8:3],,,8,8,
7-3[8:1],,5,,4-1[8:1],4,1,8,7-4[8:1],,5,5-2[8:1],,1-5[8:1],,1,1^6[8:3],,,,4-8[8:1],,,5,5-2[8:1],,2,1-4[8:1],,5,6,7^2[2:1],8-5[8:1],,,,4-7[8:1],,,1,1-5[8:1],,4,4-8[8:1],,4/6,5,4^7[2:1],3-6[8:1],,,,8-3[8:1],,,,7,4,56,3,12,{16}3,4,4,5,3,4,
2^7[16:5],,,,5,,5,,6^3[16:5],,,,1,,1,,8^3[16:5],,,8,,,4,,4^7[16:5],,,4,,,3,,3,,,48,,,15,,1-5[8:1]/5,,,,,,3,,3,,,46,,,57,,5-8[8:1]/7-4[8:1],,,,,,,,
1^4[16:5],,,,5,,5,,6^1[16:5],,,,4,,4,,5,,,26,,,15,,1-6[8:1]/5-2[8:1],,,,,,,,8-4[8:1],,,1,8,,2,,3^8[4:1],,,,8^5[16:3],,6^3[16:3],,4^1[16:3],,,,,,6-2[8:7],6,{4}6h[1:1],,,,,8b,
{8}1-5[8:1],5-2[8:1],1,6,7-4[8:1],8-3[8:1],7,8,5-1[8:1],1-6[8:1],5,2,3-8[8:1],4-7[8:1],3,4,2-5[8:1],2,1-4[8:1],1,8-3[8:1],8,7,6,5^8[8:1],8^3[8:1],,,4,5,6^3[8:1],7,7^2[8:1],,,,23,14,58,67,6^3[8:1]/7^2[8:1],,,,4,5,46,7,8,1,24,8,1,8,57,1,8,1,24,8,{16}1-5[12:1]/8-4[12:1],27,36,,18,,,,
{8}7-4[8:1],4-8[8:1],7,3,2-5[8:1],1-6[8:1],2,1,3-8[8:1],8-4[8:1],3,7,6-1[8:1],5-2[8:1],6,5,7-4[8:1],8,1-6[8:1],2,3-8[8:1],4,5,6,7^4[8:1],4^1[8:1],,,8,7,6^1[8:1],5,5^2[8:1],,,,87,61,52,43,4^7[8:1]/3^8[8:1],,,,1-5[8:1],5-1[8:1],1^4[8:1],4^7[8:1],,,8,{16}1,,1^4[16:3],,,4^7[16:3],,,1,,{4}1^4[2:1],,,1b,
{8}8^3[8:1],7,6,5,4-8[8:1],,43,,1^6[8:1],2,3,4-1[8:1],4-7[8:1],,,,8^3[8:1],7,6,5,4^7[8:1],3,2,1,8-4[8:1],7,1-5[8:1],2,8-4[8:1],7,18,,
1^6[8:1],2,3,4,5,6,7,{16}8,7,{8}8^3[8:1],7,6,5-8[8:1],5-2[8:1],,,,1-4[8:1],1,7-2[8:1],7,6-3[8:1],6,5-8[8:1],5,4-1[8:1],4,2-7[8:1],2,3,3,2,{16}2-7[16:1],{1}2h[4:1]/1b,E
