&title=Aster
&artist=はるまきごはん
&first=0.1
&lv_5=12
&des_5=Parallel
&inote_5=
(119){4},1,{2}1,
2,2,
3,5/4,
{4}5/6-1-3-7[2:1],6,{2},{4}B7/B6/B2/B3,
1-5[12:1],1,{8}8-4[12:1],8,
{4}8,3-5[16:1],7-1[16:1],2-6[12:1],
,8-4[12:1],8,{8}1-5[12:1],1,
{4}1,6-4[16:1],2-8[16:1],7-3[12:1],
,1-4[12:1]*-6[12:1],1,{8}5-1[12:1],5,
{4}5,2-4[16:1],8-6[16:1],1-5[12:1],
,8-5[12:1]*-3[12:1],8,{8}4-8[12:1],4,
{4}4,1-3[16:1],7-5[16:1],8s4[16:3],
,{8}8>2v3<5[4:1],{16}8x,8xh[16:1],{8},,,7/1,
,8,2-4[16:1],2,7-5[16:1],7,{4}7/1,
2/8,1>4[12:1],1,5<8[12:1],
5,{8}3-6[12:1],3,7-2[12:1],7,{4}4-1[12:1],
4,{8}8/7,1,{4}2q4[16:3],2/7,
{8}7,1/8,2-5[12:1],2,6-1[12:1],6,{4}3-7[12:1],
3,{8}8x-6[8:1],6x-2[8:1],{2}2x-4[8:1],
{8}1,{16}8/2,2pp5[16:9]/8qq5[16:9],{1},{4}8w4[12:1],
8x,{8}2-6[12:1],2,
{4},{8}5-8[12:1],5,1-4[12:1],1,{4}1p5[12:1],
,2-6[12:1],2,{8}7v4[12:1],7,
{4},Cf/5bp4[1:1]*<4[1:1],,,,,,{8}8/7,
1/6,
2/5,3qq8[8:3]/4pp7[8:3],,,,,,1,
2,3,5,6,7q1[4:1],{4},{8}2,
3,4V28[8:3],{4}4,{8}8V64[4:1],8,{4},{8}8,
7h[8:3],{4},2,{8}5-8[12:1],5,
4-1[12:1],4,{4}6-2[12:1],,{8}3-1[16:1],7-5[16:1],
3,7,{4}8>6[16:11],,,,{8}3>6b[2:1],
3p6b[8:3],{4},,,{8}2-5[12:1],
1,2/8,8,7<4[12:1],8,
{4}7/1,{8}2-5[12:1],1,2/8,8,7>5[4:1],8,
7h[4:1],{4},{8}6,5-8[12:1],4,{4}5/4-1[12:1],
4/5,{8}7-4[8:1],4-7[8:1],7-2[8:1],2-7[8:1],,,,3/6,
5-7[16:1],4,5,4h[8:1],8-4[12:1],3,
{4}8,{8}6/3q1[8:1],5,{4}3/6h[8:1],{8}8-4[12:1],6,
8>6[8:3],{4},{8}B1,B3,E5,B6/E7,B3/E3,
E1/B8,E5/B5,{4}Cfh[1:1],,,,7-3[12:1],
7,{8}1-5[12:1],1,
{4}1,{8}6<1[12:1],6,2>5[12:1],2,{4}2,
7/2,2-6[12:1],2,{8}8-4[12:1],8,
{4}8,{8}3-8[12:1],3,7<1[4:1],7,{4}3h[4:1],
,2-4[16:1]/5-7[16:1],2/5,{8}7-4[12:1],8,
{4}7,{8}2-4[16:1],2,1-6[12:1],1,{4}1,
{8}4,5/3,{16}4-2[16:1],4,,,,5-7[16:1],,4-2[16:1],,4,,5pp5[16:7],
,5qq5[16:5],{8},,,,,,,,,{4}2pp5[2:1],
{16},,,{32}E1,E8,{4}E7,
,7qq4[2:1],,{8}3,3,
{4}2h[4:1],6<1[12:1],6,2>5[12:1],
2,{8}4-1[12:1],4,5-8[12:1],5,{4},7/2,
2-5[16:1]*-4[16:1],2,{8}8p4[12:1],8,
{4}8,1-3[16:1]*-5[12:1],1,{8}7V53[8:1],7,
{4}7V13[4:1]*>5[8:3],{2},{4}3-1[16:1]/6-8[16:1],
3/6,{8}1>4[8:1],1,1<6[8:1],1,1-5[8:1],1,
{4}1pp5[4:3]*qq5[4:3],A1f,,,,{8}3-8[12:1],
3,6-1[12:1],6,{4}4>8[8:1],
4,6-1[12:1]*-3[12:1],6,{8}2v5[12:1],2,
{4}2,Cf/4bq5[1:1]*>5[1:1],,,,,,{8}1/2,
8/3,
7/4,6pp1[8:3]/5qq2[8:3],,,,,,8,
7,6,4,3,2p8[4:1],{4},{8}7,
6,5V71[8:3],{4}5,{8}1V35[4:1],1,{4},{8}1,
2h[8:3],{4},7,{8}1-4[12:1],1,
8-5[12:1],8,{4}2-6[12:1],,{8}5/3,5/3,
6-8[16:1],2-4[16:1],6,2,{2}1<3[2:1],
{4},E5,C,E1,
,{16}8/2-5[12:1],2,{8}1-6[12:1],2,1,3v8[12:1],4/3,
{4}3/4,{16}1/7-4[12:1],7,{8}8-3[12:1],7,8,6q3[8:1],5/6,
{4}6/5,{8}2/1,2,3,4,6/5,6,
7,8-6[16:1],1-3[16:1],8-4[12:1],1-5[12:1],8,{4}1,
{8}6/3,2/7,{16}8/1,2-6[16:1],{8}7-1[16:1],2,7,4,5/3,
3/5,4/6,{16}4/5,6-2[16:1],{8}3-5[16:1],6,3,8/7,1/6,
{4}2qq4[8:3]/5pp3[8:3],2/5,,{8}E7/E6,E3/E4,
E1/E8,Cfh[8:9],,,,5q7[4:1],,,,,,{16}8,
8,1,7,2,6h[16:3],{8},{16}4,4,
5,3,6,2h[16:3],{8},{16}1,1,3,8,2,7h[16:3],,1-4[12:1]*q5[12:1],{8}1,
{16},1x,{4},{16}6,6,5,7,4,8,,7/3,{8}3/7,
{16},8/1,7,6h[16:3],{8},{16}4,5,3,6,2z6[16:3],7s3[16:3],{2},{8}1/8,
8/7,{16}7,7p5[16:3],,8,,1/7,,,,3,
2,4,{8}1-4[12:1],1,1/7-3[12:1],7,{4}7,
{8}4/6,4/6,{16}5-7[16:1],5,,,,4-2[16:1],,5-7[16:1],,5,,4qq4<8[16:13],
,4pp4>8[16:11],
E
&lv_6=13+
&des_6=Parallel
&inote_6=
(119){4},4/6h[8:5],{8}5,{4},{8}5,
{4}6/4,5/3h[8:5],{8}4,{4},{8}4,
{4}3/5,7/5,{8}4/6h[8:3],{4},{8}4,
{4}5h[16:17]/3-8-5-2[8:5],3bx,{16},,,,,,,,,B8/B1/E1,
{8},{4}2-4[12:1]/5-7[12:1],2/5,{16}8-4[16:1],4-8[16:1],2-6[16:1],6-2[16:1],
{4},7<4[8:1],8>3[8:1],5-8[12:1]*-2[12:1],
5x,7-5[12:1]/4-2[12:1],7/4,{16}2-6[16:1],6-2[16:1],8-4[16:1],4-8[16:1],
{4},2>5[8:1],1<6[8:1],4v1[12:1]*v7[12:1],
4x,6v1[12:1]/2-5[12:1],2/6,{16}7-3[16:1],3-7[16:1],1-5[16:1],5-1[16:1],
{4},6v3[12:1],5>1[8:1],7qq5[8:1]*pp1[8:1],
,3v8[12:1]/7-4[12:1],7/3,{16}2-6[16:1],6-2[16:1],8-4[16:1],4-8[16:1],
{4},1V75[8:1],1V35[8:1],{8}1x,7,
{16}8bx,8bx,8bx-2[8:1],8bx,{8}2v3[8:1],3-5[8:1],,,,5/6,
7-4[12:1],8/1,{4}7/1-7v6b[4:1],{8}1/6-4b[8:1],{4},{8}8,
1,2,{4}3v8[8:1]/6<1[8:1],3/6,6v1[8:1]/3>8[8:1],
6/3<7[4:1],7<3[16:3],{8}8,1,{4}2w6[8:1],
2xq4[4:1],{8}2/7,6,{4}5-8[12:1],5/4-1[12:1],
{8}4/7-2[8:1],7,{4}3<7[4:1]/7-4[8:1],3/7>3[6:1],5p8[8:1],
{8}5x,4,3-1[8:1],1-5[8:1],5-7[8:1],{16}7,7,{8}8,8,
{4}1-4[12:1]/6-3[12:1],1x-6[12:1]/6x-1[12:1],1bx/6bx<4[4:1],6bx,
,1-4[12:1]*-6[12:1],1x,{8}5-2[12:1]*v8[12:1],5,
{4}5x,{8}3-7[12:1],3,6-4[16:1],6,{4}8-4[12:1],
8x/1x,5-8[12:1]*-2[12:1],5x,{8}1-6[12:1]*v4[12:1],1,
{4}1x,Cf/2bw6[8:1],,{8}8,6/1pp5[2:1],
,1/2,,4,{4},{8}6/4,5/3,
7/4,5/2qq7[8:3],{16}B2,C,{8}B7,{48}E1f,{3},{48}6,{8},5,
4,5/3,3,{4}2-5[8:1],{8}5/2,6,
7/4,8,{4}1pp1[4:1],{8}1/5pp5[4:1],5,,2,
3,4q5[4:1],,4/5,{4},{8}7,7,
6/5,4,3v5-1-3[2:1],3,{16},7,{8}7,8,7,
6,5,4/3,3,2/4,2,1-4[8:1]/4-1[8:1],8/5,
{1}1<4b[2:1]/4q1b[2:1],
{8}B2/B3/D3,B7/B6/D7,2<7[8:1],3/4,2V46[8:1],5,2/7>2[8:1],8,
{4}7/6V42[8:1],{8}6/8-4[8:1],7,8/1,2,3/4-8[8:1],5,
{4}6/4>6[4:1],6-8-2-4[4:1],5,{8}6,7,
7/1-3[16:1],8-6[16:1],1-5[12:1],8-4[12:1],1>6[4:1],8,{4}6<4b[4:1],
Cf,{8}7>2[8:1],6/5,7V53[8:1],4,7/2<7[8:1],1,
{4}2/3V57[8:1],{8}3/1-5[8:1],2,1/8,7,6/5-1[8:1],4,
4/5-3-6-2-7-1[8:5],{4},{8}A3,A6,A2,{4}A7/1w5[8:1],
B8/B2/B1,Cfh[4:3]/5q7[2:1],,,,2-5[12:1]/8-4[12:1],
2x/8x-6[16:1],{16}8/4-8[8:1],3,2,1,
{4}4x,{8}2-6[8:1],8,2-8[16:1],7,2>5[12:1],6,
{4}2x,7-4[12:1]/1-5[12:1],7x/1x-3[16:1],{16}1/5-1[8:1],6,7,8,
{4}5x,{8}7-3[8:1],1,7-1[16:1],2,7<4[12:1],3,
{4}7x,2-5[12:1]/8-4[12:1],2x/8x-6[16:1],{16}8/4-8[8:1],3,2,1,
{4}4x/8x-4[8:1],{8}2-6[8:1],1,2-8[16:1],7,2>5[12:1],6,
{4}2x,7-4[12:1]/1-5[12:1],7x/1x-3[16:1],{16}1/5-1[8:1],6,7,8,
{4}5x/1x-5[8:1],{8}7-3[8:1],8,7<4[12:1],2,7qq7[8:1]*-1[8:1],3,
{4}7x,2-6-4[4:1],{6}4>8[16:3],{24}E1,E8,{4}E7,
6,7q5[4:1],5<1[16:3],{8}3,3,
{4}2-6[12:1],2/8-4[12:1],8/3-8[12:1],{8}3/5v2[16:1],6,
5/4V28[4:1],4,{4}8<4[4:1],{2}4>8V64b[8:3],
{4},2w6[8:1],2xq5[4:1],{8}2/7,8,
1,8,{4}7w3[8:1],7xp4[4:1],{8}2/7,1,
{4}8V24[8:1],7/8<4[8:1],1/8V25[8:1],{8}7/8V64[8:1],7,
8/1,2,2/6,2/6,3>1[16:1]/7>1[16:1],3<5[16:1]/7<5[16:1],7x-3[12:1]/3x-7[12:1],3xV17[8:7]/7xV53[16:13],
7x/3x,D7/D3f,{1},{8}2>5[12:1],
2,2/6-1[12:1],6,{4}6/4w8[8:1],
4x,1>4[12:1]*<6[12:1],1x,{8}5s1[8:1]*-1[8:1],4/6,
{4}5x,Cf/7bw3[8:1],,{8}1,3/8qq4[2:1],
,8/7,,5,{4},{8}3/5,4/6,
2/5,4/7pp2[8:3],{16}B7,C,{8}B2,{48}E1f,{3},{48}3,{8},4,
5,4/6,6,{4}7-4[8:1],{8}4/7,3,
2/5,1,{4}8qq8[4:1],{8}8/4qq4[4:1],4,,7,
6,5p4[4:1],,5/4,{4},{8}2,2,
3/4,5,6v4-8-6[2:1],6,2,2,1,2,
3,4,5/6,6,7/5,7,8-5[8:1]/5-8[8:1],1/4,
{4}8/5p8>4b[2:1],E4,E3,E2,
{8}B7/B6/D7,B2/B3/D3,{16}7>2[8:1],6,{8}5,7V53[8:1],4,7/2<7[8:1],1,
{4}2/3V57[8:1],{16}3/1-5[8:1],2,{8}3,1/8,7,6/5-1[8:1],4,
{4}3/5<3[4:1],{8}3-1-7-5[4:1],3,4,4,3,2,
2/8-6[16:1],1-3[16:1],8-4[12:1],1-5[12:1],8<3[4:1],1,{4}3>5b[4:1],
Cf,{16}2<7[8:1],3,{8}4,2V46[8:1],5,2/7>2[8:1],8,
{4}7/6V42[8:1],{16}6/8-4[8:1],7,{8}6,8/1,2,3/4-8[8:1],5,
5/4-6-3-7-2-8[8:5],{4},{8}A6,A3,A7,{4}A2/8w4[8:1],
B1/B7/B8,Cfh[4:3]/4p2<7[8:5],,,,{8}6b/3b,
{16}4,5/3-7[48:5],6,5,4,3/6,{8},{16}8,8-4[12:1],
7/1,2,1,8,{8},{16}2-6[12:1],2,4,3,2/5-8[12:1],5,,3w7[8:1],{8}5,
{16},3bx,{4},{16}5,4/6-2[48:5],3,4,5,6/3,,1,{8}1-5[12:1],
{16},8,1,2,{8}3,{16}7-3[12:1],8,6,6,7/4-1[12:1],5,,6q2[12:1],{8}4,
{4},{8}3w7[8:1],4/2,{4}3xp1[4:1],{8}3/6,7,
8-5[12:1],8,4-1[12:1],4,6q3[8:1],6,{16}6,2,2,4,
3,5,4,6,7,5,7,5,8,1,8,1,4,2,3,3,
4,5,6,6,{4}5bqq5<1[2:1]*pp5>1[2:1],
E
