&title=ニニ-邇々
&artist=tezuka - てづか
&first=0
&des=尘落南丘
&lv_5=13+
&inote_5=(174)
{1},
{4},,,
{16}5x,4x,6x,3x,
{8}7x,2,5,4,,6,6,4,5,3h[8:1],4,6h[8:1],5,,,
{16}2x,3x,4x,,8x,7x,6x,,1x,2x,{8}3x,6,4,5,3,4,6,5,7,4,5,2,
{8}74,6,5,6,25,3,4,3,6,6,2,2,7,7,3,3,
{8}5,6,7h[4:1],,1,2,3,4h[8:9],,,,6,7,8h[8:3],,,,,
{8}26,2h[4:1]/6h[4:1],,,37,3h[4:1]/7h[4:1],,,26,15,2h[2:1]/6h[2:1],,,,,,
{8}37,3h[4:1]/7h[4:1],,,2h[8:1],6,1h[8:1],5,3h[8:1],7,2h[8:1],6,8h[8:1],4,
{8}4,53,2,12,5,46,7,87,
{4}1h[8:1]/2h[8:1],8h[8:1]/7h[8:1],4h[8:1]/5h[8:1],
{8}63,27,1h[1:1]/8,8,8,8,8,8,8,8,8b,,,,36,,,,
{2}8p5[2:3],,2v5[2:1],,1q4[4:5],,7v4[4:1],
{4},1z5[4:1]/8s4[4:1],1b/8b,,3h[2:1],,2h[2:1],,1h[4:1],,1h[1:1]/5h[1:1],,,,,,
{16}15,26,37,48,1h[8:1]/5h[8:1],,,,
{16}37,,,,1x/5x,2x/6x,3x/7x,,4-2[16:1]/8-6[16:1],,48,,4z8[4:1]/8z4[4:1],,,,
{4},,{16}7-3[8:1],6,5,4,{4}7,24,
{16}8,7,6,5,1s5[4:1],2,3,4,
{4}5z1[4:1],,,{8}3v6[8:1]/7v4[8:1],37,37,,
{16}51,,,,7x/3x,6x/2x,5x/1x,,4-6[16:1]/8-2[16:1],,48,,4s8[4:1]/8s4[4:1],,,,
{4},,{16}2-6[8:1],3,4,5,{4}2,75,
{16}1,2,3,4,8z4[4:1],7,6,5,
{4}4s8[4:1],,,{8}6v4[8:1]/2v4[8:1],62,6v7[8:1]/2v1[8:1],,
{4}2b/6b,{16}8,7,1,,
{8}2-4[16:1]/6-8[16:1],26,{4}2s6[4:1]/6s2[4:1],,,
{16}8xq4[8:1]/4xq8[8:1],7x/3x,2x/6x,1x/5x,
{4}8x/4x,{8}7h[8:1]/3h[8:1],,{12}2h[12:1],7h[12:1],4h[12:1],8h[12:1],3h[12:1],6h[12:1],
{4}1pp6[4:1]*qq4[4:1],1b,,{8}5,73,8-4[8:1]/2-6[8:1],,
{4}2b/8b,{16}5,4,6,,
{8}7-5[16:1]/3-1[16:1],73,{4}7z3[4:1]/3z7[4:1],,,
{16}1xp5[8:1]/5xp1[8:1],2x/6x,7x/3x,8x/4x,
{4}1x/5x,{8}2h[8:1]/6h[8:1],,{12}7h[12:1],2h[12:1],5h[12:1],1h[12:1],6h[12:1],3h[12:1],
{4}8qq3[4:1]*pp5[4:1],8b,,{16}4,7,3,6,2,5,1,,
{2}4b<7[2:1],7v2[2:1],2>6[2:1],6v3[2:1],3<2[2:3],{4},C,2>6[2:1]*>6[2:1],,,,
{2}5>2[2:1],2v7[2:1],7<3[2:1],3v6[2:1],6>1[2:1],{4},C,7h[4:1],6h[4:1],5h[4:1],4,
{8}1x/7x,2,3,B4,2,3,4,B5,82,7,6,B5,7,6,5,B4,
{8}2x/8x,3,4,B6,3,4,5,B5,71,6,5,B3,6,5,4,B4,
{8}8,17,6,57,1,82,3,42,
{8}87,87,12,12,54,54,
{8}36,72,8h[1:1]/1,1,1,1,1,1,1,1,
{4}1b,2b,3b,{16}7,6,5,4,
{8}3/7V13[4:1],,4,5pp8[8:3],,2,3,4>8[8:3],,7,6,5,4v7[8:1],,4b,
{16}1,2,3,,1,8,7,,16,,
{8}7-5[8:1]/8,6,7/8-4[8:1],1,7-3[8:1]/8,6,7/1-5[8:1],2,1/8-6[8:1],7,18,
{16}2,3,{8}4-8[8:1],5,4x/6,6,7-3[8:1],8,7x/1,1,2-6[8:1],3,2x/4,4,5-1[8:1],6,5x/7,7,
{8}8,1,2pp5[8:3],,6,7,8,1h[8:3],,,{16},,28,,37,46,5,,
{16},,3,5,
{8}6/2V86[4:1],,5,4qq1[8:3],,7,6,5<1[8:3],,2,3,4,5v2[8:1],,5b,
{16}8,7,6,,8,1,2,,83,,
{8}2-4[8:1]/1,3,2/1-5[8:1],8,2-6[8:1]/1,3,2/8-4[8:1],7,8/1-3[8:1],2,81,
{16}7,6,{8}5q1[8:1],4,5b/3,3,2q6[8:1],1,2b/8,8,7q3[8:1],6,7b/5,5,4q8[8:1],3,4b/2,2,
{8}73,73,15,15,26,26,4>1[8:1]/8<5[8:1],48,4-8[8:1]/8-4[8:1],,4>1[8:1]/8<5[8:1],,4b/8b,,
{16}1,5,2,6,{8}3-8[8:1],7-4[8:1],3,7,,48,
{16}1,5,2,6,{8}3v8[8:1],7v4[8:1],3,7,,48,
{16}1,5,2,6,{8}3v6[8:1],7v2[8:1],3,7,,15,
{8}37,46,5,{16}2,2,2,,{8}B8,3,B6/Cf,1,E5/B4/B5,
{8}8-3[8:1],7-4[8:1],8,7,,{16}25,,6,4,7,5,
{8}1-6[8:1],2-5[8:1],1,2,,{16}74,,3,5,2,4,
{8}8-2[8:1],7-3[8:1],8,7,8-4[8:1],7-5[8:1],8,7,
{4}3,26,1b/5b,{16}48,15,26,37,
{1}8v5[2:3]/4v1[2:3],,
{4}2v5[8:1]/6q1[2:1],
{64}2b/6b,Cf,,,,,,,,,,,,,,,
{4},,7v4[8:1]/3p8[2:1],
{64}7b/3b,Cf,,,,,,,,,,,,,,,
{4},,
{8}1-5[8:1],2-6[8:1],1,2,,{16}74,,3,5,2,4,
{8}8-4[8:1],7-3[8:1],8,7,,{16}25,,6,4,7,5,
{8}1-5[8:1],2-6[8:1],1,2,,8z4[8:1]*v5[8:1],,8b,
{4},35,26,17,8-4[2:3],B3,B2,B1,B8,B7,B6,B5,
{4}1,2,3,4,,8,7,6,5,4,,{8}2,3,4,,{4}6,7,8h[8:5],{8},4h[8:3],,,,,,,
{8}26,,,37,,,1z5[13.385#208:1]/5,,
{1},,
{8},,,,
{16}7,7-3[100#16:1],,,
{1},E
