&title=Natsuzora (20XX Remix)
&artist=HoneyComeBear/20XX
&first=0
&des=(Natsu&&Mikan)?zora:star
&lv_5=13+
&des_5=(Natsu&&Mikan)?zora:star
&inote_5=
(188){4},{1},,,,,{4},,,{2}5/2h[2:1],
{4}4h[4:1],1-5[8:1],
1x/6-2[8:1],{8}6,4v1[8:1],,4x,{4}8h[4:1],
{24}B1,B2,{12}B3,{24},,,,,,,,,,,{8}6x,5,4,
{4}3xh[4:1],{8}4,3-8[8:1],,4/3,5,6h[8:1],
{24}B8,B7,{12}B6,,,,,{4}7x/4h[4:1],6h[4:1],
3x-8[8:1],{8}3,5-1[8:1],,5x,{4}2h[4:1],
{24}B8,B7,{12}B6,,{4}3h[4:1],{24}B7,B6,{12}B5,,{4}4h[4:1],
6x-2[8:1],{8}6,1-4[8:1],,1x,{4}8h[4:1],
{24}B1,B2,{12}B3,,{4}7h[4:1],{24}B2,B3,{12}B4,{24},,{8}6,5,
{4}7x-3[8:1],{8}7,4v1[8:1],,4x,{4}8h[4:1],
{24}B1,B2,{12}B3,,{4}7h[4:1],{24}B2,B3,{12}B4,{24},,{8}6,5,
{4}4x-1[8:1],{8}4,7h[4:1],,8x-4[8:1],1,8/2-5[8:1],
,2x,1,8,7x,4,6x,3,
{4}5xh[4:1],{8}2,3,4,4/6,7h[4:1],3,
4h[8:5],,,,,7,6/4>8[8:3],5,
{4}5/4,{8}7,7h[4:1],,1h[4:1],,6h[4:1],
{32}2b,3,4,5,,,,,{4}8V62[4:1],2V84[4:1],4,
{8}2x,3-8[8:1],5,6/3,{4}7x-3[8:1],{8}7x,8,
{4}1-5[8:1],6-8[8:1],2-4[8:1],2x,
{8}8,1-5[8:1],8x-4[8:1],1-3[8:1],8xp6[4:1],1,{4}8x,
{8},4,5,3,6x-1[8:1],2v5[8:1],6,2x,
{4}8x-4[8:1],{8}8,3-8[8:1],,3x,4,5xh[4:1],
,1,2,3,4xh[8:1],6h[8:1],2h[8:1],8xh[8:1],
{4}4-1[8:1],7-3[8:1],8-4[8:1],8<5[8:1],
{8}8b,1,{4}2q4[8:3],2/1v6[8:1],1x,
{8},7h[8:1],3h[8:1],5h[8:1],{4}2xv5[8:1],{8}2/6,7,
{4}8x-4[8:1],5-2[8:1],1p7[4:1],1x,
{8},2-5[8:1],8x,2,7p4[4:1],1,{4}7b,
{8},1,2,3,5x-3[8:1],6,5/7x,8,
{4}2x/1-5[8:1],{8}2/1,2xq6[8:1],,2,1,8-4[8:1],
,8x,1,2-5[8:1],,2x,1,8,
{4}7V15[4:1],5V73[4:1],1-5[8:1],1x,
B6f/B2f/E7/E6/E3/E2,8x/4xV25[8:3],4/1-6[8:1],1b,
Ch[4:1],B7/E8/B8/B3/E4/B4,1bx/5bx,7h[4:1]/3h[4:1],
B7/C/B3,2xh[4:1]/6h,Cfh[4:1],3xh[4:1],
8x-4[8:1],8x/2xh[8:1],1b,2/6,
7/3v8[8:1],{8}3/7,6,1/5x,4,{4}2b/4-8[8:1],
4b,2h[8:1],{8}7-5[8:1],3h[8:1],7-3[8:1],4,
{4}7/2xh[4:1],4bx,1xh[4:1],5b,
{2}6h[4:1]/2h[4:1],{4}4xh[4:1]/8xh[4:1],Cf/B8/B4,
6x/2xV84[8:3],2/7-5[8:1],7b,2V48[8:3],
2/1-5[8:1],1x,6bxh/7bxh,1h[2:1]/4h[8:1],
6h[8:1],8bv5[8:1],8/2h[8:1],{16}3x,4,3,4,
3,4,3,4,3,4,3,4,{4}2b-5[8:1],2/6-8[8:1],
3/6x,1h[4:1],{24}8x,7,6,5,,,{4}2xh[4:1],
7h[4:1],{24}8x,1,2,3,,,{4}6xh[4:1],1h[4:1],
7h[8:1],7b-3[8:1],7/1-5[8:1],1x/6-8[8:1],
{2}6/4h[2:1],{4}8h[4:1],Cfh[4:1],
{24}7b,6,5,4,,,{8}2,5,3v8[8:1],4,3x,5,
1h[8:1],6h[8:1],3h[8:1],8h[8:1],{4}2x-6[8:1],2b,
{8}7h[8:1],1h[8:1],6h[8:1],8,{4}7h[4:1]/8x-4[8:1],8x,
{8}7,6,5,3,4xh[4:1],2,{4}3xh[4:1],
{8}5h[8:1],B2/E3,B6/E7,B4/E5,8h[8:1],3xh[8:1],6h[8:1],1xh[8:1],
{4}7V52[4:1],2x-6[8:1],8-4[8:1],{8}8b,7,
6,3h,2h,{16}1h,8h,{8}1x-3[8:1],7,6x/1-5[8:1],4,
1/6x,7,8-6[8:1],4,3x/8-4[8:1],2,{4}8x/1h[4:1],
{24}8b,7,6,5,,,{4}2V84[4:1],4V25[4:1],5-1[8:1],
{8}7,6,5x-1[8:1],2,{4}5x/3h[4:1],8V61[4:1],
1b-5[8:1],4-2[8:1],4-8[8:1],4x,
{8}1,2,3-1[8:1],7,{4}6h[4:1]/3x-5[8:1],3,
7bV15[4:1],5V74[4:1],4-8[8:1],1-3[8:1],
{8}1x,8,7,6,1x-5[8:1],4,1x-3[8:1],6,
1x,6h,7h,{16}8h,1h,{8}8x-6[8:1],2,3x/8-4[8:1],5,
{4}8x/3x-8[8:1],7-4[8:1],2-6[8:1],8-4[8:1],
8/Cf,1xV72[8:3],1/3-6[8:1],3bx,
4xh[8:1]/8xh[8:1],7b/3b,C/B6/E7/B2/E3,8h[4:1]/4h[8:1],
1-3[8:1],7h[8:1]/1b-5[8:1],1b/6xh[8:1],7h[8:1],
{8}4/8b-4[8:1],3,{4}8/2v5[8:1],6/2,7x/3x,
2/6v1[8:1],{8}2/6x,3,4/8x,5,{4}7b/5-1[8:1],
5b,7h[8:1],{8}2-4[8:1],6h[8:1],2-6[8:1],5,
{4}2/7xh[4:1],5bx,8xh[4:1],4b,
{2}7h[4:1]/3h[4:1],{4}5xh[4:1]/1xh[4:1],Cf/B5/B1,
3x/7xV15[8:3],7/2-4[8:1],2b,7V51[8:3],
7/8-4[8:1],8x,2bxh/3bxh,5h[8:1]/8h[2:1],
3h[8:1],1bv4[8:1],1x/7h[8:1],{16}6x,5,6,5,
6,5,6,5,6,5,6,5,{4}7b-4[8:1],7/3-1[8:1],
6/3x,8h[4:1],{24}1x,2,3,4,,,{4}7xh[4:1],
2h[4:1],{24}1x,8,7,6,,,{4}3xh[4:1],8h[4:1],
2h[8:1],2b-6[8:1],2/8-4[8:1],8x/3-1[8:1],
{2}3/5h[2:1],{4}1h[4:1],Ch[4:1],
{24}E3,B3,B4,B5,,,{4}7V52[4:1],2x-6[8:1],1h[8:3],
{8},8,2x,7,{4}3xh[4:1],{8}6,4,
{4}5xh[4:1],2h[4:1],7h[4:1],4h[8:3],
{8},6x,7,8h[8:3],3x,2,{4}1xh,
{8}E7/B6,B2/E3,{4}B8/E1,{8}B4,B6,E3,E8,
{4}B1/E1,{8}B5/E5,B3/E3,,B8,B7,B6,
,1,2,3,6x,4,7x,5,
{4}8xq6[4:1],6q4[4:1],4q2[4:1],2q8[4:1],
,1,2b,3x,
{8},7,6/4>8[4:1],5,{4}5/4,7-4[8:1],
1-5[8:1],6x-8[8:1],2-6[8:1],2x,
{8}8,4,7,3,B5/E6,B1/B2,{4}E7/B7,
{8},4x,3,2,1xh[8:1],7h[8:1],3h[8:1],5h[8:1],
{4}1x-4[8:1],{8}1,6xq2[8:1],,6,5,4p8[8:1],
,4x,5,6h[4:1],,5,4,3,
{4}2h[4:1],7h[4:1],1h[4:1],8w4[8:1],
E
