&title=夢と色でできている
&artist=佐咲紗花
&first=0
&des=KOU_RAY
&lv_5=12
&inote_5=(167)
{1},
{8}6p4[8:6],,,,,,,3h[8:5],
{8},,,,5,,5,,
{8}2/4,,,7/1,,,,6-3[8:4]/4,
{1},{16}
{8}7,5,4,5/3,,4,6,7/8,
{8},6,4,1/3,,4,{16}6,6,
{16}8b,,,,{8}5,5h[8:2],2,
{8}2,4,4h[8:2],8,8,6,6h[8:2],4,
{8}4,5,7/3,{16}3,4,
{8}5<1[8:4],,4,,3,,2,,
{16}1,,3,4,3,,6,5,6,,7,,7/4,,,,
{8}4>8[8:4],,5,,6,,7,,
{16}8,,6,5,6,,3,4,3,,2,,6,5,6,5,
{16}7/4,,,5,3,,5h[8:2],,,,1,,1,,,,
{16}8/3,,,5,4,,6h[8:2],,,,2,,2,,,,
{16}2/5,,,3,4,,2h[8:2],,,,8,,8<6[8:1],,,,
{16}4>2[8:1],,,,1>5[8:3],,,,6,,6,,6,,,,
{16}7/4,,,6,5,,7h[8:2],,,,1,,1,,,,
{16}8/3,,,5,4,,6h[8:2],,,,2,,2,,,,
{16}2/5,,,5,3,,4h[8:2],,,,8,,8p5[8:5]*q3[8:5],,,,
{16}8,,,,,,,,,,,,4,,5,,
{16}6-4[8:1],,,3,6,,2h[8:2],,,,8,,7/4,,,,
{16}7-4[8:1],,,3,7,,2h[8:2],,,,1,,2/8,,,,
{16}7-5[8:1],,,4,7,,1h[8:2],,,,8,,7/1,,,,
{16}7-3[8:1],,,5,7,,4h[8:2],,,,2,,8/3,,,,
{16}3-5[8:1],,,6,3,,7h[8:2],,,,1,,2/5,,,,
{16}2-5[8:1],,,6,2,,7h[8:2],,,,8,,7/1,,,,
{16}2-4[8:1],,,5,2,,8h[8:2],,,,1,,3-1[8:1]/8,,,,
{16}4-8[8:1],,,,5-1[8:1],,,,6,,6,,7,8,7,8,
{8}7-5[8:1],,3,4<7[8:1],,3,2,1,
{16},,8/1,,7,,6/4,,,,5>2[8:1],,8,,1,,
{16}7,,6,,5,,5,,3-8[8:1],,7p4[8:4],,3,,7,,
{8},,,,3h[8:1],4h[8:1],5h[8:1],6,
{8}7/5-8[8:1],,4,2-5[8:1],,1,8,7-4[8:1],
{8},3,2,1-5[8:1],,1b,,6,
{8}6/5,7,8,1<6[8:1],2/1,3,4,5,
{8}7/5,8,1,2,3/1,4>5[8:2],7,4b,
{8},,7/3,5,1-5[8:1],6,7,8<4[8:2],
{8},4>8[8:2],,8<4[8:2],,3-8[8:1],2,3,
{8},5,5/2,6,1V35[8:2],7,8,1b<5[8:2],
{8},5>1[8:2],,1b<5[12:2],,4-1[8:1]*-7[8:1],3,4b,
{8},2,8-6[8:1]/3,7,8/5,5-1[8:1],3,5/2-4[8:1],
{8},2,8,1-5[8:1],,1/7-3[8:1],,7b/2,
{8},4,5,6/2>5[8:1],,6b-1[8:1]/2b,6,3b,,{16}8,2,7,3,{8}5-8[8:1],4,5b/1w5[8:1],2,1b,
{8},,2/6,4,8-4[8:1],3,2,1>5[8:2],
{8},5<1[8:2],,1>5[8:2],,6v1[8:1],7,6,
{8},4,4/7,3,8V64[8:2],2,1,8b>4[8:2],
{8},4<8[8:2],,8b>4[12:2],,5-8[8:1]*-2[8:1],6,5b,
{8},7,1-3[8:1]/6,2,1/4,4-8[8:1],6,4/7-5[8:1],
{8},7,1,8-4[8:1],,8/2-6[8:1],,2b/7,
{8},5,4,3/7<4[8:1],,1b-5[8:1]/7b,,1b/8b,,{16}2,6,3qq4[8:3],5pp4[16:5],{8}4b,,,,,
{16}6b/2b,,5/4,,7/3,,5,4,6,,7,,8/2,,3h[8:1],,
{16}7,,4/5,,2/6,,4,5,3,,2/6,,1/7,,8b<5[8:1],,
{8}5,4,3,2-5[8:1],1,2-6[8:1],1,8bpp5[8:3]/2b,
{8},,,,{16}4,3,2,1,8,7,6,5,
{8}4b,3,2/4,2,8/2,2,6/2,2,
{8}4-7[8:1]/2,1-3[8:1],4,1b-5[8:1],,1b/7b,,8,
{16}8b/4b,,3,7,3,6,3,5,3,4,3,2,3,1,3,8,
{16}3,7,2,6,1,5,8b-4[8:2],,,,,,,,,,
{8}7-4[8:1],2,7,1,8>4[8:1],6,8,6,
{8}1<3[8:2],,3,2,1-5[8:1],1,6b,,
{8}7-4[8:1],2,7,1,8-4[8:1],6,8,6,
{16}7b,,7b,,6,5,6,,2b,,3,5,4,6,5b,,
{8}7-4[8:1],2,7,1,8-3[8:1],6,8,6,
{8}8<3[8:2],3,1,8-4[8:1],,8b,5,7bV15[8:2]/3b,
{8},5-7[8:1],4,4,2h[8:2],,1,8b,
{16}7/4,,5,6,5,6,5,,2,,4,3,4,3,4,,
{8}1b/5b,6,7,8h[8:2],,3,4,4pp1[8:5]/7<1[8:5],
{8},,,,,,,,
{8}8/4,3,2,1h[8:2],,6,5,5qq1[8:5]/2>8[8:5],
{8},,,,,,,,
{8}1/5,6,7,8h[8:2],,3,4,4pp1[8:5]/7<1[8:5],
{8},,,,,,,,
{8}1b-5[8:4],,,,,,,,
{16}7b/3b,,8-4[8:1],4,6,2,8,,,,{8}7b-3[8:1]/1b-5[8:1],7b/1b,7b/1b,
