&title=嬢王
&artist=八王子P
&first=0.03
&des=VIP骷髅王
&lv_5=13+
&inote_5=(200)
{1},
{8}3,3,4,,2,,5,5,
{8}6,6,7,7,8,,,{24}3,4,3,
{8}4,3,2,2,1,,8,8,
{16}1,7,1,,6,,6,,5,,5,,4,,3,,
{8}2b/7b,,3-8[8:1]/4,,35,,5/6-1[8:1],,46,,3-8[8:1]/4,,35,,1/7-4[8:1],,
{8}37,,2-5[8:1]/8,,26,,17,17,
{16}2,8,2,8,{32}3,4,5,6,7,8,1,2,3-7[8:1]/7-3[8:1],,,,,,,,,,,,,,,,
{8}1b/8b,,2>5[8:1],2,7h[4:1],,6-1[8:1],6,8h[4:1],,1-5[8:1],,12,,3>8[8:1],,
{8}35,,6-1[8:1],,46,,2-6[8:1],2,7h[4:1],,8-4[8:1],,18,,2,,
{8}3/5-1[8:1],,2-5[8:1],2,8,,7-4[8:1],,
{8}4,,3-7[8:1],3,5,,6<1[8:1],,2-5[8:1],,8-4[8:1],8,1w5[8:1],,,,
{8},,,,3,3,3,3,
{4}2b-5[8:1]/7b,6-1[8:1]/2,3-8[8:1]/6,7-4[8:1]/3,
{4}1-5[8:1]/7,6-8[8:1]/1,4>1[8:1]/6,8-4[8:1]/4,
{4}2-6[8:1]/8,5-8[8:1]/2,5-2[8:1]/4,7<4[8:1]/5,
{8}1-5[8:1]/7,,8-4[8:1]/1,,28,2b,,{16}6,5,
{4}7b-4[8:1],3-8[8:1]/7,6-1[8:1]/3,2-5[8:1]/6,
{4}8-4[8:1]/2,3-1[8:1]/8,5<8[8:1]/3,1-5[8:1]/5,
{8}8-4[8:1],8,2-5[8:1],2,7-4[8:1],7,3,3,
{32}5b,6,7,8,1,2,3,4,5b-1[8:1]*-1[8:1],6,7,8,1,2,3,4,5b,,,,,,,,,,,,,,,,
{8}6h[2:1],,4,,3h[2:1],,5,,
{8}7h[2:1],,8-3[8:1],8-5[8:1],,,,,
{8}34,3,56,6,24,2,57,7,
{16}1,8,1,8,2,7,2,7,1-5[8:1]/8-4[8:1],18,,,,,,,
{12}3-8[8:1],,,35,,,3-8[8:1]/7,6,5,34,,,
{12}6-1[8:1],,,64,,,6-1[8:1]/2,3,4,65,,,
{12}2-8[8:1],,4,2-4[8:1],,7,2-6[8:1],,6,2,,,
{16}8,7,6,5,48,3,2,1,48,7,6,5,14,,,,
{12}2-6[8:1],2,2,{8},{12}8-4[8:1],8,8,{8}8,{12},,3,
{12}3-5[8:1],,7,7-4[8:1],,1,1,,,{8}2-6[8:1],3,
{4}2/7-3[8:1],2-6[8:1]/7,{8}2/7-3[8:1],7,2<4[2:1]/7,,
{1}2/7h[2:1],
{16}3b,4,3,,6,5,6,,3,4,3,,6,5,6,,
{16}2,4,2,,7,5,7,,2,4,2,,7,5,6,4,
{16}5,3,7,,4,6,2,,5,3,7,,4,6,2,8,
{16}1,7,1,,8,2,8,,17,,17,26,35,,35,,
{16}6,5,7,,3,4,2,,6,5,8,,3,4,1,,
{16}7,8,6,,2,1,3,,7,8,5,,2,1,3,8,
{8}37,37,26,26,15,15,48,48,
{16}1,5,2,6,3,7,4,8,5,1,4,8,3,7,2,6,
{1}1b/5b<4[1:3]*<4[1:3],,,,
(150)
{16}3b/6b,,,,,,3,,4,,5,,6,,7,8,
{16}6,,,,,,2,1,3,,4,,5b/6b,,7,,
{16}1b/8b,,,,,,3,4,2,,6,5,7,,1,8,
{16}2b/7b,,,,,,3,4,25,,6,5,4b/7b,,,,
{12}1,2,3,2,3,4,3,4,5,4,5,6,
{12}5,6,7,6,7,8,7,8,1,8,1,2,
{12}3,3,3h[4:1],5,5,5h[4:1],7,7,7h[4:1],1,1,1h[4:1],
{12}2,2,2h[4:1],4,4,4h[4:1],6,6,6h[4:1],7,7,7,
{12}8,7,6,7,6,5,6,5,4,5,4,3,
{12}4,3,2,3,2,1,2,1,8,1,8,7,
{12}6,6,6h[4:1],4,4,4h[4:1],2,2,2h[4:1],8,8,8h[4:1],
{12}7,7,7h[4:1],5,5,5h[4:1],3,3,3,2,1,8,
(150)
{4}2b/7b,3,45,6,
(160)
{4}1b/8b,2,34,5,
(170)
{4}2b/7b,3,56,7,
(180)
{16}1b/8b,,,,3,,,45,45,,,,36,,,,
(190)
{4}2b-6[8:1]/7,1-5[8:1],8-4[8:1],7-3[8:1],
{4}2q6[8:1],1-5[8:1],8-4[8:1],7,
{16}13,,2,,68,,1,2,35,,4,,57,,8,,
(200)
{16}3,1,3,1,2,8,2,8,{24}1,2,3,8,7,6,{16}4,4,4,4,
{16}4b,,,,,,3,4,3,,6,5,6,,2,8,
{16}1-5[8:1],,7-3[8:1],,1>1[8:3],,,,,,,,,,,,
{16}1-5[8:1],,,,1b-3[8:1]/8,,7,7,1-4[8:1],,6,,1/7<1[4:1],,8,8,
{16}3h[4:1],,,,,,2,2,7,7,1,1,5-2[8:1]*-8[8:1],,37,,
{16}5,,,,,,1,2,35,,8,7,46,,2,3,
{16}47,,7,6,15,,26,37,48,5,6,7,8,1,2,3,
{16}8b-4[8:1]/4b,,,,8-6[8:1]/1,,2,2,8-5[8:1],,3,,8/2>8[4:1],,1,1,
{16}6h[4:1],,,,,,7,7,2,2,8,8,4<7[8:1]*>1[8:1],,62,,
{16}4,,,,,,8,7,64,,1,2,53,,7,6,
{16}2b/5,3,4,5,1b,2,3,4,8b,1,2,3,{32}7b,8,1,2,3,4,5,6,
{4}2b-8[8:1]/7b-4[8:1],2b-5[8:1]/7b,2b/6b-8[8:1]*-2[8:1],6b-4[8:1],
{4}1b>4[8:1]*<6[8:1]/6b,1b-5[8:1],1b/8b-4[8:1]*>3[8:1],8b<5[8:1],
{4}4b-1[8:1]*-2[8:1]/8b,4b<1[16:3],2bpp2[16:3]/4b,2b,
{8}1b/7b,,45,1b/8b,{16}2b-7[8:1]/6b-3[8:1],3b/7b,4b/8b,5b/1b,6b/2b,,,,
{8}18,18,27,27,36,36,45,45,
{8}3,3,5,5,4,4,6,6,
{16}4,5,3,6,2,7,1,8,1,1,1,1,{32}2,3,4,5,8,7,6,5,
{1}8b>7[8:3]*<1[8:3]/4,
{16}1>4[8:1]/8,,,,1b<6[8:1],,6,5,1b-5[8:1],,5,4,1b-3[12:1],,6,7,
{16}1b/8b-4[8:1],,,,8b-5[8:1],,3,2,8b<6[8:1],,,1,8b,,2,,
{16}1b,5,3,5,2b,5,4,5,6b,5,7b,5,8b,5,1b,5,
{24}2b,3,4,7<4[8:1],,,2b,3,4,7>2[8:1],,,2b,3,4,7,,,{16}5b,4,3,2,
{16}8<5[8:1]/1,,,,8b>3[8:1],,3,4,8b-4[8:1],,5b,5b,8b-6[12:1],,3,2,
{16}8b/1b-5[8:1],,,,1b-4[8:1],,6,7,1b>3[8:1],,,8,1b,,7,,
{8}5b/6b,5b/6b,5b/6b,{16}7b/8b,1b/6b,{8}2b/5b,4b/7b,1b/8b,3b/6b,
{16}1h[128:1],8h[128:1],2h[128:1],7h[128:1],1h[128:1],8h[128:1],2h[128:1],7h[128:1],{32}1b,2,3,4,7b,6,5,4,8b-4[4:7]*-4[4:7],7,6,5,4b/8b,37,26,15,
{1}4b/8b,
{1},
(150)
{12}3b,4,3,6,5,6,3,4,3,6,5,6,
{12}3,5,2,6,4,7,2,4,1,7,5,8,
{12}1b,8,1,7,2,7,3,6,3,5,4,5,
{12}2b/4b,3,4,57,6,5,14,2,3,48,7,6,
{12}1-5[8:1]/5,1,1,1h[4:1],,,7-3[8:1],7,7,7h[4:1],,,
{12}2-5[8:1],2,2,2h[8:1],,,1q6[16:3]*p4[16:3],,,,,,
{2}7<2[2:1],2<5[2:1],
{2}5>8[2:1],8<3[2:1],
{1}3w7[2:3],,
(200)
{16}2b,6b,4b,8b,1b,7b,3b,5b,2b,6b,4b,8b,2b,5b,3b,7b,
{32}1b,2h[128:1],3h[128:1],4h[128:1],{16}8b,8b,1b,1b,7b,7b,2b,2b,8b,8b,
{24}1b,1b,1b,1b,1b,1b,
{32}1b,2b/8b,3b/7b,4b/6b,5b-1[16:1]*-1[16:1],
