&title=Heart Creation
&artist=月乃
&first=0.02
&des=LSP
&lv_5=14
&inote_5=(154)
||Part
1
{8},,,,,,,,,,,D3,
{4}B3,{8}B5,2h[8:5]/D6,
,,,E3,E4,E5,E6,3h[8:4]/E7,
,,,E6,E7,E8/1-5[8:1],,5pp5[8:11]*qq5[8:11],
{1},{4},,,{16}7/1,
2,3,4,
{4}6/5-2[8:1],8-4[8:1],1>5[4:1],5p1[4:1],
7-4[8:1],7qq8[4:1],2,{8}1,1,
8/2,7,5,6-4[8:1]/4-2[8:1],,4-8[8:1],,1,
{16},,2,3,4,5,{8}7h[8:3],,,{4}8<5[8:1]*>3[8:1],
{16},,,,,,3,4,{4}2>5[8:1],6,
8q4[4:1],4<8[4:1],8>3[4:1],{8}4,5h[8:3],
{16},,,,6,7,{8}8h[8:1],{16},,7/1,6/2,{4}5pp4[8:3]/3qq4[8:3],
{8},,,E5/E4/B4f,,,,,
||Part
2
{8}7b,7pp4[8:3],{8},2h[8:3],,,,,{8}3,3qq4[8:3],
{8},6h[8:3],,,,,{8}5,5pp5[8:3],
{8},2h[8:3],,,,,1>5[16:3]*<5[16:3],
,,,,4/6,,,{8}2,2qq5[8:3],
{8},7h[8:3],,,,,8,
8<5[4:1],,5>2[4:1],,2,,8,
{8}1^3[8:1],1,,,6^8[8:1],6,{8}5pp4[2:1],4qq5[8:3],
,,,,,3/6,{4}3/6,
1h[8:1]/5pp8[16:7],2h[8:1],3h[8:1],4h[8:1],
1h[8:1]/5qq2[16:7],8h[8:1],7h[8:1],{8}6h[8:1],,
{4}1h[8:1]/5pp1[16:7],2h[8:1],3h[8:1],4h[8:1],
{8}85,8-4[8:1],,1,,25,7,3,
{4}8h[8:1]/4qq1[16:7],7h[8:1],6h[8:1],5h[8:1],
{8}48,1^6[8:1],2,3x,{16},,4,5,{4}4,
2-4[8:1],2/8-6[8:1],8/1-5[8:1],1/5,
{8}7-3[8:1],3-7[8:1],2,1h[8:3],,8x,8xb,,
||Part
3
{16}2h,
B2,,,,,7h,B7,,,,,{4}8q5q2[8:7],
{16},,,,,,,,,,,,,,,,8h,
B8,,,,,3h,B3,,,,,{4}8z4[4:3]/1s5[4:3],
{16},,,,,,,,,,,,,,,,1h,
B1,,,,,6h,B6,,,,,{4}5-8[8:1]/3-8[8:1],
5-2-6[8:3]/3-6-2[8:3],,,5b/3b,
{16}6<3[8:3],,,,,,4,,4h[4:1],,,,5x,,,,
{16}6,,57,,,,3,,24,,,,5,5,4,,
{16}6-8[8:1],,6,,2-4[8:1],,2,,8,,8,,3,7,2,6,
{16}1b-4[8:1],,6,6,1,,7,,8-5[8:1],,3,3,8,,2,,
{8}4/3,2/5,1/6,7b/8bw4b[8:1],,,,Cf/B7/B3,
||Part
4
{16},,,,7/3,,6/5-1[8:1],,8<5[8:1],,5>2[8:1],,8,,1xqq2[8:2],,||绝赞/保护套尽可能采了和弦
{16},,3,,3,,4-8[8:1],,5,,7<4[8:1]b,,,,2bq6[8:1]/7b,,
{16},,1>4[8:1],,7x,,8bx-5[8:1]*-3[8:1],,,,8bx,,,,3x,4,
{16}3b-5[8:1],,,,3,,8x-4[8:1],,4,,8,,1,,2,,
{16}3xqq4b[8:2]/5pp4[8:2],,26,,,,,,,,2>8[4:1],,1,,8x,,
{16},,1>7[4:1],,8,,7x,,,,1,,8-5[8:1]*-3[8:1],,7/1,,
{16}8bx,,,,2/4,,6,5,7x-3[8:1],,1-4[8:1],,7,,1,,
{16}6bx,,7b/5b,,2b/4b,,1bx/8bx,,7,5,6,,3,4,2bxh[4:1],,
{16}8,,6,,4,,4-8[8:1],,1>4[8:1],,4<7[8:1],,1,,8xpp7[8:2],,
{16},,6,,6,,5-1[8:1],,4,,2>5[8:1]b,,,,7bp3[8:1]/2b,,
{16},,8<5[8:1],,2x,,1bx-4[8:1]*-6[8:1],,,,1bx,,,,6x,5,
{16}6b-4[8:1],,,,6,,1x-5[8:1],,5,,1,,8,,7,,
{16}6x-1[8:1],,4,,2,,2,,3-8[8:1],,5,,7,,7,,
{16}6x-3[8:1],,3,,2-7[8:1],,1,,6,,5-8[8:1]*-2[8:1],,4x,,5b,,
{16},,6/2,,4/3,,7,4,6x,5,8,,2,4,3,5,
{16}1b,,6,5,6,,2,4,2bx,,6,5,7,,3,4,
{16}2b,,6,5,8,,2,4,3bx,,7,5,6,3,4,2,
||Part
5
{4}A7,
{8},A2,
{4},
{8},A6,
{4},,
{32}A3,,,
{8},
{32},
{16}E4,B6,B2,E8,
{8}1xh[8:2],,7,7h[8:2],,3,3,,
{4}4>1[8:2],1<6[8:2],6>3[8:2],3pp5pp7[4:6],
{4},,,,
{4},,,5pp4[4:3],
{4}4,,,,
{4}1h[32:1]/4pp4[8:3]*qq4[8:3],
{8},,,,
{4}3,
{4}3>7[2:1],,,6,
{8}6<2[2:1],,,,,,4,,
{4}4>5[8:6]/5h[32:1],,,,
{8}1,1h[4:1],,2,,8,3h[8:1]/7h[8:1],,
||Part
6
{16}2q4[2:1]/6,,,,8,,8,,,,6,,6<5[8:5],,,,,,,,,,,,,,,,
7,,,,3/7-4[8:1],,,,1,,1/A4f/E5/E4,,,,,,,,6,,5<4[8:4],,7h[4:1],,,,,,,,
7,,7,,5,,6-4[8:1],,,,3,,3h[4:1],,,,4-1[8:1],,4,,2,,,,2/8,,7,,6pp4[16:6]/1,,
{4},,1-5[8:1],
1/7-4[8:1],7/3,{8}25,{16}3,4,
{8}3,2,64,7,35,{16}2,8,2,8,2,8,
{32}2xb,3x,4x,5x<4[32:9],{8},,,,8,7,5/6h[4:1],
{16},,4,5,{8}3,6/2pp1[4:1],,8,7,6,
5<8[8:1],5,1,1>4[8:1],,8/1-5[8:1],,1/2,
{16},,6,5,{8}6-8[8:1],6,2-4[8:1],2,1qq5[8:3],1,
,4,3,2,1-5[8:1],{16}8-4[8:1],,{8}1,8,
3,{16}3,4,{8}2,{16}6,5,{8}7-3[8:1],8,1,2h[4:1],
,6,{16}3,4x,6,5x,2,3x,7,6x,1,2x,{8}8,
1-5[8:1],5w1[32:3],{4}1<2[16:4],,Cf,
||Part
7
{16}1bp4[8:1],,,2,1,,3>5[8:2],,,,5x-1[8:1]*-2[8:1],,5x,,,,,,
{16}3,8,4,7,5,6,2,1,3,8,4,7,5,6,4-8[8:1],,
{16},3,4,,2x-7[8:1]*-5[8:1],,,,2bx<4[4:1],,,,1b/2b,,,,
{16}1x,8,7,6,1x,2,3,4,8x,7,6,4,3,2,
{16}1V37[16:3],,,5x,,,4bx<8[16:3],,,,8bx,1,2,3,4,,
{16}8V62[16:3],,,4x,,,5bx>1[16:3],,,,1bx,8,7,6,5,,
{16},,2x,2,4x,4,3x,3,7x,7,5x,5,6x,6,1x,8,
{16}2b,7,2,7,3b,6,3,6,4b,5,4,5,{24}4xb,3,2,8,7,6,
{16}5bx/4x,,8bxz4[8:1]/1bxs5[8:1],,3b/6b,,8b/1b,,,,,,6x/1x,7x/2x,8b-4[8:1]/3b-8[8:1],,
{8},8/3^6[8:1],,1-5[8:1],1,7,8,
{8}1-5[8:1]/4-8[8:1],,1V36[32:7]/4,,6x,7x,8xv5[8:1]*^3[8:1],,8b,,,
{8}64,3b^8[8:1]/7b-4[8:1],,3bqq4[16:8]/7,,
{16}5xpp4[16:4],6x,7x,,,,,,,,1w5[8:1],,,,
1x,,,,
{16}2-4[8:1]/6,,5-8[8:1],,2,,5qq4[16:3],,,,1,,8,,7pp8[16:3],,,,3,,4,,5pp4[4:1],,,,4,,3,,2,,1b^4[8:1],,,,17,,6x,,5b-1[8:1],,,,56,,7,,8b^5b[8:1],,2b^5[8:1],,8b,,2b,,
{16}8x,7x,6x,4x,3x,2x,1xbpp1[4:1]/5xb,,
||Part
8
{32},
,,,,,,,,,,,{8}8-4[8:1],3x>8[8:1],8<5b[8:1],3,
{4}4xqq5[4:1],{8}5,6,7,8,{4}3>8[8:1]/8<5[8:1],
8bp2[16:3],{8}5x,7,{4}1b-6b[8:1]*-4b[8:1],1b,
{16}3x/5xh[8:1],2,{8}1-5[8:1],4,1/6,8qq1[4:1],3,8,2>5b[8:1],
3,4,,2q6b[8:1],3,4,,2q7b[8:1],
3,4,,2qq8b[8:1],3,4,5-1[8:1],6,5xbqq5b[4:1]*pp5[4:1]`Cf,
{16},,,,,,,,2x,3,4,5,6,7,8,1,
{16}26,,3,5,1,,6,4,8,,3,5,1,,6,4,
{4}8<1[4:2],B7/E7/B6,E5,B3/E3/B2,
{8}A7,,,A3,,,,,
{4}4qq4[2:1]*pp4[2:1],,,,
{8}A6,,,A2,,,,,
{4}5pp5[2:1]*qq5[2:1],,,,
{8}D2,,,D6,,,,,
{8}3h[2:1]/7h[2:1],,,,,,3x/7x,,
{8}1p4[4:1],,,6,6,,8q5[4:1],1,
{8}2,2,{16},,,,37,,,,6,4,6,,
||Part
9
{8}8b<5[8:1],8,4-1[8:1],4,8,8h[8:1],{16}1,7,2,6,
{8}3b-8[8:1],4,5b-2[8:1],6,7b-4[8:1],8,1b-6[8:1],2,
3b-7[8:1],4,5b-1[8:1],6,7b-3[8:1],8,1b,1,
{16}2b,4,3,5,4b,6,5,6,8b,7,1,6,2b,5,3,4,
{8}2b/5x,7b/8x,5x/4b,2x/1b,7bx/4b,1bx/6b,3b/4bx,8b/Cf,
,,,,,,,1b/E7,
,,,,,,,3b/C,
,7b/E3,{32},,,,5x,6x,7x,8x,1x,2x,3x,4x,{8}5x/B1f/E1/E2,,7,
7/3,8-4b[12:1],1,8x/2-5b[12:1],,8/2x,{16},,8-4[8:1],7,
{8}6-3[8:1],8x,6x,{16}2x,2x,,8x,8x,,3,7,3,,
{8}8,5pp5[4:1]/7,6/4,3/5qq5[4:1],,2,1,8,
,7/1>7[16:3],2/8,1/3,,1,8w4[8:1],7/1,
{4}8,{8}2-6[8:1],6,2,8-4b[8:1],4V62[4:1]*V62[4:1],8,
2V48[4:1],4xw8b[8:1],4x,B4f/E5/E4,,,{16}3,3,,6,6,5,7,4,8,3,1,2,
{8}8h[8:1],{32}2,1,8,7,6,5,4,3,
||Part
10
{8}2b<7[8:1],4,2,
{16}6h[8:1],,5,7,3,6,1<3[4:1],,24,,1b,,,,8,8,2,,7>2[8:1],,2>5[8:1],,5<7[12:1],,,,
{24}8b,1,2,3,4,5,6,7,8,1,,,3x/4xb<6[8:1]*pp4[4:1],,,,,,4bqq4[4:1]*>2[8:1],,,,,,,,,
{16},,,,5,,6,4,7,,3,6,2,5,
{8}1h[8:1],4-8[8:1],4,2-5[8:1],2,7,7,6<1[8:1],1>4[8:1],6b/2,,1<3[4:1],
{16}5p1[8:1],,1b,,,,,,8,,1b/7b,,
{8}57,46,35,
{16}24,2,5,,36,,47,,
{32}8b-4[8:1],,,,4bw8[8:1],,,,
{8}8b,,,7-5[8:1],
{16}5,5,
{8}7b>2[8:1],4,7,
{16}3h[8:1],,4,2,5,2,8>6[4:1],,75,,8b,,,,1,1,7,,2<7[8:1],,7<4[8:1],,4>2[12:1],,,,
{24}1b,8,7,6,5,4,3,2,1,8,,,6xpp5[4:1]/4bqq5b[4:1],,,,,,4b/6b,,,,,,D5/A5f/D6,,,
{16},,,,35,,6,4,7,,2,8,3,,46,,7-1[8:1],,56,,7,,2,2,8-4[8:1],,3,,8,,2,,
1-6[8:1],,25,,1,,4,4,8>3[8:1],,3<6[8:1],,8b,,
{24}7b,8,1,2,3,4,5,6,7,8,1,2,3,4,5,
{16}16,,,,7,7,5,6,4h[8:1],,6,6,3h[8:1],,7,7,2h[8:1],,8,8,1h[8:1],,4,4,
2h[8:1],,5,5,3h[8:1],,6,6,4h[8:1],,6h[8:1],,3,5,2,6,
||Part
11
{4}1b,6-1[8:1],5>2[8:1],8x<1[2:1]*>7[2:1],8,{8},,,,
3,4,6/5,7,4,5b/B1/B2/E2,,B7/B6/E7/3bw7b[8:1],,A3f/E3/E4,,
{16}1,2,3,4,{8}5/8p2[16:3],,1,{4}1>7[8:3],
{8}1h[4:1],,,{16}1,2,{4}3-5[8:1],1<6[4:1],
6x>3[4:1],3xp6[4:1],8x,{8}1,8/2h[2:1],,
{16}3,,3,4,5<8[8:1],,,,2,3,{4}4,
{16}7,6,5,4,3,2,{8}4-7[8:1]/1-6[8:1],,,,,
B7,,,B2,,B5,(141){4}B4,
(130){2}7h[2:1],(99){4}5h[#1.316116],(84.5),
{1}4pp4[4:3]*qq4[4:3],,,,
E
