&title=LEMON MELON COOKIE
&artist=TAK feat. 初音ミク
&artistid=1010
&des=Muz
&whole_bpm=180
&demo_seek=40.2
&demo_len=19
&first=0.347
&shortid=1000010
&genre=niconicoボーカロイド
&genreid=102
&cabinet=DX
&version=maimai DX BUDDiES PLUS
&lv_2=3
&des_2=Muz
&lv_3=7
&des_3=Muz
&lv_4=11+
&des_4=Muz
&lv_5=13
&des_5=Muz
&inote_2=
(180){4},,,,,,{2}5x,
4,4,
{1}4,
{2}5,5,
{1}5,
4h[2:1],
4h[2:1],
{2}5x,{8}5x,,,5x,
,,,,,,,,{1}4-1[4:5],
,5-8[4:5],
{4},,,,,E2f,
{8},Cf,,E8f,
,,,,{2}Ch[1:2],
{4},,,,,,,,7x,
7,{2}7,
{4}8,8,{2}8,
{4}1,1,{2}1,
{4}2,2,{2}2b,
{4}3x,3,{2}3,
{4}4,4,{2}4,
{4}5,5,{2}5,
{1}6h[2:1],
B6,
B5,
B4,
B3,
{4}2x,2,{2}2,
{4}1,1,{2}1,
{4}8,8,{2}8,
{4}7,7,{2}7b,
{4}6x,6,{2}6,
{4}5,5,{2}5,
{4}4,4,{2}4,
{1}3xh[2:1],
2-7[4:5],
,6-3[4:5],
{4},,,,4x,
4,{2}4,
5/4,5/4,
6,6,
7,7b,
{4}8x,8,{2}8,
{4}1,1,{2}1,
{4}2,2,{2}2,
{1}3h[2:1],
{4}4,4,{2}4,
{4}5,5,{2}5,
{1}6h[4:3],
{4}5h[#1],,,,,,,,,,{2}4x/5x,
{1}3-8[4:5],
,7-4[4:5],
,3-8[2:3],
{2},,7x,
7x,
6x,6x,
{1}5h[2:1],
5h[2:1],
{2}4x,4,
{1}4h[2:1],
{4}3x,3,{2}3,
{4}2,2,{2}2b,
{4}1,1,{2}1,
{1}8h[2:1],
B7,
B6,
B5,
B4,
B3,
B2,
B1,
B8,
{2}6x,6,
{1}6h[2:1],
{2}5,5,
{1}5b,
{8}6b,,,,,,,5xh[8:3],
,,,,,,,,{2}4,
4,
3,3,
{4}2x,2,{2}2,
{1}1h[2:1],
{4}8x,8,{2}8,
{4}7,7,{2}7,
{4}6,6,{2}6,
{1}5h[2:1],
4-1[4:5],
,8-5[4:5],
{4},,,,4x,
4,{2}4,
4/5,4/5,
{1}B5,
B6,
B7,
B8,
Ch[4:7],
{4},,,,1x,
1,{2}1,
{4}8,8,{2}8,
{4}7,7,{2}7,
{1}6h[2:1],
{4}5,5,{2}5,
{4}4,4,{2}4,
{1}3h[4:3],
4h[4:3],
E
&inote_3=
(180){4},,,,,,{2}5xh[2:1],
{4}4,4,5x,5x,
4,4,3,3xh[4:1],
5,5,4bx,4,
5,5,4,4h[4:1],
5,3h[4:1],5,4h[4:1],
6,5h[4:1],4h[4:1],6h[4:1],
4x,4x,{8}5,4x,,4x,
,6,5,6,5,,,4xh[8:3],
,,{4}3,2,2,
1,1,{8}8,8bx,,7bx,
,6x,{4}6,5,5,
{2}4h[4:1],{8}5,4,5,4,
{4}5,E7f,{8},Cf,,E3f,
,,,,4,5,4,5,
{1}4,
{4},,8x,8b,
6/5,5/6,4,6/5,
6/5,4,6/5,6/5,
5/6,6/5,4,6/5,
6/5,4,3x,3x,
3/4,4/3,5,3/4,
3/4,5,5,5,
4/3,3/4,5,3/4,
B2,B1,B8,B7,
,5,5,5,
6,6,{2}6,
{4}8,8,7,8,
{2}1b/2,4-2b[8:1],
{4}8/1,8/1,7/6,7/6,
5/4,5/4,3/2,2/3,
{1}1qq4[4:3],
{4}5,6,7,8,
1/2,2/1,3/4,3/4,
6/5,5/6,7/8,7/8,
{1}6qq2[4:3],
{4}1bx,8,7,6,
5/4,4,3,3,
5,5,6,6,
4h[4:3]/6h[2:1],,,6,
{1}5pp8[8:5]/4qq1[8:5],
{4}2x,2,3,3,
4/5,6/3,5,4,
3/5,6/2,1/7,6/2,
5x/3,5x,5x,5bx,
6/4h[2:1],6,5,{8}4,5xh[8:5],
,,{4}4,3,2,
7/1h[2:1],7,8,{8}8,1bx,
,2bx,,3bx,,5,{4}4,
3/5h[2:1],3,4,{8}5,4xh[8:5],
,,{4}5,6,7,
8,8,8,8,
8qq5[0.3333##1]/1pp4[0.3333##1],,,,,,,,,,4,
4,
{2}5-7[4:1],4-2[4:1],
5-8[4:1],4-1[4:1],
{4}8,8,7,7,
{2}6/5,{4}4,4,
{2}5-7[4:1],4-2[4:1],
{4}5,5,4,6/5,
4/3h[4:5],5,6,7,
8,1,2,3,
{2}4-7[4:1],5-2[4:1],
4-8[4:1],5-1[4:1],
4bxh[8:1],{4}5,5,
{2}4/6h[8:3],5/3h[4:1],
{4}3,3,4,4,
5x,5x,6b,6b,
4,3,2,1,
{2}8/7b,1-3[4:1],
{4}8,8,{2}8-5[4:1],
{4}1,1,{2}1-4[4:1],
{4}8,8,{2}8-5[4:1],
{4}1,1,{2}1v4[4:1],
{4}5,5,4/6,5,
4,5/3,5/3,3/5,
4,5/2,5,4/7,
B7,B8,B1,B2,
,5,5,5,
6,6,{2}6,
{4}8,8,7,8,
{2}1b/2,{4}5/4,5b/4b,
,,7/6,7b/6b,
,,{2}4/5-8[4:1],
{4}1,1,2,2,
3,3,4,4,
5/6,5/6,7/8,7/8,
1,2,3,4,
5/6,6/5,7/8,7/8,
2/1,1/2,3/4,3/4,
{1}2qq6[4:3],
{4}5bx,4,3,2,
1/8,8,7,7,
1,1,2,2,
8h[4:3]/2h[2:1],,,2,
{1}8qq5[8:5]/1pp4[8:5],
{4}6x,6,7,7,
8/1,2/7,3/6,5/4h[4:5],
,,,,,,5/4,
6/5,
{1}4/3qq3[4:3],
4pp4[4:3],
{4}3,2,1,8,
1x/7,1x,1x,1bx,
2/8h[2:1],2,1,{8}8,1xh[8:5],
,,{4}8,7,6,
3/5h[2:1],3,4,{8}4,5bx,
,6bx,,7bx,,1,{4}8,
7/1h[2:1],7,8,{8}1,8xh[8:5],
,,{4}1,2,3,
B2,B1,B8,B7,
{1}5pp5[8:5]*qq5[8:5],
E
&inote_4=
(180){4}5,5,4,4,
5,5,{2}4xh[2:1],
{4}5,5,{8}5xh,4,5,4,
6,5,6,5,{4}6,5h[4:1],
4,4,{8}4bxh,5,4,5,
3,4,3,4,{4}3,2,
2h[4:1],4h[4:1],5h[4:1],7h[4:1],
5h[4:1],4h[4:1],2h[4:1],1,
8/7,8/7,{8}5,4/3,,4/3,
,B5,B3,B7,B1,C,B5,6xh[4:1],
,5,4,4,3,3,2,2,
1,1,8,8,7,6x/5x,,4x/3x,
,4,5,5,6,6,7,7,
{2}8-2[8:1],{8}3,4,3,4,
{4}2/5,B7/B6/E7f,{8},B8/B1/E1f,,B2/B3/E3f,
,,,,6,5,6,5,
{4}7/4,{16}E7,B6,{8}B5,,B1/B8/E1f,{16}E3,B3,{8}B4,
,E7,B6,B5,{4}4x,3x/5x,
7/8,7/8,6/1,7/8,
7/8,6/1,7/8,8/7,
6/8,8/2,8/6,8/2,
7/1,5/3,{2}7/1V73[16:3],
{4}2x/1x,2/1,3/8,2/1,
2/1,3/8,2/1,1/2,
3/1,1/7,1/3,1/7,
6h[4:3]/E2,B2,B3,E4,
5,6,7,8,
5h[4:1],6h[4:1],{2}7,
{8}5,6,7,8,{4}5,8/7,
{8}2bxh[8:1]/1bxh[8:1],,,5/4,{2}5-8b[8:1]/4-1b[8:1],
{4}7-5[8:1],8-4[8:1],7-5[8:1],8-4[8:1],
7-5[8:1],8-4[8:1],7-5[8:1],8-4[8:1],
{8}7,7,6,6,5,5,4,4,
{2}5/3>8[8:1],4/6<1[8:1],
{4}2-4[8:1],1-5[8:1],2-4[8:1],1-5[8:1],
2-4[8:1],1-5[8:1],2-4[8:1],1-5[8:1],
{8}2,2,3,3,4,4,5,5,
{4}6/8b,7/1,{8}8/2,8/2,3/7,3/7,
{4}1w5[8:1],Cf,{8}3,4,3,4h[2:1],
,2,1,8h[8:5],,4,5,6,
{4}7h[4:3],B1,B3,B5,
{2}8-4[8:1]/7-5[8:1],1-5[8:1]/2-4[8:1],
8/7p3[8:1],1/2q6[8:1],
{1}5<4[8:5]/4>5[8:5],
{8}2/8,7/3,2/8,7/3,8/2,7/3,2/8,3/7,
{4}1x,1x,1x-5b[8:1],Cf,
{8}4/6,7,5,7,{4}6/4h[4:1],{8}5,5xh[4:1],
,2,4,2,{4}3/5,4/6,
{8}5/3,2,4,2,{4}3/5h[4:1],{8}4,4xh[4:1],
,3xh[4:1],,2xh[4:1],,1,8,7,
4/6,7,5,7,{4}6/4h[4:1],{8}5,5xh[4:1],
,2,4,2,{4}3/5,4/6,
{8}E6,B6,B7,E8,E2,B2,B3,E4,
{4}B6/E6/B5,B8/E1/B1,B3/E4/B4,Ch[1:1],
{8},,,,,,,,,,,,2,
1,{4}2,
{2}8-6[8:1]*-2[8:1],8>2[8:1]*<6[8:1],
8-5[8:1]*-3[8:1],8<5[8:1]*>3[8:1],
{8}8,8,1,1,7,7,2,2,
{2}6-2[8:1]/3-7[8:1],{8}4,5,{4}4,
{2}5-7[8:1]*-3[8:1],5-8[8:1]*-2[8:1],
{8}1,1,8,8,{4}7/3,6/4,
5bpp5qq5b[2:3],B4,B3,B1,
B7,B6,B4,B3,
4x,{8}3,3,{4}3,{8}4,5,
{4}6,{8}7,7,{4}7,{8}8,8,
1,1bx,,2,1,8,7,6,
6h[4:1],,,5,{2}4h[4:1],
{8}7x,7,5,5,4,4,2,2,
8x,8x,6,6,{4}4b,4b,
{8}5,5,3,3,6,4,6,4,
5,,,5,{4}5x,6x/4x,
{8}6,6,7,7,{2}8-5[8:1],
{8}3,3,2,2,{2}1-4[8:1],
{8}6,6,7,7,{2}8-5[8:1],
{8}3,3,2,2,{4}B6f/E7/E6,A6f/E7/E6,
2x/1x,2/1,3/8,2/1,
2/1,3/8,2/1,1/2,
3/1,1/7,1/3,1/7,
6h[4:3]/E2,B2,B3,E4,
5,6,7,8,
5h[4:1],6h[4:1],{2}7,
{8}5,6,7,8,{4}5,8/7,
{8}1b/2b,,,5/4,{2}5-8[8:1]/4-1[8:1],
{8}6x/7x,,,7/6,7-2[8:1]/6-3[8:1],,,E3f,
,Cf,E7f,5x,{2}5xpp5[4:1]*qq5[4:1],
{4}A5,A6,A7,A8,
A1,A2,A3,A4,
7-5[8:1],8-4[8:1],7-5[8:1],8pp4[2:1],
{8},A7,E7,E6,{4}A5,{8}B4,B3,
{4}2-4[8:1],1-5[8:1],2-4[8:1],1-5[8:1],
2-4[8:1],1-5[8:1],2-4[8:1],1-5[8:1],
{8}2,2,3,3,4,4,5,5,
{4}8b/6,7/1,{8}2/8,8/2,3/7,7/3,
{4}5w1[8:1],Cf,{8}7,8,7,8h[2:1],
,6,5,4h[8:5],,8,1,2,
{4}3h[4:3],B5,B7,B1,
{2}4-8[8:1]/3-1[8:1],5-1[8:1]/6-8[8:1],
4/3p7[8:1],5/6q2[8:1],
{1}1>8[8:5]/8<1[8:5],
{4}E1,E2,E3,E4,
E5,E6,E7,E8,
{2}E1/B1/E2,E6/B5/E5,
{4}E8/B7/E7,E1/B1/E2,E3/B3/E4,E6/B5/E5,
{8}E1,B1,B2,E3,E5,B5,B6,E7,
{4}8x,8x,8x-4b[8:1],Cf,
{8}5/3,2,4,2,{4}3/5h[4:1],{8}4,4xh[4:1],
,7,5,7,{4}6/4,5/3,
{8}4/6,7,5,7,{4}6/4h[4:1],{8}5,5xh[4:1],
,6xh[4:1],,7xh[4:1],,8,1,2,
5/3,2,4,2,{4}3/5h[4:1],{8}4,4xh[4:1],
,7,5,7,{4}6/4,5/3,
{8}E6,B6,B7,E8,E2,B2,B3,E4,
{4}E6/B6/B5,B8/B1/E1,{8}B3,E4,{4}B4,
E
&inote_5=
(180){4}5h[8:1],4h[8:1],5h[8:1],4h[8:1],
5h[8:1],4h[8:1],{2}5x/3xh[2:1],
{4}6,6,{8}6xh,5,6,5,
6,4,6,4,{4}6,6x/4x,
3,3,{8}3bxh,4,3,4,
3,5,3,5,{4}3,3x/5x,
4/6,{8}6q2[8:1],5,{4}6,{8}3p7[8:1],4,
{4}3,{8}1pp4[8:3],8,{4}1,7,
3x/5x,2x/6x,{8}1x/7x,8xw4[8:1],,8/Cf,
,6,7,8,A1/E2,A8/B8,E6/A5,B4/A4,
3x-1[8:1],{16},,,,7,8,7,8,{8}7,{4}6/1,
{8}7-5[8:1],7,1-5[8:1],1,8,8x,,6x/4xqq4[4:1],
{16},,,,,,6,5,6,5,{8}6,7/4,3/8,
{2}2-6[8:1]/1-5[8:1],{8}4,4,3,3,
{4}2/5,B7f/E8/E7/A7,{8},E5f/B4/B5/D5,,E3/B2f/E2/A2,
,,,,5,5,6,6,
{4}7/4,{16}2x,1x,{8}2x,,3x/6x,{16}5x,4x,{8}5x,
,7x,8bx,1x,{4}2-4b[8:1],2bx,
8<4[4:1],4>8[4:1],8V64[4:1],4V28[4:1],
8<4[4:1],4>8[4:1],8V64[4:1],4V28[4:1],
8<4[4:1],4>8[4:1],8V64[4:1],4V28[4:1],
8s4[4:1],4,8b,{32}D1,A1,D2,A2,D3,A3,D4,A4,
{8}7-5[8:1],7,2-4[8:1],2,8-4[8:1],8,1-5[8:1],1,
8-6[8:1],8,2-4[8:1],2,7-5[8:1],7,1>3[8:1],1,
8p4[8:1],8,1q5[8:1],1,8<6[8:1],8,1,1,
{4}1v4[8:1]/5-8[8:1],1/5,{8}3-8[8:1]/7v4[8:1],3/7,,,{4}5,
6,7,8,
{8}5,4,6,4,{2}5,
{8}8,1,7,1,{4}8,1>4[8:1]/7v4[8:1],
{8}1b/7b,A4f,,5x/6x,{2}5xp8b[8:1]/6xv1b[8:1],
{8}7-3[8:1],7,2-8[8:1],2,6-4[8:1],6,3-7[8:1],3,
5-1[8:1],5,2-4[8:1],2,6-8[8:1],6,1-5[8:1],1,
1x/8x-4[8:1],7,8x/1x-5[8:1],2,1x/8x-4[8:1],7,8x/1x-5[8:1],2,
1x/8x,7,6,5,{4}4pp7[4:1]/3-1[8:1],4x/3x,
{8}8-2[8:1],8,7-5[8:1],7,8>3[8:1],8,7<4[8:1],7,
8-4[8:1],8,7-3[8:1],7,2-6[8:1],2,1<6[8:1],1,
1x/2x>5[8:1],3,2x/1x<6[8:1],8,1x/2x>5[8:1],3,2x/1x,8,
{4}7w3[8:1],7/Cf,{8}1-7[8:1],2-4[8:1],1-5[8:1],2,
{4}1x,4/3qq8[4:1],{8}4,5,6,1/7qq7[4:1],
,2,1,8>3[8:1],,4,5,6,
{2}3x<6[8:1]/7xv4[8:1],6x>3[8:1]/2xv5[8:1],
3x<6[8:1]/7xp2[8:1],6x>3[8:1]/2xq7[8:1],
{8}8/2,2,7/1,7,5/3,3,6/4,6,
{4}E6f/E4f,B6/B3,B7/B2,E8/E2,
{8}1/8,6/5,8/1,3/4,1/8,6/5,8/1,4/3,
{4}8x/1x,1x,{8}1x-5b[8:1],7,{4}1bx/Cf,
{8}7-5[8:1],8-4[8:1],7p3[8:1],8,{4}7,{8}2,1xh[4:1],
,2,1-7[8:1]*-6[8:1],2,{4}1-3[8:1]*-4[8:1],1,
{8}8-2[8:1],7-3[8:1],8q4[8:1],7,{4}8,{8}6,5x-3[8:1]*-2[8:1],
,5-7[8:1]*-8[8:1],,5,,5,4,3,
2-4[8:1],1-5[8:1],2q6[8:1],1,{4}2,{8}7,8xh[4:1],
,7,8>3[8:1]*<5[8:1],7,{4}8v5[8:1]*v3[8:1],8,
{8}6,6,7,7,6,5w1[8:1],4/6,5/Cf,
{4}B1,C,{8}B5,B4,{4}Ch[1:1],
{1},{4},,{32}A4,
D5,A5,D6,A6,D7,A7,D8,A8,D1,A1,D2,{8}A2,
{2}4-6[8:1]/3-5[8:1],4v5[8:1]/3v6[8:1],
4v5[8:1]/3p6[8:1],3>6[8:1]/4p5[8:1],
{8}4,4,3,3,2,2,1,1,
{2}8V64V28[2:1],8p8[4:1],
5<8[8:1]*>2[8:1],1-6[8:1]*-4[8:1],
{8}3x/7x,6/2,5/1,4/8,{4}7V13[16:3]/3V57[16:3],3x/7x,
4xh[4:5],B6,B8,B2,
A1f,A8f,A7f,A6f,
A5/B5/E5,{8}B2,E3,{4}B3,{8}B5,E6,
{4}A6,{8}D7,E7,{4}B7,{8}E1,B1,
E2,A1f/D2,,D1,A8,D8,A7,D7,
A6/B6,,,E6/B5,{2}B4/E4,
{8}5x/6x,6,4/5,5,3/4,3,4/5,4,
6x,6x,5,5,{4}4b,4b,
{8}1/3,1,2/8,8,7,6,5/4pp4[8:3]*qq4[8:3],3,
,,,B4,{4}Cf,B8,
{8}1,2,1qq1pp1[2:1],2,,,,,5,
4,5pp5qq5[2:1],4,,,,,2,
1,2pp2qq2[2:1],1,,,,,4,
4,5,5,{2}8V64[8:1]*V24[8:1],
{8}6,7,8-5[8:1],1,{4}2/8q4[8:1],8/6,
{8}3,2,1-4[8:1],8,{4}7/1p5[8:1],1/3,
{8}6,7,8-5[8:1],1,{4}2/8q4[8:1],8/6,
6<8[8:1]/5q1[8:1],6p2[8:1]/5>3[8:1],6<8[8:1]/5q1[8:1],6/5,
3,4,5,6,
{8}8,7,1,7,{2}8,
{8}4,5,3,6,{4}4qq3[16:3]/5pp6[16:3],5x/4x,
{8}5bx/4bx,,,5/4,{2}5-8[8:1]/4-1[8:1],
{8}7x/6x,,,7/6,7-2[8:1]/6-3[8:1],,,E3f,
,Cf,E7f,6/5,{2}6v1b[8:1]/5-2b[8:1],
{8}7/8,7,7/1,7,6/2,6,6/3,6,
5/4,{16}8,7,{8}8,{16}2,1,2,1,{8}2,8/3,7/4,
6/5p1[8:1],4,5/6q2[8:1],7,6/5>2[8:1],4,6/5,7,
8/1,2-4[8:1],8qq5[8:3],2,{4}8,{8}1,2,
3/4q8[8:1],5,4/3p7[8:1],2,3/4<7[8:1],5,3/4,2,
1/8,7,6/5,4,3/2,1,8/7,6,
5/4q8[8:1],3,4/5p1[8:1],6,5/4,3,2,1,
{4}8pp3[4:1]/7-5[8:1],8x/7x,{8}4,5,6,7,
{4}8bw4[8:1],8,{8}7,8,1,8/2pp2[4:1],
,7,8,1<6[8:1],,5,4,3,
{2}6x>3[8:1]/2xv5[8:1],3x<6[8:1]/7xv4[8:1],
6xpp5[32:7]/2xqq5[32:7],4bxp1[32:7]*pp7[32:7],
{4}8xp4[8:1],1/8q4[8:1],7/8qq5[4:1],1/8,
2b,3,5/4,6,
4/5h[4:7],B4,B3,B2,
B1,B8,B7,B6,
4,{8}5,4,,4,5,4,
{4}6h[4:1],5h[4:1],4h[4:1],3h[8:7],
{8}2,2,1,1,8,8,{16}7/3,2/6,{8}1/5,
{4}8x,8x,{8}8x-4b[8:1],2,{4}8bx/Cf,
{8}2-4[8:1],1-5[8:1],2q6[8:1],1,{4}2,{8}7,8xh[4:1],
,7,8-2[8:1]*-3[8:1],7,{4}8-6[8:1]*-5[8:1],8,
{8}1-7[8:1],2-6[8:1],1p5[8:1],2,{4}1,{8}3,4x-6[8:1]*-7[8:1],
,4-2[8:1]*-1[8:1],,4,,4,5,6,
7-5[8:1],8-4[8:1],7p3[8:1],8,{4}7,{8}2,1xh[4:1],
,2,1<6[8:1]*>4[8:1],2,{4}1v4[8:1]*v6[8:1],1,
{8}3,3,2,2,3,4w8[8:1],5/3,4/Cf,
B8,C,{4}B4,{8}B6,C,{4}B2,
E
