&title=Nijirate Fanatics
&artist=Yukitani
&first=-0.049
&des=
&lv_5=18+
&des_5=GDtape
&inote_5=
(210){4},{8},,8<6[8:1],1,2>4[8:1],1,
8<6[8:1],1,2>4[8:1],1,8<6[8:1],1,2>4[8:1],1,
8<6[8:1],1,2>4[8:1],1,8-4[8:1],1,2-6[8:1],1,
8-4[8:1],1,2-6[8:1],1,8-4[8:1],1,2-6[8:1],1,
8-4[8:1],1,2-6[8:1],1,7<4[8:1],8,1>4[8:1],8,
7<4[8:1],8,1>4[8:1],8,7<4[8:1],8,1>4[8:1],8,
7<4[8:1],8,1>4[8:1],8,7v5[8:1],8,1v3[8:1],8,
7v5[8:1],8,1v3[8:1],8,{2}4b,
{4},,2,{16}3,,,5,
,6,{64},,,,,,,,2,3,5,6,2,3,5,6,2,3,5,6,2,3,5,6,2,3,5,6,2,3,5,6,2,3,5,6,2,3,5,6,2,3,5,6,2,3,5,6,2,3,5,6,2,3,5,6,
2,3,5,6,2,3,5,6,2,3,5,6,2,3,5,6,2,3,5,6,2,3,5,6,2,3,5,6,2,3,5,6,2,3,5,6,2,3,5,6,2,3,5,6,2,3,5,6,2,3,5,6,2,3,5,6,2,3,5,6,2,3,5,6,
{4}1h[4:1],4,1/7-4[4:1],8,
1-6[4:1],2,3-8[4:1],4,
5-2[4:1],6,7-4[4:1],8,
1-6[4:1],2,3-8[4:1],4,
5-2[4:1],6,7v4[4:1],8,
1v6[4:1],2,3v8[4:1],4,
5v2[4:1],6,7-5[8:1],8-4[8:1],
1-5[8:1],2-4[8:1],{2}2b/8b,
{32},,,,,,,,,,,,,,,,1,2,3,4,5,6,7,8,1,2,3,4,5,6,7,8,
{2}1w5[8:1],{8}7-3[8:1],3V58[4:1],,,{2}1w5[8:1],
{16}7,3,6,4,5,3,6,4,
{8}5w1[8:1],5,{4}5b,7<4[8:1],{8}7,3,
2>5[8:1],2,{4}2,{16}7,5,6,5,{8}7h[4:1],4,
4h[4:1],5,{4}5,1-5[8:1],{8}1,6,
7p3[8:1],7,{4}7,{16}2,4,3,4,{8}2h[4:1],6,
6h[4:1],8,{4}8,5-1[8:1],{8}2-6[8:1],3,
2/8-4[8:1],7,{4}8,{16}3,4,2,5,{8}3,6-1[8:1],
6,2-5[8:1],{4}2,8-4[8:1],{8}3-8[8:1],2,
3/6-1[8:1],5,{4}6,{16}2,6,3,7,2,6,3,7,
{24}2,1,8,7,6,5,{4}4/8,{8}5/6-1[8:1],{16}6,5,{8}6,3,
2-6[8:1],8-4[8:1],2,8,3,{16}2,5,{8}1,{16}7,4,
{8}8,1,2,3,4/3-8[8:1],{16}3,4,{8}3,6,
7-3[8:1],1-5[8:1],7,1,6,{16}7,4,{8}8,{16}2,5,
{8}1,8,7,6,{16}5-1[8:1],3,5,3,{8}5,2,
8-4[8:1],1-5[0.2857##0.1429],8,1,6,(208.1154){16}7,7,(206.2308){8}5,(204.3462){16},2,
(202.4615)2,4,(200.5769),5,(198.6923),6,(196.8077),7,(194.9231),1,(193.0385){24},,2/8,(191.1538){8},(189.2692)7/4,
(187.3846)6/3,(185.5)5/2,(183.6154)4/1,(181.7308)8/5,(179.8461)7/4,(177.9615){16}1b,6,(176.0769)8,5,(174.1923)7,4,
(172.3077)6,3,(170.4231)5,2,(168.5385)4/3,4/3,(166.6539)4/3,4/3,(164.7692)4/3,3/4,(162.8846)4/3,4/3,(161){4}8bz4[2:1]*-5-8-5-8-5-8[2:1],
,,,1bq8[8:1]/8bp1[2:1],
{8},,,,8b-5b[0##0.1863]*z4b[0##0.1863],8b-2b[0##0.1863]*<7-3b[0##0.1863]*<6-4b[0##0.1863],8b-5b[0##0.1863]*-3b[0##0.1863]/6b-2b[0##0.1863],8b-5b[0##0.1863]*>5b[0##0.1863],
{4}8bv5b[0##0.1863]*v2b[0##0.1863],{8}1,1,2,2,3/3h,3/3h,
4/4h,{16}5,5,6,5,6,5,7,4,6,4,5,4,{8}6/3,
2,4/3,5,7/6,2,1/4,7/5,8/3,
5/1,5/4/3,8/6/2/1/5,8-5[0##0.1863]*z4b[0.9317##0.1863]*p2[0##0.1863],,8-5[0##0.1863]*z4[0##0.1863]/8-2[0##0.1863]*<7-3[0##0.1863]*<6-4[0##0.1863]/8-5[0##0.1863]*>5[0##0.1863]/8v5[0##0.1863]*v2[0##0.1863]/6-2[0##0.1863]/8-5[0##0.1863]*-3[0##0.1863],,,,,3,
4/6,6/8,6/1,4/2,3/5,
4/7,2-7<6-3>2v7[8:3],{4},,,{20}2,
4,3,5,4,6,{16},{80},{64}2,3,3,2,3,3,3,2,2,3,3,2,3,3,2,2,,,,,{16}2v5[0.1863##0.1863]/8v5[0.1863##0.1863],,,,,5,
3,4,2,,,3,4,3,5,3,4,3,2,3,1,
3,8,3,7,3,6,{8}3,{32},,,,E8f/E4f,B8`B4,{16}C,,,{8}1-5[0##0.1863]*<5[0##0.1863]*>4[0##0.1863],
3V14[0##0.7453]*pp4[0##0.7453],,,,,6qq1[0##0.7453]/4pp1[0.7453##0.559],{16},,,,,,,8b,
,7b,,,,4,4,7,5,4,6,4,
7,5,6,1,{4}8,{8},,Ch[8:1],{16}6,5,
7,2,{8}6-3[0##0.6522],{16},,,,,1,1,2,5,4,{8}6-8[0##0],
,1-6[0##0.0932]*-4[0##0.1863]/7-3[0##0.1863],{16},1-4<6b[0##0.2795],,,,,,,,,,,{8}1b/D7f/7b-2>3-6<7b[0##0.7453],
4b/E7f,Cf,E3f,D3f,{16}4,5,6,5,6,7,
8,1,2,3,4,5,4,3,4,3,2,1,8,7,6,5,
4x,,,1v4[0##0.0932]/7-1[0##0.0932],{8}8-5-3[0##0.0932],{16}2,2,2,2,2,2,{4}2,
{16},,3,4,,,E8f,B4f,A6f,A1f,{8}Cf,{4}8w4b[16:0],
,6qq1[1.9565##0]/4pp1[1.9565##0]/5-1-5-1-5-1-5-1-5-1-5-1b[0##1.9565],{16},,,,,,,,,,,,,,,,,A1f,
,,,,,,{4}1V74[0##0.1863],
8V27[0##0.3727]/2pp4[0##0.3727],{2}7>2v3<6>5<6>3<4>3<6[0##1.3043],
{32},,,,,,,,,,,,,,,,1/8,7/2,6/3,5/4,{8}2b/1,,,,,{4}1-4<6[0##0.1863],
3pp4-1[0##0.1863]/2-7[0##0.1863]/8<5[0##0.1863],7>3v5[0##0.3727],
{8}5bx,,,,,,,1-5[8:1],
8-6[8:1],1-3[8:1],{16}8-4[8:1],5,1-5[8:1],6,8,3,,4,,5,{48},,,,,,{24}7,
6/D7,7,6/D7,7,6/D7,7,6/D7,7,6/D7,7,6/D7,7,6/D7,7,6/D7,7,6/D7,{4}7,
{8}1-5[0##0.3727],,,2b/8b,{16}3,7,4,6,3,5,2b,8,
4,6,3b,5,1b,8,4,6,3,5,2,7,{8}4,3b>3[0##0.7453]*>2[0##0.0932]*>1[0##0.1863]*>8[0##0.2795]*>7[0##0.3727]*>6[0##0.4658]*>5[0##0.559]*>4[0##0.6522],
,7<7[0##0.7453]*<6[0##0.0932]*<5[0##0.1863]*<4[0##0.2795]*<3[0##0.3727]*<2[0##0.4658]*<1[0##0.559]*<8[0##0.6522],,3>3[0##0.7453]*>2[0##0.0932]*>1[0##0.1863]*>8[0##0.2795]*>7[0##0.3727]*>6[0##0.4658]*>5[0##0.559]*>4[0##0.6522],,7<7[0##0.7453]*<6[0##0.0932]*<5[0##0.1863]*<4[0##0.2795]*<3[0##0.3727]*<2[0##0.4658]*<1[0##0.559]*<8[0##0.6522],,3>3[0##0.7453]*>2[0##0.0932]*>1[0##0.1863]*>8[0##0.2795]*>7[0##0.3727]*>6[0##0.4658]*>5[0##0.559]*>4[0##0.6522],
,7<7[0##0.7453]*<6[0##0.0932]*<5[0##0.1863]*<4[0##0.2795]*<3[0##0.3727]*<2[0##0.4658]*<1[0##0.559]*<8[0##0.6522],,3>3[0##0.7453]*>2[0##0.0932]*>1[0##0.1863]*>8[0##0.2795]*>7[0##0.3727]*>6[0##0.4658]*>5[0##0.559]*>4[0##0.6522],,7<7[0##0.7453]*<6[0##0.0932]*<5[0##0.1863]*<4[0##0.2795]*<3[0##0.3727]*<2[0##0.4658]*<1[0##0.559]*<8[0##0.6522],,,,,{4}1<6>7>5>1<3<7>5<8>4<1>3>3<1<4<8<6<3<1>7<2>8[0##2.6087],
,,{1}7h[16:15]/6h[16:15]/2h[16:15]/3h[16:15],
{4},1?-5b[5.2174##0.1863]/1?-5b[5.2174##0.1863]/1?-5b[5.2174##0.1863]/1?-5b[5.2174##0.1863]/1?-5b[5.2174##0.1863]/1?-5b[5.2174##0.1863]/1?-5b[5.2174##0.1863]/1?-5b[5.2174##0.1863]/1?-5b[5.2174##0.1863]/1?-5b[5.2174##0.1863]/1?-5b[5.2174##0.1863]/1?-5b[5.2174##0.1863]/1?-5b[5.2174##0.1863]/1?-5b[5.2174##0.1863]/1?-5b[5.2174##0.1863]/1?-5b[5.2174##0.1863]/1?-5b[5.2174##0.1863]/1?-5b[5.2174##0.1863]/1?-5b[5.2174##0.1863]/1?-5b[5.2174##0.1863]/1?-5b[5.2174##0.1863]/1?-5b[5.2174##0.1863]/1?-5b[5.2174##0.1863]/1?-5b[5.2174##0.1863]/1?-5b[5.2174##0.1863]/1?-5b[5.2174##0.1863]/1?-5b[5.2174##0.1863]/1?-5b[5.2174##0.1863]/1?-5b[5.2174##0.1863]/1?-5b[5.2174##0.1863]/1?-5b[5.2174##0.1863]/1?-5b[5.2174##0.1863]/1?-5b[5.2174##0.1863]/1?-5b[5.2174##0.1863]/1?-5b[5.2174##0.1863]/1?-5b[5.2174##0.1863]/1?-5b[5.2174##0.1863]/1?-5b[5.2174##0.1863]/1?-5b[5.2174##0.1863]/1?-5b[5.2174##0.1863]/1?-5b[5.2174##0.1863]/1?-5b[5.2174##0.1863]/1?-5b[5.2174##0.1863]/1?-5b[5.2174##0.1863]/1?-5b[5.2174##0.1863]/1?-5b[5.2174##0.1863]/1?-5b[5.2174##0.1863]/1?-5b[5.2174##0.1863]/1?-5b[5.2174##0.1863]/1?-5b[5.2174##0.1863]/1?-5b[5.2174##0.1863]/1?-5b[5.2174##0.1863]/1?-5b[5.2174##0.1863]/1?-5b[5.2174##0.1863]/1?-5b[5.2174##0.1863]/1?-5b[5.2174##0.1863]/1?-5b[5.2174##0.1863]/1?-5b[5.2174##0.1863]/1?-5b[5.2174##0.1863]/1?-5b[5.2174##0.1863]/1?-5b[5.2174##0.1863]/1?-5b[5.2174##0.1863]/1?-5b[5.2174##0.1863]/1?-5b[5.2174##0.1863]/1?-5b[5.2174##0.1863]/1?-5b[5.2174##0.1863]/1?-5b[5.2174##0.1863]/1?-5b[5.2174##0.1863]/1?-5b[5.2174##0.1863]/1?-5b[5.2174##0.1863]/1?-5b[5.2174##0.1863]/1?-5b[5.2174##0.1863]/1?-5b[5.2174##0.1863]/1?-5b[5.2174##0.1863]/1?-5b[5.2174##0.1863]/1?-5b[5.2174##0.1863]/1?-5b[5.2174##0.1863]/1?-5b[5.2174##0.1863]/1?-5b[5.2174##0.1863]/1?-5b[5.2174##0.1863]/1?-5b[5.2174##0.1863]/1?-5b[5.2174##0.1863]/1?-5b[5.2174##0.1863]/1?-5b[5.2174##0.1863]/1?-5b[5.2174##0.1863]/1?-5b[5.2174##0.1863]/1?-5b[5.2174##0.1863]/1?-5b[5.2174##0.1863]/1?-5b[5.2174##0.1863]/1?-5b[5.2174##0.1863]/1?-5b[5.2174##0.1863]/1?-5b[5.2174##0.1863]/1?-5b[5.2174##0.1863]/1?-5b[5.2174##0.1863]/1?-5b[5.2174##0.1863]/1?-5b[5.2174##0.1863]/1?-5b[5.2174##0.1863]/1?-5b[5.2174##0.1863]/1?-5b[5.2174##0.1863]/1?-5b[5.2174##0.1863]/1?-5b[5.2174##0.1863]/1?-5b[5.2174##0.1863]/1?-5b[5.2174##0.1863]/1?-5b[5.2174##0.1863]/1?-5b[5.2174##0.1863]/1?-5b[5.2174##0.1863]/1?-5b[5.2174##0.1863]/1?-5b[5.2174##0.1863]/1?-5b[5.2174##0.1863]/1?-5b[5.2174##0.1863]/1?-5b[5.2174##0.1863]/1?-5b[5.2174##0.1863]/1?-5b[5.2174##0.1863]/1?-5b[5.2174##0.1863]/1?-5b[5.2174##0.1863]/1?-5b[5.2174##0.1863]/1?-5b[5.2174##0.1863]/1?-5b[5.2174##0.1863]/1?-5b[5.2174##0.1863]/1?-5b[5.2174##0.1863]/1?-5b[5.2174##0.1863]/1?-5b[5.2174##0.1863]/1?-5b[5.2174##0.1863]/1?-5b[5.2174##0.1863]/1?-5b[5.2174##0.1863]/1?-5b[5.2174##0.1863]/1?-5b[5.2174##0.1863]/1?-5b[5.2174##0.1863]/1?-5b[5.2174##0.1863]/1?-5b[5.2174##0.1863]/1?-5b[5.2174##0.1863]/1?-5b[5.2174##0.1863]/1?-5b[5.2174##0.1863]/1?-5b[5.2174##0.1863]/1?-5b[5.2174##0.1863]/1?-5b[5.2174##0.1863]/1?-5b[5.2174##0.1863]/1?-5b[5.2174##0.1863]/1?-5b[5.2174##0.1863]/1?-5b[5.2174##0.1863]/1?-5b[5.2174##0.1863]/1?-5b[5.2174##0.1863]/1?-5b[5.2174##0.1863]/1?-5b[5.2174##0.1863]/1?-5b[5.2174##0.1863]/1?-5b[5.2174##0.1863]/1?-5b[5.2174##0.1863]/1?-5b[5.2174##0.1863]/1?-5b[5.2174##0.1863]/1?-5b[5.2174##0.1863]/1?-5b[5.2174##0.1863]/1?-5b[5.2174##0.1863]/1?-5b[5.2174##0.1863]/1?-5b[5.2174##0.1863]/1?-5b[5.2174##0.1863]/1?-5b[5.2174##0.1863]/1?-5b[5.2174##0.1863]/1?-5b[5.2174##0.1863]/1?-5b[5.2174##0.1863]/1?-5b[5.2174##0.1863]/1?-5b[5.2174##0.1863]/1?-5b[5.2174##0.1863]/1?-5b[5.2174##0.1863]/1?-5b[5.2174##0.1863]/1?-5b[5.2174##0.1863]/1?-5b[5.2174##0.1863]/1?-5b[5.2174##0.1863]/1?-5b[5.2174##0.1863]/1?-5b[5.2174##0.1863]/1?-5b[5.2174##0.1863]/1?-5b[5.2174##0.1863]/1?-5b[5.2174##0.1863]/1?-5b[5.2174##0.1863]/1?-5b[5.2174##0.1863]/1?-5b[5.2174##0.1863]/1?-5b[5.2174##0.1863]/1?-5b[5.2174##0.1863]/1?-5b[5.2174##0.1863]/1?-5b[5.2174##0.1863]/1?-5b[5.2174##0.1863]/1?-5b[5.2174##0.1863]/1?-5b[5.2174##0.1863]/1?-5b[5.2174##0.1863]/1?-5b[5.2174##0.1863]/1?-5b[5.2174##0.1863]/1?-5b[5.2174##0.1863]/1?-5b[5.2174##0.1863]/1?-5b[5.2174##0.1863]/1?-5b[5.2174##0.1863]/1?-5b[5.2174##0.1863]/1?-5b[5.2174##0.1863]/1?-5b[5.2174##0.1863]/1?-5b[5.2174##0.1863]/1?-5b[5.2174##0.1863]/1?-5b[5.2174##0.1863]/1?-5b[5.2174##0.1863]/1?-5b[5.2174##0.1863]/1?-5b[5.2174##0.1863]/1?-5b[5.2174##0.1863]/1?-5b[5.2174##0.1863]/1?-5b[5.2174##0.1863]/1?-5b[5.2174##0.1863]/1?-5b[5.2174##0.1863]/1?-5b[5.2174##0.1863]/1?-5b[5.2174##0.1863]/1?-5b[5.2174##0.1863]/1?-5b[5.2174##0.1863]/1?-5b[5.2174##0.1863]/1?-5b[5.2174##0.1863]/1?-5b[5.2174##0.1863]/1?-5b[5.2174##0.1863]/1?-5b[5.2174##0.1863]/1?-5b[5.2174##0.1863]/1?-5b[5.2174##0.1863]/1?-5b[5.2174##0.1863]/1?-5b[5.2174##0.1863]/1?-5b[5.2174##0.1863]/1?-5b[5.2174##0.1863]/1?-5b[5.2174##0.1863]/1?-5b[5.2174##0.1863]/1?-5b[5.2174##0.1863]/1?-5b[5.2174##0.1863]/1?-5b[5.2174##0.1863]/1?-5b[5.2174##0.1863]/1?-5b[5.2174##0.1863]/1?-5b[5.2174##0.1863]/1?-5b[5.2174##0.1863]/1?-5b[5.2174##0.1863]/1?-5b[5.2174##0.1863]/1?-5b[5.2174##0.1863]/1?-5b[5.2174##0.1863]/1?-5b[5.2174##0.1863]/1?-5b[5.2174##0.1863]/1?-5b[5.2174##0.1863]/1?-5b[5.2174##0.1863]/1?-5b[5.2174##0.1863]/1?-5b[5.2174##0.1863]/1?-5b[5.2174##0.1863]/1?-5b[5.2174##0.1863]/1?-5b[5.2174##0.1863]/1?-5b[5.2174##0.1863]/1?-5b[5.2174##0.1863]/1?-5b[5.2174##0.1863]/1?-5b[5.2174##0.1863]/1?-5b[5.2174##0.1863]/1?-5b[5.2174##0.1863]/1?-5b[5.2174##0.1863]/1?-5b[5.2174##0.1863]/1?-5b[5.2174##0.1863]/1?-5b[5.2174##0.1863]/1?-5b[5.2174##0.1863]/1?-5b[5.2174##0.1863]/1?-5b[5.2174##0.1863]/1?-5b[5.2174##0.1863]/1?-5b[5.2174##0.1863]/1?-5b[5.2174##0.1863]/1?-5b[5.2174##0.1863]/1?-5b[5.2174##0.1863]/1?-5b[5.2174##0.1863]/1?-5b[5.2174##0.1863]/1?-5b[5.2174##0.1863]/1?-5b[5.2174##0.1863]/1?-5b[5.2174##0.1863]/1?-5b[5.2174##0.1863]/1?-5b[5.2174##0.1863]/1?-5b[5.2174##0.1863]/1?-5b[5.2174##0.1863]/1?-5b[5.2174##0.1863]/1?-5b[5.2174##0.1863]/1?-5b[5.2174##0.1863]/1?-5b[5.2174##0.1863]/1?-5b[5.2174##0.1863]/1?-5b[5.2174##0.1863]/1?-5b[5.2174##0.1863]/1?-5b[5.2174##0.1863]/1?-5b[5.2174##0.1863]/1?-5b[5.2174##0.1863]/1?-5b[5.2174##0.1863]/1?-5b[5.2174##0.1863]/1?-5b[5.2174##0.1863]/1?-5b[5.2174##0.1863]/1?-5b[5.2174##0.1863]/1?-5b[5.2174##0.1863]/1?-5b[5.2174##0.1863]/1?-5b[5.2174##0.1863]/1?-5b[5.2174##0.1863]/1?-5b[5.2174##0.1863]/1?-5b[5.2174##0.1863]/1?-5b[5.2174##0.1863]/1?-5b[5.2174##0.1863]/1?-5b[5.2174##0.1863]/1?-5b[5.2174##0.1863]/1?-5b[5.2174##0.1863]/1?-5b[5.2174##0.1863]/1?-5b[5.2174##0.1863]/1?-5b[5.2174##0.1863]/1?-5b[5.2174##0.1863]/1?-5b[5.2174##0.1863]/1?-5b[5.2174##0.1863]/1?-5b[5.2174##0.1863]/1?-5b[5.2174##0.1863]/1?-5b[5.2174##0.1863]/1?-5b[5.2174##0.1863]/1?-5b[5.2174##0.1863]/1?-5b[5.2174##0.1863]/1?-5b[5.2174##0.1863]/1?-5b[5.2174##0.1863]/1?-5b[5.2174##0.1863]/1?-5b[5.2174##0.1863]/1?-5b[5.2174##0.1863]/1?-5b[5.2174##0.1863]/1?-5b[5.2174##0.1863]/1?-5b[5.2174##0.1863]/1?-5b[5.2174##0.1863]/1?-5b[5.2174##0.1863]/1?-5b[5.2174##0.1863]/1?-5b[5.2174##0.1863]/1?-5b[5.2174##0.1863]/1?-5b[5.2174##0.1863]/1?-5b[5.2174##0.1863]/1?-5b[5.2174##0.1863]/1?-5b[5.2174##0.1863]/1?-5b[5.2174##0.1863]/1?-5b[5.2174##0.1863]/1?-5b[5.2174##0.1863]/1?-5b[5.2174##0.1863]/1?-5b[5.2174##0.1863]/1?-5b[5.2174##0.1863]/1?-5b[5.2174##0.1863]/1?-5b[5.2174##0.1863]/1?-5b[5.2174##0.1863]/1?-5b[5.2174##0.1863]/1?-5b[5.2174##0.1863]/1?-5b[5.2174##0.1863]/1?-5b[5.2174##0.1863]/1?-5b[5.2174##0.1863]/1?-5b[5.2174##0.1863]/1?-5b[5.2174##0.1863]/1?-5b[5.2174##0.1863]/1?-5b[5.2174##0.1863]/1?-5b[5.2174##0.1863]/1?-5b[5.2174##0.1863]/1?-5b[5.2174##0.1863]/1?-5b[5.2174##0.1863]/1?-5b[5.2174##0.1863]/1?-5b[5.2174##0.1863]/1?-5b[5.2174##0.1863]/1?-5b[5.2174##0.1863]/1?-5b[5.2174##0.1863]/1?-5b[5.2174##0.1863]/1?-5b[5.2174##0.1863]/1?-5b[5.2174##0.1863]/1?-5b[5.2174##0.1863]/1?-5b[5.2174##0.1863]/1?-5b[5.2174##0.1863]/1?-5b[5.2174##0.1863]/1?-5b[5.2174##0.1863]/1?-5b[5.2174##0.1863]/1?-5b[5.2174##0.1863]/1?-5b[5.2174##0.1863]/1?-5b[5.2174##0.1863]/1?-5b[5.2174##0.1863]/1?-5b[5.2174##0.1863]/1?-5b[5.2174##0.1863]/1?-5b[5.2174##0.1863]/1?-5b[5.2174##0.1863]/1?-5b[5.2174##0.1863]/1?-5b[5.2174##0.1863]/1?-5b[5.2174##0.1863]/1?-5b[5.2174##0.1863]/1?-5b[5.2174##0.1863]/1?-5b[5.2174##0.1863]/1?-5b[5.2174##0.1863]/1?-5b[5.2174##0.1863]/1?-5b[5.2174##0.1863]/1?-5b[5.2174##0.1863]/1?-5b[5.2174##0.1863]/1?-5b[5.2174##0.1863]/1?-5b[5.2174##0.1863]/1?-5b[5.2174##0.1863]/1?-5b[5.2174##0.1863]/1?-5b[5.2174##0.1863]/1?-5b[5.2174##0.1863]/1?-5b[5.2174##0.1863]/1?-5b[5.2174##0.1863]/1?-5b[5.2174##0.1863]/1?-5b[5.2174##0.1863]/1?-5b[5.2174##0.1863]/1?-5b[5.2174##0.1863]/1?-5b[5.2174##0.1863]/1?-5b[5.2174##0.1863]/1?-5b[5.2174##0.1863]/1?-5b[5.2174##0.1863]/1?-5b[5.2174##0.1863]/1?-5b[5.2174##0.1863]/1?-5b[5.2174##0.1863]/1?-5b[5.2174##0.1863]/1?-5b[5.2174##0.1863]/1?-5b[5.2174##0.1863]/1?-5b[5.2174##0.1863]/1?-5b[5.2174##0.1863]/1?-5b[5.2174##0.1863]/1?-5b[5.2174##0.1863]/1?-5b[5.2174##0.1863]/1?-5b[5.2174##0.1863]/1?-5b[5.2174##0.1863]/1?-5b[5.2174##0.1863]/1?-5b[5.2174##0.1863]/1?-5b[5.2174##0.1863]/1?-5b[5.2174##0.1863]/1?-5b[5.2174##0.1863]/1?-5b[5.2174##0.1863]/1?-5b[5.2174##0.1863]/1?-5b[5.2174##0.1863]/1?-5b[5.2174##0.1863]/1?-5b[5.2174##0.1863]/1?-5b[5.2174##0.1863]/1?-5b[5.2174##0.1863]/1?-5b[5.2174##0.1863]/1?-5b[5.2174##0.1863]/1?-5b[5.2174##0.1863]/1?-5b[5.2174##0.1863]/1?-5b[5.2174##0.1863]/1?-5b[5.2174##0.1863]/1?-5b[5.2174##0.1863]/1?-5b[5.2174##0.1863]/1?-5b[5.2174##0.1863]/1?-5b[5.2174##0.1863]/1?-5b[5.2174##0.1863]/1?-5b[5.2174##0.1863]/1?-5b[5.2174##0.1863]/1?-5b[5.2174##0.1863]/1?-5b[5.2174##0.1863]/1?-5b[5.2174##0.1863]/1?-5b[5.2174##0.1863]/1?-5b[5.2174##0.1863]/1?-5b[5.2174##0.1863]/1?-5b[5.2174##0.1863]/1?-5b[5.2174##0.1863]/1?-5b[5.2174##0.1863]/1?-5b[5.2174##0.1863]/1?-5b[5.2174##0.1863]/1?-5b[5.2174##0.1863]/1?-5b[5.2174##0.1863]/1?-5b[5.2174##0.1863]/1?-5b[5.2174##0.1863]/1?-5b[5.2174##0.1863]/1?-5b[5.2174##0.1863]/1?-5b[5.2174##0.1863]/1?-5b[5.2174##0.1863]/1?-5b[5.2174##0.1863]/1?-5b[5.2174##0.1863]/1?-5b[5.2174##0.1863]/1?-5b[5.2174##0.1863]/1?-5b[5.2174##0.1863]/1?-5b[5.2174##0.1863]/1?-5b[5.2174##0.1863]/1?-5b[5.2174##0.1863]/1?-5b[5.2174##0.1863]/1?-5b[5.2174##0.1863]/1?-5b[5.2174##0.1863]/1?-5b[5.2174##0.1863]/1?-5b[5.2174##0.1863]/1?-5b[5.2174##0.1863]/1?-5b[5.2174##0.1863]/1?-5b[5.2174##0.1863]/1?-5b[5.2174##0.1863]/1?-5b[5.2174##0.1863]/1?-5b[5.2174##0.1863]/1?-5b[5.2174##0.1863]/1?-5b[5.2174##0.1863]/1?-5b[5.2174##0.1863]/1?-5b[5.2174##0.1863]/1?-5b[5.2174##0.1863]/1?-5b[5.2174##0.1863]/1?-5b[5.2174##0.1863]/1?-5b[5.2174##0.1863]/1?-5b[5.2174##0.1863]/1?-5b[5.2174##0.1863]/1?-5b[5.2174##0.1863]/1?-5b[5.2174##0.1863]/1?-5b[5.2174##0.1863]/1?-5b[5.2174##0.1863]/1?-5b[5.2174##0.1863]/1?-5b[5.2174##0.1863]/1?-5b[5.2174##0.1863]/1?-5b[5.2174##0.1863]/1?-5b[5.2174##0.1863]/1?-5b[5.2174##0.1863]/1?-5b[5.2174##0.1863]/1?-5b[5.2174##0.1863]/1?-5b[5.2174##0.1863]/1?-5b[5.2174##0.1863]/1?-5b[5.2174##0.1863]/1?-5b[5.2174##0.1863]/1?-5b[5.2174##0.1863]/1?-5b[5.2174##0.1863]/1?-5b[5.2174##0.1863]/1?-5b[5.2174##0.1863]/1?-5b[5.2174##0.1863]/1?-5b[5.2174##0.1863]/1?-5b[5.2174##0.1863]/1?-5b[5.2174##0.1863]/1?-5b[5.2174##0.1863]/1?-5b[5.2174##0.1863]/1?-5b[5.2174##0.1863]/1?-5b[5.2174##0.1863]/1?-5b[5.2174##0.1863]/1?-5b[5.2174##0.1863]/1?-5b[5.2174##0.1863]/1?-5b[5.2174##0.1863]/1?-5b[5.2174##0.1863]/1?-5b[5.2174##0.1863]/1?-5b[5.2174##0.1863]/1?-5b[5.2174##0.1863]/1?-5b[5.2174##0.1863]/1?-5b[5.2174##0.1863]/1?-5b[5.2174##0.1863]/1?-5b[5.2174##0.1863]/1?-5b[5.2174##0.1863]/1?-5b[5.2174##0.1863]/1?-5b[5.2174##0.1863]/1?-5b[5.2174##0.1863]/1?-5b[5.2174##0.1863]/1?-5b[5.2174##0.1863]/1?-5b[5.2174##0.1863]/1?-5b[5.2174##0.1863]/1?-5b[5.2174##0.1863]/1?-5b[5.2174##0.1863]/1?-5b[5.2174##0.1863]/1?-5b[5.2174##0.1863]/1?-5b[5.2174##0.1863]/1?-5b[5.2174##0.1863]/1?-5b[5.2174##0.1863]/1?-5b[5.2174##0.1863]/1?-5b[5.2174##0.1863]/1?-5b[5.2174##0.1863]/1?-5b[5.2174##0.1863]/1?-5b[5.2174##0.1863]/1?-5b[5.2174##0.1863]/1?-5b[5.2174##0.1863]/1?-5b[5.2174##0.1863]/1?-5b[5.2174##0.1863]/1?-5b[5.2174##0.1863]/1?-5b[5.2174##0.1863]/1?-5b[5.2174##0.1863]/1?-5b[5.2174##0.1863]/1?-5b[5.2174##0.1863]/1?-5b[5.2174##0.1863]/1?-5b[5.2174##0.1863]/1?-5b[5.2174##0.1863]/1?-5b[5.2174##0.1863]/1?-5b[5.2174##0.1863]/1?-5b[5.2174##0.1863]/1?-5b[5.2174##0.1863]/1?-5b[5.2174##0.1863]/1?-5b[5.2174##0.1863]/1?-5b[5.2174##0.1863]/1?-5b[5.2174##0.1863]/1?-5b[5.2174##0.1863]/1?-5b[5.2174##0.1863]/1?-5b[5.2174##0.1863]/1?-5b[5.2174##0.1863]/1?-5b[5.2174##0.1863]/1?-5b[5.2174##0.1863]/1?-5b[5.2174##0.1863]/1?-5b[5.2174##0.1863]/1?-5b[5.2174##0.1863]/1?-5b[5.2174##0.1863]/1?-5b[5.2174##0.1863]/1?-5b[5.2174##0.1863]/1?-5b[5.2174##0.1863]/1?-5b[5.2174##0.1863]/1?-5b[5.2174##0.1863]/1?-5b[5.2174##0.1863]/1?-5b[5.2174##0.1863]/1?-5b[5.2174##0.1863]/1?-5b[5.2174##0.1863]/1?-5b[5.2174##0.1863]/1?-5b[5.2174##0.1863]/1?-5b[5.2174##0.1863]/1?-5b[5.2174##0.1863]/1?-5b[5.2174##0.1863]/1?-5b[5.2174##0.1863]/1?-5b[5.2174##0.1863]/1?-5b[5.2174##0.1863]/1?-5b[5.2174##0.1863]/1?-5b[5.2174##0.1863]/1?-5b[5.2174##0.1863]/1?-5b[5.2174##0.1863]/1?-5b[5.2174##0.1863]/1?-5b[5.2174##0.1863]/1?-5b[5.2174##0.1863]/1?-5b[5.2174##0.1863]/1?-5b[5.2174##0.1863]/1?-5b[5.2174##0.1863]/1?-5b[5.2174##0.1863]/1?-5b[5.2174##0.1863]/1?-5b[5.2174##0.1863]/1?-5b[5.2174##0.1863]/1?-5b[5.2174##0.1863]/1?-5b[5.2174##0.1863]/1?-5b[5.2174##0.1863]/1?-5b[5.2174##0.1863]/1?-5b[5.2174##0.1863]/1?-5b[5.2174##0.1863]/1?-5b[5.2174##0.1863]/1?-5b[5.2174##0.1863]/1?-5b[5.2174##0.1863]/1?-5b[5.2174##0.1863]/1?-5b[5.2174##0.1863]/1?-5b[5.2174##0.1863]/1?-5b[5.2174##0.1863]/1?-5b[5.2174##0.1863]/1?-5b[5.2174##0.1863]/1?-5b[5.2174##0.1863]/1?-5b[5.2174##0.1863]/1?-5b[5.2174##0.1863]/1?-5b[5.2174##0.1863]/1?-5b[5.2174##0.1863]/1?-5b[5.2174##0.1863]/1?-5b[5.2174##0.1863]/1?-5b[5.2174##0.1863]/1?-5b[5.2174##0.1863]/1?-5b[5.2174##0.1863]/1?-5b[5.2174##0.1863]/1?-5b[5.2174##0.1863]/1?-5b[5.2174##0.1863]/1?-5b[5.2174##0.1863]/1?-5b[5.2174##0.1863]/1?-5b[5.2174##0.1863]/1?-5b[5.2174##0.1863]/1?-5b[5.2174##0.1863]/1?-5b[5.2174##0.1863]/1?-5b[5.2174##0.1863]/1?-5b[5.2174##0.1863]/1?-5b[5.2174##0.1863]/1?-5b[5.2174##0.1863]/1?-5b[5.2174##0.1863]/1?-5b[5.2174##0.1863]/1?-5b[5.2174##0.1863]/1?-5b[5.2174##0.1863]/1?-5b[5.2174##0.1863]/1?-5b[5.2174##0.1863]/1?-5b[5.2174##0.1863]/1?-5b[5.2174##0.1863]/1?-5b[5.2174##0.1863]/1?-5b[5.2174##0.1863]/1?-5b[5.2174##0.1863]/1?-5b[5.2174##0.1863]/1?-5b[5.2174##0.1863]/1?-5b[5.2174##0.1863]/1?-5b[5.2174##0.1863]/1?-5b[5.2174##0.1863]/1?-5b[5.2174##0.1863]/1?-5b[5.2174##0.1863]/1?-5b[5.2174##0.1863]/1?-5b[5.2174##0.1863]/1?-5b[5.2174##0.1863]/1?-5b[5.2174##0.1863]/1?-5b[5.2174##0.1863]/1?-5b[5.2174##0.1863]/1?-5b[5.2174##0.1863]/1?-5b[5.2174##0.1863]/1?-5b[5.2174##0.1863]/1?-5b[5.2174##0.1863]/1?-5b[5.2174##0.1863]/1?-5b[5.2174##0.1863]/1?-5b[5.2174##0.1863]/1?-5b[5.2174##0.1863]/1?-5b[5.2174##0.1863]/1?-5b[5.2174##0.1863]/1?-5b[5.2174##0.1863]/1?-5b[5.2174##0.1863]/1?-5b[5.2174##0.1863]/1?-5b[5.2174##0.1863]/1?-5b[5.2174##0.1863]/1?-5b[5.2174##0.1863]/1?-5b[5.2174##0.1863]/1?-5b[5.2174##0.1863]/1?-5b[5.2174##0.1863]/1?-5b[5.2174##0.1863]/1?-5b[5.2174##0.1863]/1?-5b[5.2174##0.1863]/1?-5b[5.2174##0.1863]/1?-5b[5.2174##0.1863]/1?-5b[5.2174##0.1863]/1?-5b[5.2174##0.1863]/1?-5b[5.2174##0.1863]/1?-5b[5.2174##0.1863]/1?-5b[5.2174##0.1863]/1?-5b[5.2174##0.1863]/1?-5b[5.2174##0.1863]/1?-5b[5.2174##0.1863]/1?-5b[5.2174##0.1863]/1?-5b[5.2174##0.1863]/1?-5b[5.2174##0.1863]/1?-5b[5.2174##0.1863]/1?-5b[5.2174##0.1863]/1?-5b[5.2174##0.1863]/1?-5b[5.2174##0.1863]/1?-5b[5.2174##0.1863]/1?-5b[5.2174##0.1863]/1?-5b[5.2174##0.1863]/1?-5b[5.2174##0.1863]/1?-5b[5.2174##0.1863]/1?-5b[5.2174##0.1863]/1?-5b[5.2174##0.1863]/1?-5b[5.2174##0.1863]/1?-5b[5.2174##0.1863]/1?-5b[5.2174##0.1863]/1?-5b[5.2174##0.1863]/1?-5b[5.2174##0.1863]/1?-5b[5.2174##0.1863]/1?-5b[5.2174##0.1863]/1?-5b[5.2174##0.1863]/1?-5b[5.2174##0.1863]/1?-5b[5.2174##0.1863]/1?-5b[5.2174##0.1863]/1?-5b[5.2174##0.1863]/1?-5b[5.2174##0.1863]/1?-5b[5.2174##0.1863]/1?-5b[5.2174##0.1863]/1?-5b[5.2174##0.1863]/1?-5b[5.2174##0.1863]/1?-5b[5.2174##0.1863]/1?-5b[5.2174##0.1863]/1?-5b[5.2174##0.1863]/1?-5b[5.2174##0.1863]/1?-5b[5.2174##0.1863]/1?-5b[5.2174##0.1863]/1?-5b[5.2174##0.1863]/1?-5b[5.2174##0.1863]/1?-5b[5.2174##0.1863]/1?-5b[5.2174##0.1863]/1?-5b[5.2174##0.1863]/1?-5b[5.2174##0.1863]/1?-5b[5.2174##0.1863]/1?-5b[5.2174##0.1863]/1?-5b[5.2174##0.1863]/1?-5b[5.2174##0.1863]/1?-5b[5.2174##0.1863]/1?-5b[5.2174##0.1863]/1?-5b[5.2174##0.1863]/1?-5b[5.2174##0.1863]/1?-5b[5.2174##0.1863]/1?-5b[5.2174##0.1863]/1?-5b[5.2174##0.1863]/1?-5b[5.2174##0.1863]/1?-5b[5.2174##0.1863]/1?-5b[5.2174##0.1863]/1?-5b[5.2174##0.1863]/1?-5b[5.2174##0.1863]/1?-5b[5.2174##0.1863]/1?-5b[5.2174##0.1863]/1?-5b[5.2174##0.1863]/1?-5b[5.2174##0.1863]/1?-5b[5.2174##0.1863]/1?-5b[5.2174##0.1863]/1?-5b[5.2174##0.1863]/1?-5b[5.2174##0.1863]/1?-5b[5.2174##0.1863]/1?-5b[5.2174##0.1863]/1?-5b[5.2174##0.1863]/1?-5b[5.2174##0.1863]/1?-5b[5.2174##0.1863]/1?-5b[5.2174##0.1863]/1?-5b[5.2174##0.1863]/1?-5b[5.2174##0.1863]/1?-5b[5.2174##0.1863]/1?-5b[5.2174##0.1863]/1?-5b[5.2174##0.1863]/1?-5b[5.2174##0.1863]/1?-5b[5.2174##0.1863]/1?-5b[5.2174##0.1863]/1?-5b[5.2174##0.1863]/1?-5b[5.2174##0.1863]/1?-5b[5.2174##0.1863]/1?-5b[5.2174##0.1863]/1?-5b[5.2174##0.1863]/1?-5b[5.2174##0.1863]/1?-5b[5.2174##0.1863]/1?-5b[5.2174##0.1863]/1?-5b[5.2174##0.1863]/1?-5b[5.2174##0.1863]/1?-5b[5.2174##0.1863]/1?-5b[5.2174##0.1863]/1?-5b[5.2174##0.1863]/1?-5b[5.2174##0.1863]/1?-5b[5.2174##0.1863]/1?-5b[5.2174##0.1863]/1?-5b[5.2174##0.1863]/1?-5b[5.2174##0.1863]/1?-5b[5.2174##0.1863]/1?-5b[5.2174##0.1863]/1?-5b[5.2174##0.1863]/1?-5b[5.2174##0.1863]/1?-5b[5.2174##0.1863]/1?-5b[5.2174##0.1863]/1?-5b[5.2174##0.1863]/1?-5b[5.2174##0.1863]/1?-5b[5.2174##0.1863]/1?-5b[5.2174##0.1863]/1?-5b[5.2174##0.1863]/1?-5b[5.2174##0.1863]/1?-5b[5.2174##0.1863]/1?-5b[5.2174##0.1863]/1?-5b[5.2174##0.1863]/1?-5b[5.2174##0.1863]/1?-5b[5.2174##0.1863]/1?-5b[5.2174##0.1863]/1?-5b[5.2174##0.1863]/1?-5b[5.2174##0.1863]/1?-5b[5.2174##0.1863]/1?-5b[5.2174##0.1863]/1?-5b[5.2174##0.1863]/1?-5b[5.2174##0.1863]/1?-5b[5.2174##0.1863]/1?-5b[5.2174##0.1863]/1?-5b[5.2174##0.1863]/1?-5b[5.2174##0.1863]/1?-5b[5.2174##0.1863]/1?-5b[5.2174##0.1863]/1?-5b[5.2174##0.1863]/1?-5b[5.2174##0.1863]/1?-5b[5.2174##0.1863]/1?-5b[5.2174##0.1863]/1?-5b[5.2174##0.1863]/1?-5b[5.2174##0.1863]/1?-5b[5.2174##0.1863]/1?-5b[5.2174##0.1863]/1?-5b[5.2174##0.1863]/1?-5b[5.2174##0.1863]/1?-5b[5.2174##0.1863]/1?-5b[5.2174##0.1863]/1?-5b[5.2174##0.1863]/1?-5b[5.2174##0.1863]/1?-5b[5.2174##0.1863]/1?-5b[5.2174##0.1863]/1?-5b[5.2174##0.1863]/1?-5b[5.2174##0.1863]/1?-5b[5.2174##0.1863]/1?-5b[5.2174##0.1863]/1?-5b[5.2174##0.1863]/1?-5b[5.2174##0.1863]/1?-5b[5.2174##0.1863]/1?-5b[5.2174##0.1863]/1?-5b[5.2174##0.1863]/1?-5b[5.2174##0.1863]/1?-5b[5.2174##0.1863]/1?-5b[5.2174##0.1863]/1?-5b[5.2174##0.1863]/1?-5b[5.2174##0.1863]/1?-5b[5.2174##0.1863]/1?-5b[5.2174##0.1863]/1?-5b[5.2174##0.1863]/1?-5b[5.2174##0.1863]/1?-5b[5.2174##0.1863]/1?-5b[5.2174##0.1863]/1?-5b[5.2174##0.1863]/1?-5b[5.2174##0.1863]/1?-5b[5.2174##0.1863]/1?-5b[5.2174##0.1863]/1?-5b[5.2174##0.1863]/1?-5b[5.2174##0.1863]/1?-5b[5.2174##0.1863]/1?-5b[5.2174##0.1863]/1?-5b[5.2174##0.1863]/1?-5b[5.2174##0.1863]/1?-5b[5.2174##0.1863]/1?-5b[5.2174##0.1863]/1?-5b[5.2174##0.1863]/1?-5b[5.2174##0.1863]/1?-5b[5.2174##0.1863]/1?-5b[5.2174##0.1863]/1?-5b[5.2174##0.1863]/1?-5b[5.2174##0.1863]/1?-5b[5.2174##0.1863]/1?-5b[5.2174##0.1863]/1?-5b[5.2174##0.1863]/1?-5b[5.2174##0.1863]/1?-5b[5.2174##0.1863]/1?-5b[5.2174##0.1863]/1?-5b[5.2174##0.1863]/1?-5b[5.2174##0.1863]/1?-5b[5.2174##0.1863]/1?-5b[5.2174##0.1863]/1?-5b[5.2174##0.1863]/1?-5b[5.2174##0.1863]/1?-5b[5.2174##0.1863]/1?-5b[5.2174##0.1863]/1?-5b[5.2174##0.1863]/1?-5b[5.2174##0.1863]/1?-5b[5.2174##0.1863]/1?-5b[5.2174##0.1863]/1?-5b[5.2174##0.1863]/1?-5b[5.2174##0.1863]/1?-5b[5.2174##0.1863]/1?-5b[5.2174##0.1863]/1?-5b[5.2174##0.1863]/1?-5b[5.2174##0.1863]/1?-5b[5.2174##0.1863]/1?-5b[5.2174##0.1863]/1?-5b[5.2174##0.1863]/1?-5b[5.2174##0.1863]/1?-5b[5.2174##0.1863]/1?-5b[5.2174##0.1863]/1?-5b[5.2174##0.1863]/1?-5b[5.2174##0.1863]/1?-5b[5.2174##0.1863]/1?-5b[5.2174##0.1863]/1?-5b[5.2174##0.1863]/1?-5b[5.2174##0.1863]/1?-5b[5.2174##0.1863]/1?-5b[5.2174##0.1863]/1?-5b[5.2174##0.1863]/1?-5b[5.2174##0.1863]/1?-5b[5.2174##0.1863]/1?-5b[5.2174##0.1863]/1?-5b[5.2174##0.1863]/1?-5b[5.2174##0.1863]/1?-5b[5.2174##0.1863]/1?-5b[5.2174##0.1863]/1?-5b[5.2174##0.1863]/1?-5b[5.2174##0.1863]/1?-5b[5.2174##0.1863]/1?-5b[5.2174##0.1863]/1?-5b[5.2174##0.1863]/1?-5b[5.2174##0.1863]/1?-5b[5.2174##0.1863]/1?-5b[5.2174##0.1863]/1?-5b[5.2174##0.1863]/1?-5b[5.2174##0.1863]/1?-5b[5.2174##0.1863]/1?-5b[5.2174##0.1863]/1?-5b[5.2174##0.1863]/1?-5b[5.2174##0.1863]/1?-5b[5.2174##0.1863]/1?-5b[5.2174##0.1863]/1?-5b[5.2174##0.1863]/1?-5b[5.2174##0.1863]/1?-5b[5.2174##0.1863]/1?-5b[5.2174##0.1863]/1?-5b[5.2174##0.1863]/1?-5b[5.2174##0.1863]/1?-5b[5.2174##0.1863]/1?-5b[5.2174##0.1863]/1?-5b[5.2174##0.1863]/1?-5b[5.2174##0.1863]/1?-5b[5.2174##0.1863]/1?-5b[5.2174##0.1863]/1?-5b[5.2174##0.1863]/1?-5b[5.2174##0.1863]/1?-5b[5.2174##0.1863]/1?-5b[5.2174##0.1863]/1?-5b[5.2174##0.1863]/1?-5b[5.2174##0.1863]/1?-5b[5.2174##0.1863]/1?-5b[5.2174##0.1863]/1?-5b[5.2174##0.1863]/1?-5b[5.2174##0.1863]/1?-5b[5.2174##0.1863]/1?-5b[5.2174##0.1863]/1?-5b[5.2174##0.1863]/1?-5b[5.2174##0.1863]/1?-5b[5.2174##0.1863]/1?-5b[5.2174##0.1863]/1?-5b[5.2174##0.1863]/1?-5b[5.2174##0.1863]/1?-5b[5.2174##0.1863]/1?-5b[5.2174##0.1863]/1?-5b[5.2174##0.1863]/1?-5b[5.2174##0.1863]/1?-5b[5.2174##0.1863]/1?-5b[5.2174##0.1863]/1?-5b[5.2174##0.1863]/1?-5b[5.2174##0.1863]/1?-5b[5.2174##0.1863]/1?-5b[5.2174##0.1863]/1?-5b[5.2174##0.1863]/1?-5b[5.2174##0.1863]/1?-5b[5.2174##0.1863]/1?-5b[5.2174##0.1863]/1?-5b[5.2174##0.1863]/1?-5b[5.2174##0.1863]/1?-5b[5.2174##0.1863]/1?-5b[5.2174##0.1863]/1?-5b[5.2174##0.1863]/1?-5b[5.2174##0.1863]/1?-5b[5.2174##0.1863]/1?-5b[5.2174##0.1863]/1?-5b[5.2174##0.1863]/1?-5b[5.2174##0.1863]/1?-5b[5.2174##0.1863]/1?-5b[5.2174##0.1863]/1?-5b[5.2174##0.1863]/1?-5b[5.2174##0.1863]/1?-5b[5.2174##0.1863]/1?-5b[5.2174##0.1863]/1?-5b[5.2174##0.1863]/1?-5b[5.2174##0.1863]/1?-5b[5.2174##0.1863]/1?-5b[5.2174##0.1863]/1?-5b[5.2174##0.1863]/1?-5b[5.2174##0.1863]/1?-5b[5.2174##0.1863]/1?-5b[5.2174##0.1863]/1?-5b[5.2174##0.1863]/1?-5b[5.2174##0.1863]/1?-5b[5.2174##0.1863]/1?-5b[5.2174##0.1863]/1?-5b[5.2174##0.1863]/1?-5b[5.2174##0.1863]/1?-5b[5.2174##0.1863]/1?-5b[5.2174##0.1863]/1?-5b[5.2174##0.1863]/1?-5b[5.2174##0.1863]/1?-5b[5.2174##0.1863]/1?-5b[5.2174##0.1863]/1?-5b[5.2174##0.1863]/1?-5b[5.2174##0.1863]/1?-5b[5.2174##0.1863]/1?-5b[5.2174##0.1863]/1?-5b[5.2174##0.1863]/1?-5b[5.2174##0.1863]/1?-5b[5.2174##0.1863]/1?-5b[5.2174##0.1863]/1?-5b[5.2174##0.1863]/1?-5b[5.2174##0.1863]/1?-5b[5.2174##0.1863]/1?-5b[5.2174##0.1863]/1?-5b[5.2174##0.1863]/1?-5b[5.2174##0.1863]/1?-5b[5.2174##0.1863]/1?-5b[5.2174##0.1863]/1?-5b[5.2174##0.1863]/1?-5b[5.2174##0.1863]/1?-5b[5.2174##0.1863]/1?-5b[5.2174##0.1863]/1?-5b[5.2174##0.1863]/1?-5b[5.2174##0.1863]/1?-5b[5.2174##0.1863]/1?-5b[5.2174##0.1863]/1?-5b[5.2174##0.1863]/1?-5b[5.2174##0.1863]/1?-5b[5.2174##0.1863]/1?-5b[5.2174##0.1863]/1?-5b[5.2174##0.1863]/1?-5b[5.2174##0.1863]/1?-5b[5.2174##0.1863]/1?-5b[5.2174##0.1863]/1?-5b[5.2174##0.1863]/1?-5b[5.2174##0.1863]/1?-5b[5.2174##0.1863]/1?-5b[5.2174##0.1863]/1?-5b[5.2174##0.1863]/1?-5b[5.2174##0.1863]/1?-5b[5.2174##0.1863]/1?-5b[5.2174##0.1863]/1?-5b[5.2174##0.1863]/1?-5b[5.2174##0.1863]/1?-5b[5.2174##0.1863]/1?-5b[5.2174##0.1863]/1?-5b[5.2174##0.1863]/1?-5b[5.2174##0.1863]/1?-5b[5.2174##0.1863]/1?-5b[5.2174##0.1863]/1?-5b[5.2174##0.1863]/1?-5b[5.2174##0.1863]/1?-5b[5.2174##0.1863]/1?-5b[5.2174##0.1863]/1?-5b[5.2174##0.1863]/1?-5b[5.2174##0.1863]/1?-5b[5.2174##0.1863]/1?-5b[5.2174##0.1863]/1?-5b[5.2174##0.1863]/1?-5b[5.2174##0.1863]/1?-5b[5.2174##0.1863]/1?-5b[5.2174##0.1863]/1?-5b[5.2174##0.1863]/1?-5b[5.2174##0.1863]/1?-5b[5.2174##0.1863]/1?-5b[5.2174##0.1863]/1?-5b[5.2174##0.1863]/1?-5b[5.2174##0.1863]/1?-5b[5.2174##0.1863]/1?-5b[5.2174##0.1863]/1?-5b[5.2174##0.1863]/1?-5b[5.2174##0.1863]/1?-5b[5.2174##0.1863]/1?-5b[5.2174##0.1863]/1?-5b[5.2174##0.1863]/1?-5b[5.2174##0.1863]/1?-5b[5.2174##0.1863]/1?-5b[5.2174##0.1863]/1?-5b[5.2174##0.1863]/1?-5b[5.2174##0.1863]/1?-5b[5.2174##0.1863]/1?-5b[5.2174##0.1863]/1?-5b[5.2174##0.1863]/1?-5b[5.2174##0.1863]/1?-5b[5.2174##0.1863]/1?-5b[5.2174##0.1863]/1?-5b[5.2174##0.1863]/1?-5b[5.2174##0.1863]/1?-5b[5.2174##0.1863]/1?-5b[5.2174##0.1863]/1?-5b[5.2174##0.1863]/1?-5b[5.2174##0.1863]/1?-5b[5.2174##0.1863]/1?-5b[5.2174##0.1863]/1?-5b[5.2174##0.1863]/1?-5b[5.2174##0.1863]/1?-5b[5.2174##0.1863]/1?-5b[5.2174##0.1863]/1?-5b[5.2174##0.1863]/1?-5b[5.2174##0.1863]/1?-5b[5.2174##0.1863]/1?-5b[5.2174##0.1863]/1?-5b[5.2174##0.1863]/1?-5b[5.2174##0.1863]/1?-5b[5.2174##0.1863]/1?-5b[5.2174##0.1863]/1?-5b[5.2174##0.1863]/1?-5b[5.2174##0.1863]/1?-5b[5.2174##0.1863]/1?-5b[5.2174##0.1863]/1?-5b[5.2174##0.1863]/1?-5b[5.2174##0.1863]/1?-5b[5.2174##0.1863]/1?-5b[5.2174##0.1863]/1?-5b[5.2174##0.1863]/1?-5b[5.2174##0.1863]/1?-5b[5.2174##0.1863]/1?-5b[5.2174##0.1863]/1?-5b[5.2174##0.1863]/1?-5b[5.2174##0.1863]/1?-5b[5.2174##0.1863]/1?-5b[5.2174##0.1863]/1?-5b[5.2174##0.1863]/1?-5b[5.2174##0.1863]/1?-5b[5.2174##0.1863]/1?-5b[5.2174##0.1863]/1?-5b[5.2174##0.1863]/1?-5b[5.2174##0.1863]/1?-5b[5.2174##0.1863]/1?-5b[5.2174##0.1863]/1?-5b[5.2174##0.1863]/1?-5b[5.2174##0.1863]/1?-5b[5.2174##0.1863]/1?-5b[5.2174##0.1863]/1?-5b[5.2174##0.1863]/1?-5b[5.2174##0.1863]/1?-5b[5.2174##0.1863]/1?-5b[5.2174##0.1863]/1?-5b[5.2174##0.1863]/1?-5b[5.2174##0.1863]/1?-5b[5.2174##0.1863]/1?-5b[5.2174##0.1863]/1?-5b[5.2174##0.1863]/1?-5b[5.2174##0.1863]/1?-5b[5.2174##0.1863]/1?-5b[5.2174##0.1863]/1?-5b[5.2174##0.1863]/1?-5b[5.2174##0.1863]/1?-5b[5.2174##0.1863]/1?-5b[5.2174##0.1863]/1?-5b[5.2174##0.1863]/1?-5b[5.2174##0.1863]/1?-5b[5.2174##0.1863]/1?-5b[5.2174##0.1863]/1?-5b[5.2174##0.1863]/1?-5b[5.2174##0.1863]/1?-5b[5.2174##0.1863]/1?-5b[5.2174##0.1863]/1?-5b[5.2174##0.1863]/1?-5b[5.2174##0.1863]/1?-5b[5.2174##0.1863]/1?-5b[5.2174##0.1863]/1?-5b[5.2174##0.1863]/1?-5b[5.2174##0.1863]/1?-5b[5.2174##0.1863]/1?-5b[5.2174##0.1863]/1?-5b[5.2174##0.1863]/1?-5b[5.2174##0.1863]/1?-5b[5.2174##0.1863]/1?-5b[5.2174##0.1863]/1?-5b[5.2174##0.1863]/1?-5b[5.2174##0.1863]/1?-5b[5.2174##0.1863]/1?-5b[5.2174##0.1863]/1?-5b[5.2174##0.1863]/1?-5b[5.2174##0.1863]/1?-5b[5.2174##0.1863]/1?-5b[5.2174##0.1863]/1?-5b[5.2174##0.1863]/1?-5b[5.2174##0.1863]/1?-5b[5.2174##0.1863]/1?-5b[5.2174##0.1863]/1?-5b[5.2174##0.1863]/1?-5b[5.2174##0.1863]/1?-5b[5.2174##0.1863]/1?-5b[5.2174##0.1863]/1?-5b[5.2174##0.1863]/1?-5b[5.2174##0.1863]/1?-5b[5.2174##0.1863]/1?-5b[5.2174##0.1863]/1?-5b[5.2174##0.1863]/1?-5b[5.2174##0.1863]/1?-5b[5.2174##0.1863]/1?-5b[5.2174##0.1863]/1?-5b[5.2174##0.1863]/1?-5b[5.2174##0.1863]/1?-5b[5.2174##0.1863]/1?-5b[5.2174##0.1863]/1?-5b[5.2174##0.1863]/1?-5b[5.2174##0.1863]/1?-5b[5.2174##0.1863]/1?-5b[5.2174##0.1863]/1?-5b[5.2174##0.1863]/1?-5b[5.2174##0.1863]/1?-5b[5.2174##0.1863]/1?-5b[5.2174##0.1863]/1?-5b[5.2174##0.1863]/1?-5b[5.2174##0.1863]/1?-5b[5.2174##0.1863]/1?-5b[5.2174##0.1863]/1?-5b[5.2174##0.1863]/1?-5b[5.2174##0.1863]/1?-5b[5.2174##0.1863]/1?-5b[5.2174##0.1863]/1?-5b[5.2174##0.1863]/1?-5b[5.2174##0.1863]/1?-5b[5.2174##0.1863]/1?-5b[5.2174##0.1863]/1?-5b[5.2174##0.1863]/1?-5b[5.2174##0.1863]/1?-5b[5.2174##0.1863]/1?-5b[5.2174##0.1863]/1?-5b[5.2174##0.1863]/1?-5b[5.2174##0.1863]/1?-5b[5.2174##0.1863]/1?-5b[5.2174##0.1863]/1?-5b[5.2174##0.1863]/1?-5b[5.2174##0.1863]/1?-5b[5.2174##0.1863]/1?-5b[5.2174##0.1863]/1?-5b[5.2174##0.1863]/1?-5b[5.2174##0.1863]/1?-5b[5.2174##0.1863]/1?-5b[5.2174##0.1863]/1?-5b[5.2174##0.1863]/1?-5b[5.2174##0.1863]/1?-5b[5.2174##0.1863]/1?-5b[5.2174##0.1863]/1?-5b[5.2174##0.1863]/1?-5b[5.2174##0.1863]/1?-5b[5.2174##0.1863]/1?-5b[5.2174##0.1863]/1?-5b[5.2174##0.1863]/1?-5b[5.2174##0.1863]/1?-5b[5.2174##0.1863]/1?-5b[5.2174##0.1863]/1?-5b[5.2174##0.1863]/1?-5b[5.2174##0.1863]/1?-5b[5.2174##0.1863]/1?-5b[5.2174##0.1863]/1?-5b[5.2174##0.1863]/1?-5b[5.2174##0.1863]/1?-5b[5.2174##0.1863]/1?-5b[5.2174##0.1863]/1?-5b[5.2174##0.1863]/1?-5b[5.2174##0.1863]/1?-5b[5.2174##0.1863]/1?-5b[5.2174##0.1863]/1?-5b[5.2174##0.1863]/1?-5b[5.2174##0.1863]/1?-5b[5.2174##0.1863]/1?-5b[5.2174##0.1863]/1?-5b[5.2174##0.1863]/1?-5b[5.2174##0.1863]/1?-5b[5.2174##0.1863]/1?-5b[5.2174##0.1863]/1?-5b[5.2174##0.1863]/1?-5b[5.2174##0.1863]/1?-5b[5.2174##0.1863]/1?-5b[5.2174##0.1863]/1?-5b[5.2174##0.1863]/1?-5b[5.2174##0.1863]/1?-5b[5.2174##0.1863]/1?-5b[5.2174##0.1863]/1?-5b[5.2174##0.1863]/1?-5b[5.2174##0.1863]/1?-5b[5.2174##0.1863]/1?-5b[5.2174##0.1863]/1?-5b[5.2174##0.1863]/1?-5b[5.2174##0.1863]/1?-5b[5.2174##0.1863]/1?-5b[5.2174##0.1863]/1?-5b[5.2174##0.1863]/1?-5b[5.2174##0.1863]/1?-5b[5.2174##0.1863]/1?-5b[5.2174##0.1863]/1?-5b[5.2174##0.1863]/1?-5b[5.2174##0.1863]/1?-5b[5.2174##0.1863]/1?-5b[5.2174##0.1863]/1?-5b[5.2174##0.1863]/1?-5b[5.2174##0.1863]/1?-5b[5.2174##0.1863]/1?-5b[5.2174##0.1863]/1?-5b[5.2174##0.1863]/1?-5b[5.2174##0.1863]/1?-5b[5.2174##0.1863]/1?-5b[5.2174##0.1863]/1?-5b[5.2174##0.1863]/1?-5b[5.2174##0.1863]/1?-5b[5.2174##0.1863]/1?-5b[5.2174##0.1863]/1?-5b[5.2174##0.1863]/1?-5b[5.2174##0.1863]/1?-5b[5.2174##0.1863]/1?-5b[5.2174##0.1863]/1?-5b[5.2174##0.1863]/1?-5b[5.2174##0.1863]/1?-5b[5.2174##0.1863]/1?-5b[5.2174##0.1863]/1?-5b[5.2174##0.1863]/1?-5b[5.2174##0.1863]/1?-5b[5.2174##0.1863]/1?-5b[5.2174##0.1863]/1?-5b[5.2174##0.1863]/1?-5b[5.2174##0.1863]/1?-5b[5.2174##0.1863]/1?-5b[5.2174##0.1863]/1?-5b[5.2174##0.1863]/1?-5b[5.2174##0.1863]/1?-5b[5.2174##0.1863]/1?-5b[5.2174##0.1863]/1?-5b[5.2174##0.1863]/1?-5b[5.2174##0.1863]/1?-5b[5.2174##0.1863]/1?-5b[5.2174##0.1863]/1?-5b[5.2174##0.1863]/1?-5b[5.2174##0.1863]/1?-5b[5.2174##0.1863]/1?-5b[5.2174##0.1863]/1?-5b[5.2174##0.1863]/1?-5b[5.2174##0.1863]/1?-5b[5.2174##0.1863]/1?-5b[5.2174##0.1863]/1?-5b[5.2174##0.1863]/1?-5b[5.2174##0.1863]/1?-5b[5.2174##0.1863]/1?-5b[5.2174##0.1863]/1?-5b[5.2174##0.1863]/1?-5b[5.2174##0.1863]/1?-5b[5.2174##0.1863]/1?-5b[5.2174##0.1863]/1?-5b[5.2174##0.1863]/1?-5b[5.2174##0.1863]/1?-5b[5.2174##0.1863]/1?-5b[5.2174##0.1863]/1?-5b[5.2174##0.1863]/1?-5b[5.2174##0.1863]/1?-5b[5.2174##0.1863]/1?-5b[5.2174##0.1863]/1?-5b[5.2174##0.1863]/1?-5b[5.2174##0.1863]/1?-5b[5.2174##0.1863]/1?-5b[5.2174##0.1863]/1?-5b[5.2174##0.1863]/1?-5b[5.2174##0.1863]/1?-5b[5.2174##0.1863]/1?-5b[5.2174##0.1863]/1?-5b[5.2174##0.1863]/1?-5b[5.2174##0.1863]/1?-5b[5.2174##0.1863]/1?-5b[5.2174##0.1863]/1?-5b[5.2174##0.1863]/1?-5b[5.2174##0.1863]/1?-5b[5.2174##0.1863]/1?-5b[5.2174##0.1863]/1?-5b[5.2174##0.1863]/1?-5b[5.2174##0.1863]/1?-5b[5.2174##0.1863]/1?-5b[5.2174##0.1863]/1?-5b[5.2174##0.1863]/1?-5b[5.2174##0.1863]/1?-5b[5.2174##0.1863]/1?-5b[5.2174##0.1863]/1?-5b[5.2174##0.1863]/1?-5b[5.2174##0.1863]/1?-5b[5.2174##0.1863]/1?-5b[5.2174##0.1863]/1?-5b[5.2174##0.1863]/1?-5b[5.2174##0.1863]/1?-5b[5.2174##0.1863]/1?-5b[5.2174##0.1863]/1?-5b[5.2174##0.1863]/1?-5b[5.2174##0.1863]/1?-5b[5.2174##0.1863]/1?-5b[5.2174##0.1863]/1?-5b[5.2174##0.1863]/1?-5b[5.2174##0.1863]/1?-5b[5.2174##0.1863]/1?-5b[5.2174##0.1863]/1?-5b[5.2174##0.1863]/1?-5b[5.2174##0.1863]/1?-5b[5.2174##0.1863]/1?-5b[5.2174##0.1863]/1?-5b[5.2174##0.1863]/1?-5b[5.2174##0.1863]/1?-5b[5.2174##0.1863]/1?-5b[5.2174##0.1863]/1?-5b[5.2174##0.1863]/1?-5b[5.2174##0.1863]/1?-5b[5.2174##0.1863]/1?-5b[5.2174##0.1863]/1?-5b[5.2174##0.1863]/1?-5b[5.2174##0.1863]/1?-5b[5.2174##0.1863]/1?-5b[5.2174##0.1863]/1?-5b[5.2174##0.1863]/1?-5b[5.2174##0.1863]/1?-5b[5.2174##0.1863]/1?-5b[5.2174##0.1863]/1?-5b[5.2174##0.1863]/1?-5b[5.2174##0.1863]/1?-5b[5.2174##0.1863]/1?-5b[5.2174##0.1863]/1?-5b[5.2174##0.1863]/1?-5b[5.2174##0.1863]/1?-5b[5.2174##0.1863]/1?-5b[5.2174##0.1863]/1?-5b[5.2174##0.1863]/1?-5b[5.2174##0.1863]/1?-5b[5.2174##0.1863]/1?-5b[5.2174##0.1863]/1?-5b[5.2174##0.1863]/1?-5b[5.2174##0.1863]/1?-5b[5.2174##0.1863]/1?-5b[5.2174##0.1863]/1?-5b[5.2174##0.1863]/1?-5b[5.2174##0.1863]/1?-5b[5.2174##0.1863]/1?-5b[5.2174##0.1863]/1?-5b[5.2174##0.1863]/1?-5b[5.2174##0.1863]/1?-5b[5.2174##0.1863]/1?-5b[5.2174##0.1863]/1?-5b[5.2174##0.1863]/1?-5b[5.2174##0.1863]/1?-5b[5.2174##0.1863]/1?-5b[5.2174##0.1863]/1?-5b[5.2174##0.1863]/1?-5b[5.2174##0.1863]/1?-5b[5.2174##0.1863]/1?-5b[5.2174##0.1863]/1?-5b[5.2174##0.1863]/1?-5b[5.2174##0.1863]/1?-5b[5.2174##0.1863]/1?-5b[5.2174##0.1863]/1?-5b[5.2174##0.1863]/1?-5b[5.2174##0.1863]/1?-5b[5.2174##0.1863]/1?-5b[5.2174##0.1863]/1?-5b[5.2174##0.1863]/1?-5b[5.2174##0.1863]/1?-5b[5.2174##0.1863]/1?-5b[5.2174##0.1863]/1?-5b[5.2174##0.1863]/1?-5b[5.2174##0.1863]/1?-5b[5.2174##0.1863]/1?-5b[5.2174##0.1863]/1?-5b[5.2174##0.1863]/1?-5b[5.2174##0.1863]/1?-5b[5.2174##0.1863]/1?-5b[5.2174##0.1863]/1?-5b[5.2174##0.1863]/1?-5b[5.2174##0.1863]/1?-5b[5.2174##0.1863]/1?-5b[5.2174##0.1863]/1?-5b[5.2174##0.1863]/1?-5b[5.2174##0.1863]/1?-5b[5.2174##0.1863]/1?-5b[5.2174##0.1863]/1?-5b[5.2174##0.1863]/1?-5b[5.2174##0.1863]/1?-5b[5.2174##0.1863]/1?-5b[5.2174##0.1863]/1?-5b[5.2174##0.1863]/1?-5b[5.2174##0.1863]/1?-5b[5.2174##0.1863]/1?-5b[5.2174##0.1863]/1?-5b[5.2174##0.1863]/1?-5b[5.2174##0.1863]/1?-5b[5.2174##0.1863]/1?-5b[5.2174##0.1863]/1?-5b[5.2174##0.1863]/1?-5b[5.2174##0.1863]/1?-5b[5.2174##0.1863]/1?-5b[5.2174##0.1863]/1?-5b[5.2174##0.1863]/1?-5b[5.2174##0.1863]/1?-5b[5.2174##0.1863]/1?-5b[5.2174##0.1863]/1?-5b[5.2174##0.1863]/1?-5b[5.2174##0.1863]/1?-5b[5.2174##0.1863]/1?-5b[5.2174##0.1863]/1?-5b[5.2174##0.1863]/1?-5b[5.2174##0.1863]/1?-5b[5.2174##0.1863]/1?-5b[5.2174##0.1863]/1?-5b[5.2174##0.1863]/1?-5b[5.2174##0.1863]/1?-5b[5.2174##0.1863]/1?-5b[5.2174##0.1863]/1?-5b[5.2174##0.1863]/1?-5b[5.2174##0.1863]/1?-5b[5.2174##0.1863]/1?-5b[5.2174##0.1863]/1?-5b[5.2174##0.1863]/1?-5b[5.2174##0.1863]/1?-5b[5.2174##0.1863]/1?-5b[5.2174##0.1863]/1?-5b[5.2174##0.1863]/1?-5b[5.2174##0.1863]/1?-5b[5.2174##0.1863]/1?-5b[5.2174##0.1863]/1?-5b[5.2174##0.1863]/1?-5b[5.2174##0.1863]/1?-5b[5.2174##0.1863]/1?-5b[5.2174##0.1863]/1?-5b[5.2174##0.1863]/1?-5b[5.2174##0.1863]/1?-5b[5.2174##0.1863]/1?-5b[5.2174##0.1863]/1?-5b[5.2174##0.1863]/1?-5b[5.2174##0.1863]/1?-5b[5.2174##0.1863]/1?-5b[5.2174##0.1863]/1?-5b[5.2174##0.1863]/1?-5b[5.2174##0.1863]/1?-5b[5.2174##0.1863]/1?-5b[5.2174##0.1863]/1?-5b[5.2174##0.1863]/1?-5b[5.2174##0.1863]/1?-5b[5.2174##0.1863]/1?-5b[5.2174##0.1863]/1?-5b[5.2174##0.1863]/1?-5b[5.2174##0.1863]/1?-5b[5.2174##0.1863]/1?-5b[5.2174##0.1863]/1?-5b[5.2174##0.1863]/1?-5b[5.2174##0.1863]/1?-5b[5.2174##0.1863]/1?-5b[5.2174##0.1863]/1?-5b[5.2174##0.1863]/1?-5b[5.2174##0.1863]/1?-5b[5.2174##0.1863]/1?-5b[5.2174##0.1863]/1?-5b[5.2174##0.1863]/1?-5b[5.2174##0.1863]/1?-5b[5.2174##0.1863]/1?-5b[5.2174##0.1863]/1?-5b[5.2174##0.1863]/1?-5b[5.2174##0.1863]/1?-5b[5.2174##0.1863]/1?-5b[5.2174##0.1863]/1?-5b[5.2174##0.1863]/1?-5b[5.2174##0.1863]/1?-5b[5.2174##0.1863]/1?-5b[5.2174##0.1863]/1?-5b[5.2174##0.1863]/1?-5b[5.2174##0.1863]/1?-5b[5.2174##0.1863]/1?-5b[5.2174##0.1863]/1?-5b[5.2174##0.1863]/1?-5b[5.2174##0.1863]/1?-5b[5.2174##0.1863]/1?-5b[5.2174##0.1863]/1?-5b[5.2174##0.1863]/1?-5b[5.2174##0.1863]/1?-5b[5.2174##0.1863]/1?-5b[5.2174##0.1863]/1?-5b[5.2174##0.1863]/1?-5b[5.2174##0.1863]/1?-5b[5.2174##0.1863]/1?-5b[5.2174##0.1863]/1?-5b[5.2174##0.1863]/1?-5b[5.2174##0.1863]/1?-5b[5.2174##0.1863]/1?-5b[5.2174##0.1863]/1?-5b[5.2174##0.1863]/1?-5b[5.2174##0.1863]/1?-5b[5.2174##0.1863]/1?-5b[5.2174##0.1863]/1?-5b[5.2174##0.1863]/1?-5b[5.2174##0.1863]/1?-5b[5.2174##0.1863]/1?-5b[5.2174##0.1863]/1?-5b[5.2174##0.1863]/1?-5b[5.2174##0.1863]/1?-5b[5.2174##0.1863]/1?-5b[5.2174##0.1863]/1?-5b[5.2174##0.1863]/1?-5b[5.2174##0.1863]/1?-5b[5.2174##0.1863]/1?-5b[5.2174##0.1863]/1?-5b[5.2174##0.1863]/1?-5b[5.2174##0.1863]/1?-5b[5.2174##0.1863]/1?-5b[5.2174##0.1863]/1?-5b[5.2174##0.1863]/1?-5b[5.2174##0.1863]/1?-5b[5.2174##0.1863]/1?-5b[5.2174##0.1863]/1?-5b[5.2174##0.1863]/1?-5b[5.2174##0.1863]/1?-5b[5.2174##0.1863]/1?-5b[5.2174##0.1863]/1?-5b[5.2174##0.1863]/1?-5b[5.2174##0.1863]/1?-5b[5.2174##0.1863]/1?-5b[5.2174##0.1863]/1?-5b[5.2174##0.1863]/1?-5b[5.2174##0.1863]/1?-5b[5.2174##0.1863]/1?-5b[5.2174##0.1863]/1?-5b[5.2174##0.1863]/1?-5b[5.2174##0.1863]/1?-5b[5.2174##0.1863]/1?-5b[5.2174##0.1863]/1?-5b[5.2174##0.1863]/1?-5b[5.2174##0.1863]/1?-5b[5.2174##0.1863]/1?-5b[5.2174##0.1863]/1?-5b[5.2174##0.1863]/1?-5b[5.2174##0.1863]/1?-5b[5.2174##0.1863]/1?-5b[5.2174##0.1863]/1?-5b[5.2174##0.1863]/1?-5b[5.2174##0.1863]/1?-5b[5.2174##0.1863]/1?-5b[5.2174##0.1863]/1?-5b[5.2174##0.1863]/1?-5b[5.2174##0.1863]/1?-5b[5.2174##0.1863]/1?-5b[5.2174##0.1863]/1?-5b[5.2174##0.1863]/1?-5b[5.2174##0.1863]/1?-5b[5.2174##0.1863]/1?-5b[5.2174##0.1863]/1?-5b[5.2174##0.1863]/1?-5b[5.2174##0.1863]/1?-5b[5.2174##0.1863]/1?-5b[5.2174##0.1863]/1?-5b[5.2174##0.1863]/1?-5b[5.2174##0.1863]/1?-5b[5.2174##0.1863]/1?-5b[5.2174##0.1863]/1?-5b[5.2174##0.1863]/1?-5b[5.2174##0.1863]/1?-5b[5.2174##0.1863]/1?-5b[5.2174##0.1863]/1?-5b[5.2174##0.1863]/1?-5b[5.2174##0.1863]/1?-5b[5.2174##0.1863]/1?-5b[5.2174##0.1863]/1?-5b[5.2174##0.1863]/1?-5b[5.2174##0.1863]/1?-5b[5.2174##0.1863]/1?-5b[5.2174##0.1863]/1?-5b[5.2174##0.1863]/1?-5b[5.2174##0.1863]/1?-5b[5.2174##0.1863]/1?-5b[5.2174##0.1863]/1?-5b[5.2174##0.1863]/1?-5b[5.2174##0.1863]/1?-5b[5.2174##0.1863]/1?-5b[5.2174##0.1863]/1?-5b[5.2174##0.1863]/1?-5b[5.2174##0.1863]/1?-5b[5.2174##0.1863]/1?-5b[5.2174##0.1863]/1?-5b[5.2174##0.1863]/1?-5b[5.2174##0.1863]/1?-5b[5.2174##0.1863]/1?-5b[5.2174##0.1863]/1?-5b[5.2174##0.1863]/1?-5b[5.2174##0.1863]/1?-5b[5.2174##0.1863]/1?-5b[5.2174##0.1863]/1?-5b[5.2174##0.1863]/1?-5b[5.2174##0.1863]/1?-5b[5.2174##0.1863]/1?-5b[5.2174##0.1863]/1?-5b[5.2174##0.1863]/1?-5b[5.2174##0.1863]/1?-5b[5.2174##0.1863]/1?-5b[5.2174##0.1863]/1?-5b[5.2174##0.1863]/1?-5b[5.2174##0.1863]/1?-5b[5.2174##0.1863]/1?-5b[5.2174##0.1863]/1?-5b[5.2174##0.1863]/1?-5b[5.2174##0.1863]/1?-5b[5.2174##0.1863]/1?-5b[5.2174##0.1863]/1?-5b[5.2174##0.1863]/1?-5b[5.2174##0.1863]/1?-5b[5.2174##0.1863]/1?-5b[5.2174##0.1863]/1?-5b[5.2174##0.1863]/1?-5b[5.2174##0.1863]/1?-5b[5.2174##0.1863]/1?-5b[5.2174##0.1863]/1?-5b[5.2174##0.1863]/1?-5b[5.2174##0.1863]/1?-5b[5.2174##0.1863]/1?-5b[5.2174##0.1863]/1?-5b[5.2174##0.1863]/1?-5b[5.2174##0.1863]/1?-5b[5.2174##0.1863]/1?-5b[5.2174##0.1863]/1?-5b[5.2174##0.1863]/1?-5b[5.2174##0.1863]/1?-5b[5.2174##0.1863]/1?-5b[5.2174##0.1863]/1?-5b[5.2174##0.1863]/1?-5b[5.2174##0.1863]/1?-5b[5.2174##0.1863]/1?-5b[5.2174##0.1863]/1?-5b[5.2174##0.1863]/1?-5b[5.2174##0.1863]/1?-5b[5.2174##0.1863]/1?-5b[5.2174##0.1863]/1?-5b[5.2174##0.1863]/1?-5b[5.2174##0.1863]/1?-5b[5.2174##0.1863]/1?-5b[5.2174##0.1863]/1?-5b[5.2174##0.1863]/1?-5b[5.2174##0.1863]/1?-5b[5.2174##0.1863]/1?-5b[5.2174##0.1863]/1?-5b[5.2174##0.1863]/1?-5b[5.2174##0.1863]/1?-5b[5.2174##0.1863]/1?-5b[5.2174##0.1863]/1?-5b[5.2174##0.1863]/1?-5b[5.2174##0.1863]/1?-5b[5.2174##0.1863]/1?-5b[5.2174##0.1863]/1?-5b[5.2174##0.1863]/1?-5b[5.2174##0.1863]/1?-5b[5.2174##0.1863]/1?-5b[5.2174##0.1863]/1?-5b[5.2174##0.1863]/1?-5b[5.2174##0.1863]/1?-5b[5.2174##0.1863]/1?-5b[5.2174##0.1863]/1?-5b[5.2174##0.1863]/1?-5b[5.2174##0.1863]/1?-5b[5.2174##0.1863]/1?-5b[5.2174##0.1863]/1?-5b[5.2174##0.1863]/1?-5b[5.2174##0.1863]/1?-5b[5.2174##0.1863]/1?-5b[5.2174##0.1863]/1?-5b[5.2174##0.1863]/1?-5b[5.2174##0.1863]/1?-5b[5.2174##0.1863]/1?-5b[5.2174##0.1863]/1?-5b[5.2174##0.1863]/1?-5b[5.2174##0.1863]/1?-5b[5.2174##0.1863]/1?-5b[5.2174##0.1863]/1?-5b[5.2174##0.1863]/1?-5b[5.2174##0.1863]/1?-5b[5.2174##0.1863]/1?-5b[5.2174##0.1863]/1?-5b[5.2174##0.1863]/1?-5b[5.2174##0.1863]/1?-5b[5.2174##0.1863]/1?-5b[5.2174##0.1863]/1?-5b[5.2174##0.1863]/1?-5b[5.2174##0.1863]/1?-5b[5.2174##0.1863]/1?-5b[5.2174##0.1863]/1?-5b[5.2174##0.1863]/1?-5b[5.2174##0.1863]/1?-5b[5.2174##0.1863]/1?-5b[5.2174##0.1863]/1?-5b[5.2174##0.1863]/1?-5b[5.2174##0.1863]/1?-5b[5.2174##0.1863]/1?-5b[5.2174##0.1863]/1?-5b[5.2174##0.1863]/1?-5b[5.2174##0.1863]/1?-5b[5.2174##0.1863]/1?-5b[5.2174##0.1863]/1?-5b[5.2174##0.1863]/1?-5b[5.2174##0.1863]/1?-5b[5.2174##0.1863]/1?-5b[5.2174##0.1863]/1?-5b[5.2174##0.1863]/1?-5b[5.2174##0.1863]/1?-5b[5.2174##0.1863]/1?-5b[5.2174##0.1863]/1?-5b[5.2174##0.1863]/1?-5b[5.2174##0.1863]/1?-5b[5.2174##0.1863]/1?-5b[5.2174##0.1863]/1?-5b[5.2174##0.1863]/1?-5b[5.2174##0.1863]/1?-5b[5.2174##0.1863]/1?-5b[5.2174##0.1863]/1?-5b[5.2174##0.1863]/1?-5b[5.2174##0.1863]/1?-5b[5.2174##0.1863]/1?-5b[5.2174##0.1863]/1?-5b[5.2174##0.1863]/1?-5b[5.2174##0.1863]/1?-5b[5.2174##0.1863]/1?-5b[5.2174##0.1863]/1?-5b[5.2174##0.1863]/1?-5b[5.2174##0.1863]/1?-5b[5.2174##0.1863]/1?-5b[5.2174##0.1863]/1?-5b[5.2174##0.1863]/1?-5b[5.2174##0.1863]/1?-5b[5.2174##0.1863]/1?-5b[5.2174##0.1863]/1?-5b[5.2174##0.1863]/1?-5b[5.2174##0.1863]/1?-5b[5.2174##0.1863]/1?-5b[5.2174##0.1863]/1?-5b[5.2174##0.1863]/1?-5b[5.2174##0.1863]/1?-5b[5.2174##0.1863]/1?-5b[5.2174##0.1863]/1?-5b[5.2174##0.1863]/1?-5b[5.2174##0.1863]/1?-5b[5.2174##0.1863]/1?-5b[5.2174##0.1863]/1?-5b[5.2174##0.1863]/1?-5b[5.2174##0.1863]/1?-5b[5.2174##0.1863]/1?-5b[5.2174##0.1863]/1?-5b[5.2174##0.1863]/1?-5b[5.2174##0.1863]/1?-5b[5.2174##0.1863]/1?-5b[5.2174##0.1863]/1?-5b[5.2174##0.1863]/1?-5b[5.2174##0.1863]/1?-5b[5.2174##0.1863]/1?-5b[5.2174##0.1863]/1?-5b[5.2174##0.1863]/1?-5b[5.2174##0.1863]/1?-5b[5.2174##0.1863]/1?-5b[5.2174##0.1863]/1?-5b[5.2174##0.1863]/1?-5b[5.2174##0.1863]/1?-5b[5.2174##0.1863]/1?-5b[5.2174##0.1863]/1?-5b[5.2174##0.1863]/1?-5b[5.2174##0.1863]/1?-5b[5.2174##0.1863]/1?-5b[5.2174##0.1863]/1?-5b[5.2174##0.1863]/1?-5b[5.2174##0.1863]/1?-5b[5.2174##0.1863]/1?-5b[5.2174##0.1863]/1?-5b[5.2174##0.1863]/1?-5b[5.2174##0.1863]/1?-5b[5.2174##0.1863]/1?-5b[5.2174##0.1863]/1?-5b[5.2174##0.1863]/1?-5b[5.2174##0.1863]/1?-5b[5.2174##0.1863]/1?-5b[5.2174##0.1863]/1?-5b[5.2174##0.1863]/1?-5b[5.2174##0.1863]/1?-5b[5.2174##0.1863]/1?-5b[5.2174##0.1863]/1?-5b[5.2174##0.1863]/1?-5b[5.2174##0.1863]/1?-5b[5.2174##0.1863]/1?-5b[5.2174##0.1863]/1?-5b[5.2174##0.1863]/1?-5b[5.2174##0.1863]/1?-5b[5.2174##0.1863]/1?-5b[5.2174##0.1863]/1?-5b[5.2174##0.1863]/1?-5b[5.2174##0.1863]/1?-5b[5.2174##0.1863]/1?-5b[5.2174##0.1863]/1?-5b[5.2174##0.1863]/1?-5b[5.2174##0.1863]/1?-5b[5.2174##0.1863]/1?-5b[5.2174##0.1863]/1?-5b[5.2174##0.1863]/1?-5b[5.2174##0.1863]/1?-5b[5.2174##0.1863]/1?-5b[5.2174##0.1863]/1?-5b[5.2174##0.1863]/1?-5b[5.2174##0.1863]/1?-5b[5.2174##0.1863]/1?-5b[5.2174##0.1863]/1?-5b[5.2174##0.1863]/1?-5b[5.2174##0.1863]/1?-5b[5.2174##0.1863]/1?-5b[5.2174##0.1863]/1?-5b[5.2174##0.1863]/1?-5b[5.2174##0.1863]/1?-5b[5.2174##0.1863]/1?-5b[5.2174##0.1863]/1?-5b[5.2174##0.1863]/1?-5b[5.2174##0.1863]/1?-5b[5.2174##0.1863]/1?-5b[5.2174##0.1863]/1?-5b[5.2174##0.1863]/1?-5b[5.2174##0.1863]/1?-5b[5.2174##0.1863]/1?-5b[5.2174##0.1863]/1?-5b[5.2174##0.1863]/1?-5b[5.2174##0.1863]/1?-5b[5.2174##0.1863]/1?-5b[5.2174##0.1863]/1?-5b[5.2174##0.1863]/1?-5b[5.2174##0.1863]/1?-5b[5.2174##0.1863]/1?-5b[5.2174##0.1863]/1?-5b[5.2174##0.1863]/1?-5b[5.2174##0.1863]/1?-5b[5.2174##0.1863]/1?-5b[5.2174##0.1863]/1?-5b[5.2174##0.1863]/1?-5b[5.2174##0.1863]/1?-5b[5.2174##0.1863]/1?-5b[5.2174##0.1863]/1?-5b[5.2174##0.1863]/1?-5b[5.2174##0.1863]/1?-5b[5.2174##0.1863]/1?-5b[5.2174##0.1863]/1?-5b[5.2174##0.1863]/1?-5b[5.2174##0.1863]/1?-5b[5.2174##0.1863]/1?-5b[5.2174##0.1863]/1?-5b[5.2174##0.1863]/1?-5b[5.2174##0.1863]/1?-5b[5.2174##0.1863]/1?-5b[5.2174##0.1863]/1?-5b[5.2174##0.1863]/1?-5b[5.2174##0.1863]/1?-5b[5.2174##0.1863]/1?-5b[5.2174##0.1863]/1?-5b[5.2174##0.1863]/1?-5b[5.2174##0.1863]/1?-5b[5.2174##0.1863]/1?-5b[5.2174##0.1863]/1?-5b[5.2174##0.1863]/1?-5b[5.2174##0.1863]/1?-5b[5.2174##0.1863]/1?-5b[5.2174##0.1863]/1?-5b[5.2174##0.1863]/1?-5b[5.2174##0.1863]/1?-5b[5.2174##0.1863]/1?-5b[5.2174##0.1863]/1?-5b[5.2174##0.1863]/1?-5b[5.2174##0.1863]/1?-5b[5.2174##0.1863]/1?-5b[5.2174##0.1863]/1?-5b[5.2174##0.1863]/1?-5b[5.2174##0.1863]/1?-5b[5.2174##0.1863]/1?-5b[5.2174##0.1863]/1?-5b[5.2174##0.1863]/1?-5b[5.2174##0.1863]/1?-5b[5.2174##0.1863]/1?-5b[5.2174##0.1863]/1?-5b[5.2174##0.1863]/1?-5b[5.2174##0.1863]/1?-5b[5.2174##0.1863]/1?-5b[5.2174##0.1863]/1?-5b[5.2174##0.1863]/1?-5b[5.2174##0.1863]/1?-5b[5.2174##0.1863]/1?-5b[5.2174##0.1863]/1?-5b[5.2174##0.1863]/1?-5b[5.2174##0.1863]/1?-5b[5.2174##0.1863]/1?-5b[5.2174##0.1863]/1?-5b[5.2174##0.1863]/1?-5b[5.2174##0.1863]/1?-5b[5.2174##0.1863]/1?-5b[5.2174##0.1863]/1?-5b[5.2174##0.1863]/1?-5b[5.2174##0.1863]/1?-5b[5.2174##0.1863]/1?-5b[5.2174##0.1863]/1?-5b[5.2174##0.1863]/1?-5b[5.2174##0.1863]/1?-5b[5.2174##0.1863]/1?-5b[5.2174##0.1863]/1?-5b[5.2174##0.1863]/1?-5b[5.2174##0.1863]/1?-5b[5.2174##0.1863]/1?-5b[5.2174##0.1863]/1?-5b[5.2174##0.1863]/1?-5b[5.2174##0.1863]/1?-5b[5.2174##0.1863]/1?-5b[5.2174##0.1863]/1?-5b[5.2174##0.1863]/1?-5b[5.2174##0.1863]/1?-5b[5.2174##0.1863]/1?-5b[5.2174##0.1863]/1?-5b[5.2174##0.1863]/1?-5b[5.2174##0.1863]/1?-5b[5.2174##0.1863]/1?-5b[5.2174##0.1863]/1?-5b[5.2174##0.1863]/1?-5b[5.2174##0.1863]/1?-5b[5.2174##0.1863]/1?-5b[5.2174##0.1863]/1?-5b[5.2174##0.1863]/1?-5b[5.2174##0.1863]/1?-5b[5.2174##0.1863]/1?-5b[5.2174##0.1863]/1?-5b[5.2174##0.1863]/1?-5b[5.2174##0.1863]/1?-5b[5.2174##0.1863]/1?-5b[5.2174##0.1863]/1?-5b[5.2174##0.1863]/1?-5b[5.2174##0.1863]/1?-5b[5.2174##0.1863]/1?-5b[5.2174##0.1863]/1?-5b[5.2174##0.1863]/1?-5b[5.2174##0.1863]/1?-5b[5.2174##0.1863]/1?-5b[5.2174##0.1863]/1?-5b[5.2174##0.1863]/1?-5b[5.2174##0.1863]/1?-5b[5.2174##0.1863]/1?-5b[5.2174##0.1863]/1?-5b[5.2174##0.1863]/1?-5b[5.2174##0.1863]/1?-5b[5.2174##0.1863]/1?-5b[5.2174##0.1863]/1?-5b[5.2174##0.1863]/1?-5b[5.2174##0.1863]/1?-5b[5.2174##0.1863]/1?-5b[5.2174##0.1863]/1?-5b[5.2174##0.1863]/1?-5b[5.2174##0.1863]/1?-5b[5.2174##0.1863]/1?-5b[5.2174##0.1863]/1?-5b[5.2174##0.1863]/1?-5b[5.2174##0.1863]/1?-5b[5.2174##0.1863]/1?-5b[5.2174##0.1863]/1?-5b[5.2174##0.1863]/1?-5b[5.2174##0.1863]/1?-5b[5.2174##0.1863]/1?-5b[5.2174##0.1863]/1?-5b[5.2174##0.1863]/1?-5b[5.2174##0.1863]/1?-5b[5.2174##0.1863]/1?-5b[5.2174##0.1863]/1?-5b[5.2174##0.1863]/1?-5b[5.2174##0.1863]/1?-5b[5.2174##0.1863]/1?-5b[5.2174##0.1863]/1?-5b[5.2174##0.1863]/1?-5b[5.2174##0.1863]/1?-5b[5.2174##0.1863]/1?-5b[5.2174##0.1863]/1?-5b[5.2174##0.1863]/1?-5b[5.2174##0.1863]/1?-5b[5.2174##0.1863]/1?-5b[5.2174##0.1863]/1?-5b[5.2174##0.1863]/1?-5b[5.2174##0.1863]/1?-5b[5.2174##0.1863]/1?-5b[5.2174##0.1863]/1?-5b[5.2174##0.1863]/1?-5b[5.2174##0.1863]/1?-5b[5.2174##0.1863]/1?-5b[5.2174##0.1863]/1?-5b[5.2174##0.1863]/1?-5b[5.2174##0.1863]/1?-5b[5.2174##0.1863]/1?-5b[5.2174##0.1863]/1?-5b[5.2174##0.1863]/1?-5b[5.2174##0.1863]/1?-5b[5.2174##0.1863]/1?-5b[5.2174##0.1863]/1?-5b[5.2174##0.1863]/1?-5b[5.2174##0.1863]/1?-5b[5.2174##0.1863]/1?-5b[5.2174##0.1863]/1?-5b[5.2174##0.1863]/1?-5b[5.2174##0.1863]/1?-5b[5.2174##0.1863]/1?-5b[5.2174##0.1863]/1?-5b[5.2174##0.1863]/1?-5b[5.2174##0.1863]/1?-5b[5.2174##0.1863]/1?-5b[5.2174##0.1863]/1?-5b[5.2174##0.1863]/1?-5b[5.2174##0.1863]/1?-5b[5.2174##0.1863]/1?-5b[5.2174##0.1863]/1?-5b[5.2174##0.1863]/1?-5b[5.2174##0.1863]/1?-5b[5.2174##0.1863]/1?-5b[5.2174##0.1863]/1?-5b[5.2174##0.1863]/1?-5b[5.2174##0.1863]/1?-5b[5.2174##0.1863]/1?-5b[5.2174##0.1863]/1?-5b[5.2174##0.1863]/1?-5b[5.2174##0.1863]/1?-5b[5.2174##0.1863]/1?-5b[5.2174##0.1863]/1?-5b[5.2174##0.1863]/1?-5b[5.2174##0.1863]/1?-5b[5.2174##0.1863]/1?-5b[5.2174##0.1863]/1?-5b[5.2174##0.1863]/1?-5b[5.2174##0.1863]/1?-5b[5.2174##0.1863]/1?-5b[5.2174##0.1863]/1?-5b[5.2174##0.1863]/1?-5b[5.2174##0.1863]/1?-5b[5.2174##0.1863]/1?-5b[5.2174##0.1863]/1?-5b[5.2174##0.1863]/1?-5b[5.2174##0.1863]/1?-5b[5.2174##0.1863]/1?-5b[5.2174##0.1863]/1?-5b[5.2174##0.1863]/1?-5b[5.2174##0.1863]/1?-5b[5.2174##0.1863]/1?-5b[5.2174##0.1863]/1?-5b[5.2174##0.1863]/1?-5b[5.2174##0.1863]/1?-5b[5.2174##0.1863]/1?-5b[5.2174##0.1863]/1?-5b[5.2174##0.1863]/1?-5b[5.2174##0.1863]/1?-5b[5.2174##0.1863]/1?-5b[5.2174##0.1863]/1?-5b[5.2174##0.1863]/1?-5b[5.2174##0.1863]/1?-5b[5.2174##0.1863]/1?-5b[5.2174##0.1863]/1?-5b[5.2174##0.1863]/1?-5b[5.2174##0.1863]/1?-5b[5.2174##0.1863]/1?-5b[5.2174##0.1863]/1?-5b[5.2174##0.1863]/1?-5b[5.2174##0.1863]/1?-5b[5.2174##0.1863]/1?-5b[5.2174##0.1863]/1?-5b[5.2174##0.1863]/1?-5b[5.2174##0.1863]/1?-5b[5.2174##0.1863]/1?-5b[5.2174##0.1863]/1?-5b[5.2174##0.1863]/1?-5b[5.2174##0.1863]/1?-5b[5.2174##0.1863]/1?-5b[5.2174##0.1863]/1?-5b[5.2174##0.1863]/1?-5b[5.2174##0.1863]/1?-5b[5.2174##0.1863]/1?-5b[5.2174##0.1863]/1?-5b[5.2174##0.1863]/1?-5b[5.2174##0.1863]/1?-5b[5.2174##0.1863]/1?-5b[5.2174##0.1863]/1?-5b[5.2174##0.1863]/1?-5b[5.2174##0.1863]/1?-5b[5.2174##0.1863]/1?-5b[5.2174##0.1863]/1?-5b[5.2174##0.1863]/1?-5b[5.2174##0.1863]/1?-5b[5.2174##0.1863]/1?-5b[5.2174##0.1863]/1?-5b[5.2174##0.1863]/1?-5b[5.2174##0.1863]/1?-5b[5.2174##0.1863]/1?-5b[5.2174##0.1863]/1?-5b[5.2174##0.1863]/1?-5b[5.2174##0.1863]/1?-5b[5.2174##0.1863]/1?-5b[5.2174##0.1863]/1?-5b[5.2174##0.1863]/1?-5b[5.2174##0.1863]/1?-5b[5.2174##0.1863]/1?-5b[5.2174##0.1863]/1?-5b[5.2174##0.1863]/1?-5b[5.2174##0.1863]/1?-5b[5.2174##0.1863]/1?-5b[5.2174##0.1863]/1?-5b[5.2174##0.1863]/1?-5b[5.2174##0.1863]/1?-5b[5.2174##0.1863]/1?-5b[5.2174##0.1863]/1?-5b[5.2174##0.1863]/1?-5b[5.2174##0.1863]/1?-5b[5.2174##0.1863]/1?-5b[5.2174##0.1863]/1?-5b[5.2174##0.1863]/1?-5b[5.2174##0.1863]/1?-5b[5.2174##0.1863]/1?-5b[5.2174##0.1863]/1?-5b[5.2174##0.1863]/1?-5b[5.2174##0.1863]/1?-5b[5.2174##0.1863]/1?-5b[5.2174##0.1863]/1?-5b[5.2174##0.1863]/1?-5b[5.2174##0.1863]/1?-5b[5.2174##0.1863]/1?-5b[5.2174##0.1863]/1?-5b[5.2174##0.1863]/1?-5b[5.2174##0.1863]/1?-5b[5.2174##0.1863]/1?-5b[5.2174##0.1863]/1?-5b[5.2174##0.1863]/1?-5b[5.2174##0.1863]/1?-5b[5.2174##0.1863]/1?-5b[5.2174##0.1863]/1?-5b[5.2174##0.1863]/1?-5b[5.2174##0.1863]/1?-5b[5.2174##0.1863]/1?-5b[5.2174##0.1863]/1?-5b[5.2174##0.1863]/1?-5b[5.2174##0.1863]/1?-5b[5.2174##0.1863]/1?-5b[5.2174##0.1863]/1?-5b[5.2174##0.1863]/1?-5b[5.2174##0.1863]/1?-5b[5.2174##0.1863]/1?-5b[5.2174##0.1863]/1?-5b[5.2174##0.1863]/1?-5b[5.2174##0.1863]/1?-5b[5.2174##0.1863]/1?-5b[5.2174##0.1863]/1?-5b[5.2174##0.1863]/1?-5b[5.2174##0.1863]/1?-5b[5.2174##0.1863]/1?-5b[5.2174##0.1863]/1?-5b[5.2174##0.1863]/1?-5b[5.2174##0.1863]/1?-5b[5.2174##0.1863]/1?-5b[5.2174##0.1863]/1?-5b[5.2174##0.1863]/1?-5b[5.2174##0.1863]/1?-5b[5.2174##0.1863]/1?-5b[5.2174##0.1863]/1?-5b[5.2174##0.1863]/1?-5b[5.2174##0.1863]/1?-5b[5.2174##0.1863]/1?-5b[5.2174##0.1863]/1?-5b[5.2174##0.1863]/1?-5b[5.2174##0.1863]/1?-5b[5.2174##0.1863]/1?-5b[5.2174##0.1863]/1?-5b[5.2174##0.1863]/1?-5b[5.2174##0.1863]/1?-5b[5.2174##0.1863]/1?-5b[5.2174##0.1863]/1?-5b[5.2174##0.1863]/1?-5b[5.2174##0.1863]/1?-5b[5.2174##0.1863]/1?-5b[5.2174##0.1863]/1?-5b[5.2174##0.1863]/1?-5b[5.2174##0.1863]/1?-5b[5.2174##0.1863]/1?-5b[5.2174##0.1863]/1?-5b[5.2174##0.1863]/1?-5b[5.2174##0.1863]/1?-5b[5.2174##0.1863]/1?-5b[5.2174##0.1863]/1?-5b[5.2174##0.1863]/1?-5b[5.2174##0.1863]/1?-5b[5.2174##0.1863]/1?-5b[5.2174##0.1863]/1?-5b[5.2174##0.1863]/1?-5b[5.2174##0.1863]/1?-5b[5.2174##0.1863]/1?-5b[5.2174##0.1863]/1?-5b[5.2174##0.1863]/1?-5b[5.2174##0.1863]/1?-5b[5.2174##0.1863]/1?-5b[5.2174##0.1863]/1?-5b[5.2174##0.1863]/1?-5b[5.2174##0.1863]/1?-5b[5.2174##0.1863]/1?-5b[5.2174##0.1863]/1?-5b[5.2174##0.1863]/1?-5b[5.2174##0.1863]/1?-5b[5.2174##0.1863]/1?-5b[5.2174##0.1863]/1?-5b[5.2174##0.1863]/1?-5b[5.2174##0.1863]/1?-5b[5.2174##0.1863]/1?-5b[5.2174##0.1863]/1?-5b[5.2174##0.1863]/1?-5b[5.2174##0.1863]/1?-5b[5.2174##0.1863]/1?-5b[5.2174##0.1863]/1?-5b[5.2174##0.1863]/1?-5b[5.2174##0.1863]/1?-5b[5.2174##0.1863]/1?-5b[5.2174##0.1863]/1?-5b[5.2174##0.1863]/1?-5b[5.2174##0.1863]/1?-5b[5.2174##0.1863]/1?-5b[5.2174##0.1863]/1?-5b[5.2174##0.1863]/1?-5b[5.2174##0.1863]/1?-5b[5.2174##0.1863]/1?-5b[5.2174##0.1863]/1?-5b[5.2174##0.1863]/1?-5b[5.2174##0.1863]/1?-5b[5.2174##0.1863]/1?-5b[5.2174##0.1863]/1?-5b[5.2174##0.1863]/1?-5b[5.2174##0.1863]/1?-5b[5.2174##0.1863]/1?-5b[5.2174##0.1863]/1?-5b[5.2174##0.1863]/1?-5b[5.2174##0.1863]/1?-5b[5.2174##0.1863]/1?-5b[5.2174##0.1863]/1?-5b[5.2174##0.1863]/1?-5b[5.2174##0.1863]/1?-5b[5.2174##0.1863]/1?-5b[5.2174##0.1863]/1?-5b[5.2174##0.1863]/1?-5b[5.2174##0.1863]/1?-5b[5.2174##0.1863]/1?-5b[5.2174##0.1863]/1?-5b[5.2174##0.1863]/1?-5b[5.2174##0.1863]/1?-5b[5.2174##0.1863]/1?-5b[5.2174##0.1863]/1?-5b[5.2174##0.1863]/1?-5b[5.2174##0.1863]/1?-5b[5.2174##0.1863]/1?-5b[5.2174##0.1863]/1?-5b[5.2174##0.1863]/1?-5b[5.2174##0.1863]/1?-5b[5.2174##0.1863]/1?-5b[5.2174##0.1863]/1?-5b[5.2174##0.1863]/1?-5b[5.2174##0.1863]/1?-5b[5.2174##0.1863]/1?-5b[5.2174##0.1863]/1?-5b[5.2174##0.1863]/1?-5b[5.2174##0.1863]/1?-5b[5.2174##0.1863]/1?-5b[5.2174##0.1863]/1?-5b[5.2174##0.1863]/1?-5b[5.2174##0.1863]/1?-5b[5.2174##0.1863]/1?-5b[5.2174##0.1863]/1?-5b[5.2174##0.1863]/1?-5b[5.2174##0.1863]/1?-5b[5.2174##0.1863]/1?-5b[5.2174##0.1863]/1?-5b[5.2174##0.1863]/1?-5b[5.2174##0.1863]/1?-5b[5.2174##0.1863]/1?-5b[5.2174##0.1863]/1?-5b[5.2174##0.1863]/1?-5b[5.2174##0.1863]/1?-5b[5.2174##0.1863]/1?-5b[5.2174##0.1863]/1?-5b[5.2174##0.1863]/1?-5b[5.2174##0.1863]/1?-5b[5.2174##0.1863]/1?-5b[5.2174##0.1863]/1?-5b[5.2174##0.1863]/1?-5b[5.2174##0.1863]/1?-5b[5.2174##0.1863]/1?-5b[5.2174##0.1863]/1?-5b[5.2174##0.1863]/1?-5b[5.2174##0.1863]/1?-5b[5.2174##0.1863]/1?-5b[5.2174##0.1863]/1?-5b[5.2174##0.1863]/1?-5b[5.2174##0.1863]/1?-5b[5.2174##0.1863]/1?-5b[5.2174##0.1863]/1?-5b[5.2174##0.1863]/1?-5b[5.2174##0.1863]/1?-5b[5.2174##0.1863]/1?-5b[5.2174##0.1863]/1?-5b[5.2174##0.1863]/1?-5b[5.2174##0.1863]/1?-5b[5.2174##0.1863]/1?-5b[5.2174##0.1863]/1?-5b[5.2174##0.1863]/1?-5b[5.2174##0.1863]/1?-5b[5.2174##0.1863]/1?-5b[5.2174##0.1863]/1?-5b[5.2174##0.1863]/1?-5b[5.2174##0.1863]/1?-5b[5.2174##0.1863]/1?-5b[5.2174##0.1863]/1?-5b[5.2174##0.1863]/1?-5b[5.2174##0.1863]/1?-5b[5.2174##0.1863]/1?-5b[5.2174##0.1863]/1?-5b[5.2174##0.1863]/1?-5b[5.2174##0.1863]/1?-5b[5.2174##0.1863]/1?-5b[5.2174##0.1863]/1?-5b[5.2174##0.1863]/1?-5b[5.2174##0.1863]/1?-5b[5.2174##0.1863]/1?-5b[5.2174##0.1863]/1?-5b[5.2174##0.1863]/1?-5b[5.2174##0.1863]/1?-5b[5.2174##0.1863]/1?-5b[5.2174##0.1863]/1?-5b[5.2174##0.1863]/1?-5b[5.2174##0.1863]/1?-5b[5.2174##0.1863]/1?-5b[5.2174##0.1863]/1?-5b[5.2174##0.1863]/1?-5b[5.2174##0.1863]/1?-5b[5.2174##0.1863]/1?-5b[5.2174##0.1863]/1?-5b[5.2174##0.1863]/1?-5b[5.2174##0.1863]/1?-5b[5.2174##0.1863]/1?-5b[5.2174##0.1863]/1?-5b[5.2174##0.1863]/1?-5b[5.2174##0.1863]/1?-5b[5.2174##0.1863]/1?-5b[5.2174##0.1863]/1?-5b[5.2174##0.1863]/1?-5b[5.2174##0.1863]/1?-5b[5.2174##0.1863]/1?-5b[5.2174##0.1863]/1?-5b[5.2174##0.1863]/1?-5b[5.2174##0.1863]/1?-5b[5.2174##0.1863]/1?-5b[5.2174##0.1863]/1?-5b[5.2174##0.1863]/1?-5b[5.2174##0.1863]/1?-5b[5.2174##0.1863]/1?-5b[5.2174##0.1863]/1?-5b[5.2174##0.1863]/1?-5b[5.2174##0.1863]/1?-5b[5.2174##0.1863]/1?-5b[5.2174##0.1863]/1?-5b[5.2174##0.1863]/1?-5b[5.2174##0.1863]/1?-5b[5.2174##0.1863]/1?-5b[5.2174##0.1863]/1?-5b[5.2174##0.1863]/1?-5b[5.2174##0.1863]/1?-5b[5.2174##0.1863]/1?-5b[5.2174##0.1863]/1?-5b[5.2174##0.1863]/1?-5b[5.2174##0.1863]/1?-5b[5.2174##0.1863]/1?-5b[5.2174##0.1863]/1?-5b[5.2174##0.1863]/1?-5b[5.2174##0.1863]/1?-5b[5.2174##0.1863]/1?-5b[5.2174##0.1863]/1?-5b[5.2174##0.1863]/1?-5b[5.2174##0.1863]/1?-5b[5.2174##0.1863]/1?-5b[5.2174##0.1863]/1?-5b[5.2174##0.1863]/1?-5b[5.2174##0.1863]/1?-5b[5.2174##0.1863]/1?-5b[5.2174##0.1863]/1?-5b[5.2174##0.1863]/1?-5b[5.2174##0.1863]/1?-5b[5.2174##0.1863]/1?-5b[5.2174##0.1863]/1?-5b[5.2174##0.1863]/1?-5b[5.2174##0.1863]/1?-5b[5.2174##0.1863]/1?-5b[5.2174##0.1863]/1?-5b[5.2174##0.1863]/1?-5b[5.2174##0.1863]/1?-5b[5.2174##0.1863]/1?-5b[5.2174##0.1863]/1?-5b[5.2174##0.1863]/1?-5b[5.2174##0.1863]/1?-5b[5.2174##0.1863]/1?-5b[5.2174##0.1863]/1?-5b[5.2174##0.1863]/1?-5b[5.2174##0.1863]/1?-5b[5.2174##0.1863]/1?-5b[5.2174##0.1863]/1?-5b[5.2174##0.1863]/1?-5b[5.2174##0.1863]/1?-5b[5.2174##0.1863]/1?-5b[5.2174##0.1863]/1?-5b[5.2174##0.1863]/1?-5b[5.2174##0.1863]/1?-5b[5.2174##0.1863]/1?-5b[5.2174##0.1863]/1?-5b[5.2174##0.1863]/1?-5b[5.2174##0.1863]/1?-5b[5.2174##0.1863]/1?-5b[5.2174##0.1863]/1?-5b[5.2174##0.1863]/1?-5b[5.2174##0.1863]/1?-5b[5.2174##0.1863]/1?-5b[5.2174##0.1863]/1?-5b[5.2174##0.1863]/1?-5b[5.2174##0.1863]/1?-5b[5.2174##0.1863]/1?-5b[5.2174##0.1863]/1?-5b[5.2174##0.1863]/1?-5b[5.2174##0.1863]/1?-5b[5.2174##0.1863]/1?-5b[5.2174##0.1863]/1?-5b[5.2174##0.1863]/1?-5b[5.2174##0.1863]/1?-5b[5.2174##0.1863]/1?-5b[5.2174##0.1863]/1?-5b[5.2174##0.1863]/1?-5b[5.2174##0.1863]/1?-5b[5.2174##0.1863]/1?-5b[5.2174##0.1863]/1?-5b[5.2174##0.1863]/1?-5b[5.2174##0.1863]/1?-5b[5.2174##0.1863]/1?-5b[5.2174##0.1863]/1?-5b[5.2174##0.1863]/1?-5b[5.2174##0.1863]/1?-5b[5.2174##0.1863]/1?-5b[5.2174##0.1863]/1?-5b[5.2174##0.1863]/1?-5b[5.2174##0.1863]/1?-5b[5.2174##0.1863]/1?-5b[5.2174##0.1863]/1?-5b[5.2174##0.1863]/1?-5b[5.2174##0.1863]/1?-5b[5.2174##0.1863]/1?-5b[5.2174##0.1863]/1?-5b[5.2174##0.1863]/1?-5b[5.2174##0.1863]/1?-5b[5.2174##0.1863]/1?-5b[5.2174##0.1863]/1?-5b[5.2174##0.1863]/1?-5b[5.2174##0.1863]/1?-5b[5.2174##0.1863]/1?-5b[5.2174##0.1863]/1?-5b[5.2174##0.1863]/1?-5b[5.2174##0.1863]/1?-5b[5.2174##0.1863]/1?-5b[5.2174##0.1863]/1?-5b[5.2174##0.1863]/1?-5b[5.2174##0.1863]/1?-5b[5.2174##0.1863]/1?-5b[5.2174##0.1863]/1?-5b[5.2174##0.1863]/1?-5b[5.2174##0.1863]/1?-5b[5.2174##0.1863]/1?-5b[5.2174##0.1863]/1?-5b[5.2174##0.1863]/1?-5b[5.2174##0.1863]/1?-5b[5.2174##0.1863]/1?-5b[5.2174##0.1863]/1?-5b[5.2174##0.1863]/1?-5b[5.2174##0.1863]/1?-5b[5.2174##0.1863]/1?-5b[5.2174##0.1863]/1?-5b[5.2174##0.1863]/1?-5b[5.2174##0.1863]/1?-5b[5.2174##0.1863]/1?-5b[5.2174##0.1863]/1?-5b[5.2174##0.1863]/1?-5b[5.2174##0.1863]/1?-5b[5.2174##0.1863]/1?-5b[5.2174##0.1863]/1?-5b[5.2174##0.1863]/1?-5b[5.2174##0.1863]/1?-5b[5.2174##0.1863]/1?-5b[5.2174##0.1863]/1?-5b[5.2174##0.1863]/1?-5b[5.2174##0.1863]/1?-5b[5.2174##0.1863]/1?-5b[5.2174##0.1863]/1?-5b[5.2174##0.1863]/1?-5b[5.2174##0.1863]/1?-5b[5.2174##0.1863]/1?-5b[5.2174##0.1863]/1?-5b[5.2174##0.1863]/1?-5b[5.2174##0.1863]/1?-5b[5.2174##0.1863]/1?-5b[5.2174##0.1863]/1?-5b[5.2174##0.1863]/1?-5b[5.2174##0.1863]/1?-5b[5.2174##0.1863]/1?-5b[5.2174##0.1863]/1?-5b[5.2174##0.1863]/1?-5b[5.2174##0.1863]/1?-5b[5.2174##0.1863]/1?-5b[5.2174##0.1863]/1?-5b[5.2174##0.1863]/1?-5b[5.2174##0.1863]/1?-5b[5.2174##0.1863]/1?-5b[5.2174##0.1863]/1?-5b[5.2174##0.1863]/1?-5b[5.2174##0.1863]/1?-5b[5.2174##0.1863]/1?-5b[5.2174##0.1863]/1?-5b[5.2174##0.1863]/1?-5b[5.2174##0.1863]/1?-5b[5.2174##0.1863]/1?-5b[5.2174##0.1863]/1?-5b[5.2174##0.1863]/1?-5b[5.2174##0.1863]/1?-5b[5.2174##0.1863]/1?-5b[5.2174##0.1863]/1?-5b[5.2174##0.1863]/1?-5b[5.2174##0.1863]/1?-5b[5.2174##0.1863]/1?-5b[5.2174##0.1863]/1?-5b[5.2174##0.1863]/1?-5b[5.2174##0.1863]/1?-5b[5.2174##0.1863]/1?-5b[5.2174##0.1863]/1?-5b[5.2174##0.1863]/1?-5b[5.2174##0.1863]/1?-5b[5.2174##0.1863]/1?-5b[5.2174##0.1863]/1?-5b[5.2174##0.1863]/1?-5b[5.2174##0.1863]/1?-5b[5.2174##0.1863]/1?-5b[5.2174##0.1863]/1?-5b[5.2174##0.1863]/1?-5b[5.2174##0.1863]/1?-5b[5.2174##0.1863]/1?-5b[5.2174##0.1863]/1?-5b[5.2174##0.1863]/1?-5b[5.2174##0.1863]/1?-5b[5.2174##0.1863]/1?-5b[5.2174##0.1863]/1?-5b[5.2174##0.1863]/1?-5b[5.2174##0.1863]/1?-5b[5.2174##0.1863]/1?-5b[5.2174##0.1863]/1?-5b[5.2174##0.1863]/1?-5b[5.2174##0.1863]/1?-5b[5.2174##0.1863]/1?-5b[5.2174##0.1863]/1?-5b[5.2174##0.1863]/1?-5b[5.2174##0.1863]/1?-5b[5.2174##0.1863]/1?-5b[5.2174##0.1863]/1?-5b[5.2174##0.1863]/1?-5b[5.2174##0.1863]/1?-5b[5.2174##0.1863]/1?-5b[5.2174##0.1863]/1?-5b[5.2174##0.1863]/1?-5b[5.2174##0.1863]/1?-5b[5.2174##0.1863]/1?-5b[5.2174##0.1863]/1?-5b[5.2174##0.1863]/1?-5b[5.2174##0.1863]/1?-5b[5.2174##0.1863]/1?-5b[5.2174##0.1863]/1?-5b[5.2174##0.1863]/1?-5b[5.2174##0.1863]/1?-5b[5.2174##0.1863]/1?-5b[5.2174##0.1863]/1?-5b[5.2174##0.1863]/1?-5b[5.2174##0.1863]/1?-5b[5.2174##0.1863]/1?-5b[5.2174##0.1863]/1?-5b[5.2174##0.1863]/1?-5b[5.2174##0.1863]/1?-5b[5.2174##0.1863]/1?-5b[5.2174##0.1863]/1?-5b[5.2174##0.1863]/1?-5b[5.2174##0.1863]/1?-5b[5.2174##0.1863]/1?-5b[5.2174##0.1863]/1?-5b[5.2174##0.1863]/1?-5b[5.2174##0.1863]/1?-5b[5.2174##0.1863]/1?-5b[5.2174##0.1863]/1?-5b[5.2174##0.1863]/1?-5b[5.2174##0.1863]/1?-5b[5.2174##0.1863]/1?-5b[5.2174##0.1863]/1?-5b[5.2174##0.1863]/1?-5b[5.2174##0.1863]/1?-5b[5.2174##0.1863]/1?-5b[5.2174##0.1863]/1?-5b[5.2174##0.1863]/1?-5b[5.2174##0.1863]/1?-5b[5.2174##0.1863]/1?-5b[5.2174##0.1863]/1?-5b[5.2174##0.1863]/1?-5b[5.2174##0.1863]/1?-5b[5.2174##0.1863]/1?-5b[5.2174##0.1863]/1?-5b[5.2174##0.1863]/1?-5b[5.2174##0.1863]/1?-5b[5.2174##0.1863]/1?-5b[5.2174##0.1863]/1?-5b[5.2174##0.1863]/1?-5b[5.2174##0.1863]/1?-5b[5.2174##0.1863]/1?-5b[5.2174##0.1863]/1?-5b[5.2174##0.1863]/1?-5b[5.2174##0.1863]/1?-5b[5.2174##0.1863]/1?-5b[5.2174##0.1863]/1?-5b[5.2174##0.1863]/1?-5b[5.2174##0.1863]/1?-5b[5.2174##0.1863]/1?-5b[5.2174##0.1863]/1?-5b[5.2174##0.1863]/1?-5b[5.2174##0.1863]/1?-5b[5.2174##0.1863]/1?-5b[5.2174##0.1863]/1?-5b[5.2174##0.1863]/1?-5b[5.2174##0.1863]/1?-5b[5.2174##0.1863]/1?-5b[5.2174##0.1863]/1?-5b[5.2174##0.1863]/1?-5b[5.2174##0.1863]/1?-5b[5.2174##0.1863]/1?-5b[5.2174##0.1863]/1?-5b[5.2174##0.1863]/1?-5b[5.2174##0.1863]/1?-5b[5.2174##0.1863]/1?-5b[5.2174##0.1863]/1?-5b[5.2174##0.1863]/1?-5b[5.2174##0.1863]/1?-5b[5.2174##0.1863]/1?-5b[5.2174##0.1863]/1?-5b[5.2174##0.1863]/1?-5b[5.2174##0.1863]/1?-5b[5.2174##0.1863]/1?-5b[5.2174##0.1863]/1?-5b[5.2174##0.1863]/1?-5b[5.2174##0.1863]/1?-5b[5.2174##0.1863]/1?-5b[5.2174##0.1863]/1?-5b[5.2174##0.1863]/1?-5b[5.2174##0.1863]/1?-5b[5.2174##0.1863]/1?-5b[5.2174##0.1863]/1?-5b[5.2174##0.1863]/1?-5b[5.2174##0.1863]/1?-5b[5.2174##0.1863]/1?-5b[5.2174##0.1863]/1?-5b[5.2174##0.1863]/1?-5b[5.2174##0.1863]/1?-5b[5.2174##0.1863]/1?-5b[5.2174##0.1863]/1?-5b[5.2174##0.1863]/1?-5b[5.2174##0.1863]/1?-5b[5.2174##0.1863]/1?-5b[5.2174##0.1863]/1?-5b[5.2174##0.1863]/1?-5b[5.2174##0.1863]/1?-5b[5.2174##0.1863]/1?-5b[5.2174##0.1863]/1?-5b[5.2174##0.1863]/1?-5b[5.2174##0.1863]/1?-5b[5.2174##0.1863]/1?-5b[5.2174##0.1863]/1?-5b[5.2174##0.1863]/1?-5b[5.2174##0.1863]/1?-5b[5.2174##0.1863]/1?-5b[5.2174##0.1863]/1?-5b[5.2174##0.1863]/1?-5b[5.2174##0.1863]/1?-5b[5.2174##0.1863]/1?-5b[5.2174##0.1863]/1?-5b[5.2174##0.1863]/1?-5b[5.2174##0.1863]/1?-5b[5.2174##0.1863]/1?-5b[5.2174##0.1863]/1?-5b[5.2174##0.1863]/1?-5b[5.2174##0.1863]/1?-5b[5.2174##0.1863]/1?-5b[5.2174##0.1863]/1?-5b[5.2174##0.1863]/1?-5b[5.2174##0.1863]/1?-5b[5.2174##0.1863]/1?-5b[5.2174##0.1863]/1?-5b[5.2174##0.1863]/1?-5b[5.2174##0.1863]/1?-5b[5.2174##0.1863]/1?-5b[5.2174##0.1863]/1?-5b[5.2174##0.1863]/1?-5b[5.2174##0.1863]/1?-5b[5.2174##0.1863]/1?-5b[5.2174##0.1863]/1?-5b[5.2174##0.1863]/1?-5b[5.2174##0.1863]/1?-5b[5.2174##0.1863]/1?-5b[5.2174##0.1863]/1?-5b[5.2174##0.1863]/1?-5b[5.2174##0.1863]/1?-5b[5.2174##0.1863]/1?-5b[5.2174##0.1863]/1?-5b[5.2174##0.1863]/1?-5b[5.2174##0.1863]/1?-5b[5.2174##0.1863]/1?-5b[5.2174##0.1863]/1?-5b[5.2174##0.1863]/1?-5b[5.2174##0.1863]/1?-5b[5.2174##0.1863]/1?-5b[5.2174##0.1863]/1?-5b[5.2174##0.1863]/1?-5b[5.2174##0.1863]/1?-5b[5.2174##0.1863]/1?-5b[5.2174##0.1863]/1?-5b[5.2174##0.1863]/1?-5b[5.2174##0.1863]/1?-5b[5.2174##0.1863]/1?-5b[5.2174##0.1863]/1?-5b[5.2174##0.1863]/1?-5b[5.2174##0.1863]/1?-5b[5.2174##0.1863]/1?-5b[5.2174##0.1863]/1?-5b[5.2174##0.1863]/1?-5b[5.2174##0.1863]/1?-5b[5.2174##0.1863]/1?-5b[5.2174##0.1863]/1?-5b[5.2174##0.1863]/1?-5b[5.2174##0.1863]/1?-5b[5.2174##0.1863]/1?-5b[5.2174##0.1863]/1?-5b[5.2174##0.1863]/1?-5b[5.2174##0.1863]/1?-5b[5.2174##0.1863]/1?-5b[5.2174##0.1863]/1?-5b[5.2174##0.1863]/1?-5b[5.2174##0.1863]/1?-5b[5.2174##0.1863]/1?-5b[5.2174##0.1863]/1?-5b[5.2174##0.1863]/1?-5b[5.2174##0.1863]/1?-5b[5.2174##0.1863]/1?-5b[5.2174##0.1863]/1?-5b[5.2174##0.1863]/1?-5b[5.2174##0.1863]/1?-5b[5.2174##0.1863]/1?-5b[5.2174##0.1863]/1?-5b[5.2174##0.1863]/1?-5b[5.2174##0.1863]/1?-5b[5.2174##0.1863]/1?-5b[5.2174##0.1863]/1?-5b[5.2174##0.1863]/1?-5b[5.2174##0.1863]/1?-5b[5.2174##0.1863]/1?-5b[5.2174##0.1863]/1?-5b[5.2174##0.1863]/1?-5b[5.2174##0.1863]/1?-5b[5.2174##0.1863]/1?-5b[5.2174##0.1863]/1?-5b[5.2174##0.1863]/1?-5b[5.2174##0.1863]/1?-5b[5.2174##0.1863]/1?-5b[5.2174##0.1863]/1?-5b[5.2174##0.1863]/1?-5b[5.2174##0.1863]/1?-5b[5.2174##0.1863]/1?-5b[5.2174##0.1863]/1?-5b[5.2174##0.1863]/1?-5b[5.2174##0.1863]/1?-5b[5.2174##0.1863]/1?-5b[5.2174##0.1863]/1?-5b[5.2174##0.1863]/1?-5b[5.2174##0.1863]/1?-5b[5.2174##0.1863]/1?-5b[5.2174##0.1863]/1?-5b[5.2174##0.1863]/1?-5b[5.2174##0.1863]/1?-5b[5.2174##0.1863]/1?-5b[5.2174##0.1863]/1?-5b[5.2174##0.1863]/1?-5b[5.2174##0.1863]/1?-5b[5.2174##0.1863]/1?-5b[5.2174##0.1863]/1?-5b[5.2174##0.1863]/1?-5b[5.2174##0.1863]/1?-5b[5.2174##0.1863]/1?-5b[5.2174##0.1863]/1?-5b[5.2174##0.1863]/1?-5b[5.2174##0.1863]/1?-5b[5.2174##0.1863]/1?-5b[5.2174##0.1863]/1?-5b[5.2174##0.1863]/1?-5b[5.2174##0.1863]/1?-5b[5.2174##0.1863]/1?-5b[5.2174##0.1863]/1?-5b[5.2174##0.1863]/1?-5b[5.2174##0.1863]/1?-5b[5.2174##0.1863]/1?-5b[5.2174##0.1863]/1?-5b[5.2174##0.1863]/1?-5b[5.2174##0.1863]/1?-5b[5.2174##0.1863]/1?-5b[5.2174##0.1863]/1?-5b[5.2174##0.1863]/1?-5b[5.2174##0.1863]/1?-5b[5.2174##0.1863]/1?-5b[5.2174##0.1863]/1?-5b[5.2174##0.1863]/1?-5b[5.2174##0.1863]/1?-5b[5.2174##0.1863]/1?-5b[5.2174##0.1863]/1?-5b[5.2174##0.1863]/1?-5b[5.2174##0.1863]/1?-5b[5.2174##0.1863]/1?-5b[5.2174##0.1863]/1?-5b[5.2174##0.1863]/1?-5b[5.2174##0.1863]/1?-5b[5.2174##0.1863]/1?-5b[5.2174##0.1863]/1?-5b[5.2174##0.1863]/1?-5b[5.2174##0.1863]/1?-5b[5.2174##0.1863]/1?-5b[5.2174##0.1863]/1?-5b[5.2174##0.1863]/1?-5b[5.2174##0.1863]/1?-5b[5.2174##0.1863]/1?-5b[5.2174##0.1863]/1?-5b[5.2174##0.1863]/1?-5b[5.2174##0.1863]/1?-5b[5.2174##0.1863]/1?-5b[5.2174##0.1863]/1?-5b[5.2174##0.1863]/1?-5b[5.2174##0.1863]/1?-5b[5.2174##0.1863]/1?-5b[5.2174##0.1863]/1?-5b[5.2174##0.1863]/1?-5b[5.2174##0.1863]/1?-5b[5.2174##0.1863]/1?-5b[5.2174##0.1863]/1?-5b[5.2174##0.1863]/1?-5b[5.2174##0.1863]/1?-5b[5.2174##0.1863]/1?-5b[5.2174##0.1863]/1?-5b[5.2174##0.1863]/1?-5b[5.2174##0.1863]/1?-5b[5.2174##0.1863]/1?-5b[5.2174##0.1863]/1?-5b[5.2174##0.1863]/1?-5b[5.2174##0.1863]/1?-5b[5.2174##0.1863]/1?-5b[5.2174##0.1863]/1?-5b[5.2174##0.1863]/1?-5b[5.2174##0.1863]/1?-5b[5.2174##0.1863]/1?-5b[5.2174##0.1863]/1?-5b[5.2174##0.1863]/1?-5b[5.2174##0.1863]/1?-5b[5.2174##0.1863]/1?-5b[5.2174##0.1863]/1?-5b[5.2174##0.1863]/1?-5b[5.2174##0.1863]/1?-5b[5.2174##0.1863]/1?-5b[5.2174##0.1863]/1?-5b[5.2174##0.1863]/1?-5b[5.2174##0.1863]/1?-5b[5.2174##0.1863]/1?-5b[5.2174##0.1863]/1?-5b[5.2174##0.1863]/1?-5b[5.2174##0.1863]/1?-5b[5.2174##0.1863]/1?-5b[5.2174##0.1863]/1?-5b[5.2174##0.1863]/1?-5b[5.2174##0.1863]/1?-5b[5.2174##0.1863]/1?-5b[5.2174##0.1863]/1?-5b[5.2174##0.1863]/1?-5b[5.2174##0.1863]/1?-5b[5.2174##0.1863]/1?-5b[5.2174##0.1863]/1?-5b[5.2174##0.1863]/1?-5b[5.2174##0.1863]/1?-5b[5.2174##0.1863]/1?-5b[5.2174##0.1863]/1?-5b[5.2174##0.1863]/1?-5b[5.2174##0.1863]/1?-5b[5.2174##0.1863]/1?-5b[5.2174##0.1863]/1?-5b[5.2174##0.1863]/1?-5b[5.2174##0.1863]/1?-5b[5.2174##0.1863]/1?-5b[5.2174##0.1863]/1?-5b[5.2174##0.1863]/1?-5b[5.2174##0.1863]/1?-5b[5.2174##0.1863]/1?-5b[5.2174##0.1863]/1?-5b[5.2174##0.1863]/1?-5b[5.2174##0.1863]/1?-5b[5.2174##0.1863]/1?-5b[5.2174##0.1863]/1?-5b[5.2174##0.1863]/1?-5b[5.2174##0.1863]/1?-5b[5.2174##0.1863]/1?-5b[5.2174##0.1863]/1?-5b[5.2174##0.1863]/1?-5b[5.2174##0.1863]/1?-5b[5.2174##0.1863]/1?-5b[5.2174##0.1863]/1?-5b[5.2174##0.1863]/1?-5b[5.2174##0.1863]/1?-5b[5.2174##0.1863]/1?-5b[5.2174##0.1863]/1?-5b[5.2174##0.1863]/1?-5b[5.2174##0.1863]/1?-5b[5.2174##0.1863]/1?-5b[5.2174##0.1863]/1?-5b[5.2174##0.1863]/1?-5b[5.2174##0.1863]/1?-5b[5.2174##0.1863]/1?-5b[5.2174##0.1863]/1?-5b[5.2174##0.1863]/1?-5b[5.2174##0.1863]/1?-5b[5.2174##0.1863]/1?-5b[5.2174##0.1863]/1?-5b[5.2174##0.1863]/1?-5b[5.2174##0.1863]/1?-5b[5.2174##0.1863]/1?-5b[5.2174##0.1863]/1?-5b[5.2174##0.1863]/1?-5b[5.2174##0.1863]/1?-5b[5.2174##0.1863]/1?-5b[5.2174##0.1863]/1?-5b[5.2174##0.1863]/1?-5b[5.2174##0.1863]/1?-5b[5.2174##0.1863]/1?-5b[5.2174##0.1863]/1?-5b[5.2174##0.1863]/1?-5b[5.2174##0.1863]/1?-5b[5.2174##0.1863]/1?-5b[5.2174##0.1863]/1?-5b[5.2174##0.1863]/1?-5b[5.2174##0.1863]/1?-5b[5.2174##0.1863]/1?-5b[5.2174##0.1863]/1?-5b[5.2174##0.1863]/1?-5b[5.2174##0.1863]/1?-5b[5.2174##0.1863]/1?-5b[5.2174##0.1863]/1?-5b[5.2174##0.1863]/1?-5b[5.2174##0.1863]/1?-5b[5.2174##0.1863]/1?-5b[5.2174##0.1863]/1?-5b[5.2174##0.1863]/1?-5b[5.2174##0.1863]/1?-5b[5.2174##0.1863]/1?-5b[5.2174##0.1863]/1?-5b[5.2174##0.1863]/1?-5b[5.2174##0.1863]/1?-5b[5.2174##0.1863]/1?-5b[5.2174##0.1863]/1?-5b[5.2174##0.1863]/1?-5b[5.2174##0.1863]/1?-5b[5.2174##0.1863]/1?-5b[5.2174##0.1863]/1?-5b[5.2174##0.1863]/1?-5b[5.2174##0.1863]/1?-5b[5.2174##0.1863]/1?-5b[5.2174##0.1863]/1?-5b[5.2174##0.1863]/1?-5b[5.2174##0.1863]/1?-5b[5.2174##0.1863]/1?-5b[5.2174##0.1863]/1?-5b[5.2174##0.1863]/1?-5b[5.2174##0.1863]/1?-5b[5.2174##0.1863]/1?-5b[5.2174##0.1863]/1?-5b[5.2174##0.1863]/1?-5b[5.2174##0.1863]/1?-5b[5.2174##0.1863]/1?-5b[5.2174##0.1863]/1?-5b[5.2174##0.1863]/1?-5b[5.2174##0.1863]/1?-5b[5.2174##0.1863]/1?-5b[5.2174##0.1863]/1?-5b[5.2174##0.1863]/1?-5b[5.2174##0.1863]/1?-5b[5.2174##0.1863]/1?-5b[5.2174##0.1863]/1?-5b[5.2174##0.1863]/1?-5b[5.2174##0.1863]/1?-5b[5.2174##0.1863]/1?-5b[5.2174##0.1863]/1?-5b[5.2174##0.1863]/1?-5b[5.2174##0.1863]/1?-5b[5.2174##0.1863]/1?-5b[5.2174##0.1863]/1?-5b[5.2174##0.1863]/1?-5b[5.2174##0.1863]/1?-5b[5.2174##0.1863]/1?-5b[5.2174##0.1863]/1?-5b[5.2174##0.1863]/1?-5b[5.2174##0.1863]/1?-5b[5.2174##0.1863]/1?-5b[5.2174##0.1863]/1?-5b[5.2174##0.1863]/1?-5b[5.2174##0.1863]/1?-5b[5.2174##0.1863]/1?-5b[5.2174##0.1863]/1?-5b[5.2174##0.1863]/1?-5b[5.2174##0.1863]/1?-5b[5.2174##0.1863]/1?-5b[5.2174##0.1863]/1?-5b[5.2174##0.1863]/1?-5b[5.2174##0.1863]/1?-5b[5.2174##0.1863]/1?-5b[5.2174##0.1863]/1?-5b[5.2174##0.1863]/1?-5b[5.2174##0.1863]/1?-5b[5.2174##0.1863]/1?-5b[5.2174##0.1863]/1?-5b[5.2174##0.1863]/1?-5b[5.2174##0.1863]/1?-5b[5.2174##0.1863]/1?-5b[5.2174##0.1863]/1?-5b[5.2174##0.1863]/1?-5b[5.2174##0.1863]/1?-5b[5.2174##0.1863]/1?-5b[5.2174##0.1863]/1?-5b[5.2174##0.1863]/1?-5b[5.2174##0.1863]/1?-5b[5.2174##0.1863]/1?-5b[5.2174##0.1863]/1?-5b[5.2174##0.1863]/1?-5b[5.2174##0.1863]/1?-5b[5.2174##0.1863]/1?-5b[5.2174##0.1863]/1?-5b[5.2174##0.1863]/1?-5b[5.2174##0.1863]/1?-5b[5.2174##0.1863]/1?-5b[5.2174##0.1863]/1?-5b[5.2174##0.1863]/1?-5b[5.2174##0.1863]/1?-5b[5.2174##0.1863]/1?-5b[5.2174##0.1863]/1?-5b[5.2174##0.1863]/1?-5b[5.2174##0.1863]/1?-5b[5.2174##0.1863]/1?-5b[5.2174##0.1863]/1?-5b[5.2174##0.1863]/1?-5b[5.2174##0.1863]/1?-5b[5.2174##0.1863]/1?-5b[5.2174##0.1863]/1?-5b[5.2174##0.1863]/1?-5b[5.2174##0.1863]/1?-5b[5.2174##0.1863]/1?-5b[5.2174##0.1863]/1?-5b[5.2174##0.1863]/1?-5b[5.2174##0.1863]/1?-5b[5.2174##0.1863]/1?-5b[5.2174##0.1863]/1?-5b[5.2174##0.1863]/1?-5b[5.2174##0.1863]/1?-5b[5.2174##0.1863]/1?-5b[5.2174##0.1863]/1?-5b[5.2174##0.1863]/1?-5b[5.2174##0.1863]/1?-5b[5.2174##0.1863]/1?-5b[5.2174##0.1863]/1?-5b[5.2174##0.1863]/1?-5b[5.2174##0.1863]/1?-5b[5.2174##0.1863]/1?-5b[5.2174##0.1863]/1?-5b[5.2174##0.1863]/1?-5b[5.2174##0.1863]/1?-5b[5.2174##0.1863]/1?-5b[5.2174##0.1863]/1?-5b[5.2174##0.1863]/1?-5b[5.2174##0.1863]/1?-5b[5.2174##0.1863]/1?-5b[5.2174##0.1863]/1?-5b[5.2174##0.1863]/1?-5b[5.2174##0.1863]/1?-5b[5.2174##0.1863]/1?-5b[5.2174##0.1863]/1?-5b[5.2174##0.1863]/1?-5b[5.2174##0.1863]/1?-5b[5.2174##0.1863]/1?-5b[5.2174##0.1863]/1?-5b[5.2174##0.1863]/1?-5b[5.2174##0.1863]/1?-5b[5.2174##0.1863]/1?-5b[5.2174##0.1863]/1?-5b[5.2174##0.1863]/1?-5b[5.2174##0.1863]/1?-5b[5.2174##0.1863]/1?-5b[5.2174##0.1863]/1?-5b[5.2174##0.1863]/1?-5b[5.2174##0.1863]/1?-5b[5.2174##0.1863]/1?-5b[5.2174##0.1863]/1?-5b[5.2174##0.1863]/1?-5b[5.2174##0.1863]/1?-5b[5.2174##0.1863]/1?-5b[5.2174##0.1863]/1?-5b[5.2174##0.1863]/1?-5b[5.2174##0.1863]/1?-5b[5.2174##0.1863]/1?-5b[5.2174##0.1863]/1?-5b[5.2174##0.1863]/1?-5b[5.2174##0.1863]/1?-5b[5.2174##0.1863]/1?-5b[5.2174##0.1863]/1?-5b[5.2174##0.1863]/1?-5b[5.2174##0.1863]/1?-5b[5.2174##0.1863]/1?-5b[5.2174##0.1863]/1?-5b[5.2174##0.1863]/1?-5b[5.2174##0.1863]/1?-5b[5.2174##0.1863]/1?-5b[5.2174##0.1863]/1?-5b[5.2174##0.1863]/1?-5b[5.2174##0.1863]/1?-5b[5.2174##0.1863]/1?-5b[5.2174##0.1863]/1?-5b[5.2174##0.1863]/1?-5b[5.2174##0.1863]/1?-5b[5.2174##0.1863]/1?-5b[5.2174##0.1863]/1?-5b[5.2174##0.1863]/1?-5b[5.2174##0.1863]/1?-5b[5.2174##0.1863]/1?-5b[5.2174##0.1863]/1?-5b[5.2174##0.1863]/1?-5b[5.2174##0.1863]/1?-5b[5.2174##0.1863]/1?-5b[5.2174##0.1863]/1?-5b[5.2174##0.1863]/1?-5b[5.2174##0.1863]/1?-5b[5.2174##0.1863]/1?-5b[5.2174##0.1863]/1?-5b[5.2174##0.1863]/1?-5b[5.2174##0.1863]/1?-5b[5.2174##0.1863]/1?-5b[5.2174##0.1863]/1?-5b[5.2174##0.1863]/1?-5b[5.2174##0.1863]/1?-5b[5.2174##0.1863]/1?-5b[5.2174##0.1863]/1?-5b[5.2174##0.1863]/1?-5b[5.2174##0.1863]/1?-5b[5.2174##0.1863]/1?-5b[5.2174##0.1863]/1?-5b[5.2174##0.1863]/1?-5b[5.2174##0.1863]/1?-5b[5.2174##0.1863]/1?-5b[5.2174##0.1863]/1?-5b[5.2174##0.1863]/1?-5b[5.2174##0.1863]/1?-5b[5.2174##0.1863]/1?-5b[5.2174##0.1863]/1?-5b[5.2174##0.1863]/1?-5b[5.2174##0.1863]/1?-5b[5.2174##0.1863]/1?-5b[5.2174##0.1863]/1?-5b[5.2174##0.1863]/1?-5b[5.2174##0.1863]/1?-5b[5.2174##0.1863]/1?-5b[5.2174##0.1863]/1?-5b[5.2174##0.1863]/1?-5b[5.2174##0.1863]/1?-5b[5.2174##0.1863]/1?-5b[5.2174##0.1863]/1?-5b[5.2174##0.1863]/1?-5b[5.2174##0.1863]/1?-5b[5.2174##0.1863]/1?-5b[5.2174##0.1863]/1?-5b[5.2174##0.1863]/1?-5b[5.2174##0.1863]/1?-5b[5.2174##0.1863]/1?-5b[5.2174##0.1863]/1?-5b[5.2174##0.1863]/1?-5b[5.2174##0.1863]/1?-5b[5.2174##0.1863]/1?-5b[5.2174##0.1863]/1?-5b[5.2174##0.1863]/1?-5b[5.2174##0.1863]/1?-5b[5.2174##0.1863]/1?-5b[5.2174##0.1863]/1?-5b[5.2174##0.1863]/1?-5b[5.2174##0.1863]/1?-5b[5.2174##0.1863]/1?-5b[5.2174##0.1863]/1?-5b[5.2174##0.1863]/1?-5b[5.2174##0.1863]/1?-5b[5.2174##0.1863]/1?-5b[5.2174##0.1863]/1?-5b[5.2174##0.1863]/1?-5b[5.2174##0.1863]/1?-5b[5.2174##0.1863]/1?-5b[5.2174##0.1863]/1?-5b[5.2174##0.1863]/1?-5b[5.2174##0.1863]/1?-5b[5.2174##0.1863]/1?-5b[5.2174##0.1863]/1?-5b[5.2174##0.1863]/1?-5b[5.2174##0.1863]/1?-5b[5.2174##0.1863]/1?-5b[5.2174##0.1863]/1?-5b[5.2174##0.1863]/1?-5b[5.2174##0.1863]/1?-5b[5.2174##0.1863]/1?-5b[5.2174##0.1863]/1?-5b[5.2174##0.1863]/1?-5b[5.2174##0.1863]/1?-5b[5.2174##0.1863]/1?-5b[5.2174##0.1863]/1?-5b[5.2174##0.1863]/1?-5b[5.2174##0.1863]/1?-5b[5.2174##0.1863]/1?-5b[5.2174##0.1863]/1?-5b[5.2174##0.1863]/1?-5b[5.2174##0.1863]/1?-5b[5.2174##0.1863]/1?-5b[5.2174##0.1863]/1?-5b[5.2174##0.1863]/1?-5b[5.2174##0.1863]/1?-5b[5.2174##0.1863]/1?-5b[5.2174##0.1863]/1?-5b[5.2174##0.1863]/1?-5b[5.2174##0.1863]/1?-5b[5.2174##0.1863]/1?-5b[5.2174##0.1863]/1?-5b[5.2174##0.1863]/1?-5b[5.2174##0.1863]/1?-5b[5.2174##0.1863]/1?-5b[5.2174##0.1863]/1?-5b[5.2174##0.1863]/1?-5b[5.2174##0.1863]/1?-5b[5.2174##0.1863]/1?-5b[5.2174##0.1863]/1?-5b[5.2174##0.1863]/1?-5b[5.2174##0.1863]/1?-5b[5.2174##0.1863]/1?-5b[5.2174##0.1863]/1?-5b[5.2174##0.1863]/1?-5b[5.2174##0.1863]/1?-5b[5.2174##0.1863]/1?-5b[5.2174##0.1863]/1?-5b[5.2174##0.1863]/1?-5b[5.2174##0.1863]/1?-5b[5.2174##0.1863]/1?-5b[5.2174##0.1863]/1?-5b[5.2174##0.1863]/1?-5b[5.2174##0.1863]/1?-5b[5.2174##0.1863]/1?-5b[5.2174##0.1863]/1?-5b[5.2174##0.1863]/1?-5b[5.2174##0.1863]/1?-5b[5.2174##0.1863]/1?-5b[5.2174##0.1863]/1?-5b[5.2174##0.1863]/1?-5b[5.2174##0.1863]/1?-5b[5.2174##0.1863]/1?-5b[5.2174##0.1863]/1?-5b[5.2174##0.1863]/1?-5b[5.2174##0.1863]/1?-5b[5.2174##0.1863]/1?-5b[5.2174##0.1863]/1?-5b[5.2174##0.1863]/1?-5b[5.2174##0.1863]/1?-5b[5.2174##0.1863]/1?-5b[5.2174##0.1863]/1?-5b[5.2174##0.1863]/1?-5b[5.2174##0.1863]/1?-5b[5.2174##0.1863]/1?-5b[5.2174##0.1863]/1?-5b[5.2174##0.1863]/1?-5b[5.2174##0.1863]/1?-5b[5.2174##0.1863]/1?-5b[5.2174##0.1863]/1?-5b[5.2174##0.1863]/1?-5b[5.2174##0.1863]/1?-5b[5.2174##0.1863]/1?-5b[5.2174##0.1863]/1?-5b[5.2174##0.1863]/1?-5b[5.2174##0.1863]/1?-5b[5.2174##0.1863]/1?-5b[5.2174##0.1863]/1?-5b[5.2174##0.1863]/1?-5b[5.2174##0.1863]/1?-5b[5.2174##0.1863]/1?-5b[5.2174##0.1863]/1?-5b[5.2174##0.1863]/1?-5b[5.2174##0.1863]/1?-5b[5.2174##0.1863]/1?-5b[5.2174##0.1863]/1?-5b[5.2174##0.1863]/1?-5b[5.2174##0.1863]/1?-5b[5.2174##0.1863]/1?-5b[5.2174##0.1863]/1?-5b[5.2174##0.1863]/1?-5b[5.2174##0.1863]/1?-5b[5.2174##0.1863]/1?-5b[5.2174##0.1863]/1?-5b[5.2174##0.1863]/1?-5b[5.2174##0.1863]/1?-5b[5.2174##0.1863]/1?-5b[5.2174##0.1863]/1?-5b[5.2174##0.1863]/1?-5b[5.2174##0.1863]/1?-5b[5.2174##0.1863]/1?-5b[5.2174##0.1863]/1?-5b[5.2174##0.1863]/1?-5b[5.2174##0.1863]/1?-5b[5.2174##0.1863]/1?-5b[5.2174##0.1863]/1?-5b[5.2174##0.1863]/1?-5b[5.2174##0.1863]/1?-5b[5.2174##0.1863]/1?-5b[5.2174##0.1863]/1?-5b[5.2174##0.1863]/1?-5b[5.2174##0.1863]/1?-5b[5.2174##0.1863]/1?-5b[5.2174##0.1863]/1?-5b[5.2174##0.1863]/1?-5b[5.2174##0.1863]/1?-5b[5.2174##0.1863]/1?-5b[5.2174##0.1863]/1?-5b[5.2174##0.1863]/1?-5b[5.2174##0.1863]/1?-5b[5.2174##0.1863]/1?-5b[5.2174##0.1863]/1?-5b[5.2174##0.1863]/1?-5b[5.2174##0.1863]/1?-5b[5.2174##0.1863]/1?-5b[5.2174##0.1863]/1?-5b[5.2174##0.1863]/1?-5b[5.2174##0.1863]/1?-5b[5.2174##0.1863]/1?-5b[5.2174##0.1863]/1?-5b[5.2174##0.1863]/1?-5b[5.2174##0.1863]/1?-5b[5.2174##0.1863]/1?-5b[5.2174##0.1863]/1?-5b[5.2174##0.1863]/1?-5b[5.2174##0.1863]/1?-5b[5.2174##0.1863]/1?-5b[5.2174##0.1863]/1?-5b[5.2174##0.1863]/1?-5b[5.2174##0.1863]/1?-5b[5.2174##0.1863]/1?-5b[5.2174##0.1863]/1?-5b[5.2174##0.1863]/1?-5b[5.2174##0.1863]/1?-5b[5.2174##0.1863]/1?-5b[5.2174##0.1863]/1?-5b[5.2174##0.1863]/1?-5b[5.2174##0.1863]/1?-5b[5.2174##0.1863]/1?-5b[5.2174##0.1863]/1?-5b[5.2174##0.1863]/1?-5b[5.2174##0.1863]/1?-5b[5.2174##0.1863]/1?-5b[5.2174##0.1863]/1?-5b[5.2174##0.1863]/1?-5b[5.2174##0.1863]/1?-5b[5.2174##0.1863]/1?-5b[5.2174##0.1863]/1?-5b[5.2174##0.1863]/1?-5b[5.2174##0.1863]/1?-5b[5.2174##0.1863]/1?-5b[5.2174##0.1863]/1?-5b[5.2174##0.1863]/1?-5b[5.2174##0.1863]/1?-5b[5.2174##0.1863]/1?-5b[5.2174##0.1863]/1?-5b[5.2174##0.1863]/1?-5b[5.2174##0.1863]/1?-5b[5.2174##0.1863]/1?-5b[5.2174##0.1863]/1?-5b[5.2174##0.1863]/1?-5b[5.2174##0.1863]/1?-5b[5.2174##0.1863]/1?-5b[5.2174##0.1863]/1?-5b[5.2174##0.1863]/1?-5b[5.2174##0.1863]/1?-5b[5.2174##0.1863]/1?-5b[5.2174##0.1863]/1?-5b[5.2174##0.1863]/1?-5b[5.2174##0.1863]/1?-5b[5.2174##0.1863]/1?-5b[5.2174##0.1863]/1?-5b[5.2174##0.1863]/1?-5b[5.2174##0.1863]/1?-5b[5.2174##0.1863]/1?-5b[5.2174##0.1863]/1?-5b[5.2174##0.1863]/1?-5b[5.2174##0.1863]/1?-5b[5.2174##0.1863]/1?-5b[5.2174##0.1863]/1?-5b[5.2174##0.1863]/1?-5b[5.2174##0.1863]/1?-5b[5.2174##0.1863]/1?-5b[5.2174##0.1863]/1?-5b[5.2174##0.1863]/1?-5b[5.2174##0.1863]/1?-5b[5.2174##0.1863]/1?-5b[5.2174##0.1863]/1?-5b[5.2174##0.1863]/1?-5b[5.2174##0.1863]/1?-5b[5.2174##0.1863]/1?-5b[5.2174##0.1863]/1?-5b[5.2174##0.1863]/1?-5b[5.2174##0.1863]/1?-5b[5.2174##0.1863]/1?-5b[5.2174##0.1863]/1?-5b[5.2174##0.1863]/1?-5b[5.2174##0.1863]/1?-5b[5.2174##0.1863]/1?-5b[5.2174##0.1863]/1?-5b[5.2174##0.1863]/1?-5b[5.2174##0.1863]/1?-5b[5.2174##0.1863]/1?-5b[5.2174##0.1863]/1?-5b[5.2174##0.1863]/1?-5b[5.2174##0.1863]/1?-5b[5.2174##0.1863]/1?-5b[5.2174##0.1863]/1?-5b[5.2174##0.1863]/1?-5b[5.2174##0.1863]/1?-5b[5.2174##0.1863]/1?-5b[5.2174##0.1863]/1?-5b[5.2174##0.1863]/1?-5b[5.2174##0.1863]/1?-5b[5.2174##0.1863]/1?-5b[5.2174##0.1863]/1?-5b[5.2174##0.1863]/1?-5b[5.2174##0.1863]/1?-5b[5.2174##0.1863]/1?-5b[5.2174##0.1863]/1?-5b[5.2174##0.1863]/1?-5b[5.2174##0.1863]/1?-5b[5.2174##0.1863]/1?-5b[5.2174##0.1863]/1?-5b[5.2174##0.1863]/1?-5b[5.2174##0.1863]/1?-5b[5.2174##0.1863]/1?-5b[5.2174##0.1863]/1?-5b[5.2174##0.1863]/1?-5b[5.2174##0.1863]/1?-5b[5.2174##0.1863]/1?-5b[5.2174##0.1863]/1?-5b[5.2174##0.1863]/1?-5b[5.2174##0.1863]/1?-5b[5.2174##0.1863]/1?-5b[5.2174##0.1863]/1?-5b[5.2174##0.1863]/1?-5b[5.2174##0.1863]/1?-5b[5.2174##0.1863]/1?-5b[5.2174##0.1863]/1?-5b[5.2174##0.1863]/1?-5b[5.2174##0.1863]/1?-5b[5.2174##0.1863]/1?-5b[5.2174##0.1863]/1?-5b[5.2174##0.1863]/1?-5b[5.2174##0.1863]/1?-5b[5.2174##0.1863]/1?-5b[5.2174##0.1863]/1?-5b[5.2174##0.1863]/1?-5b[5.2174##0.1863]/1?-5b[5.2174##0.1863]/1?-5b[5.2174##0.1863]/1?-5b[5.2174##0.1863]/1?-5b[5.2174##0.1863]/1?-5b[5.2174##0.1863]/1?-5b[5.2174##0.1863]/1?-5b[5.2174##0.1863]/1?-5b[5.2174##0.1863]/1?-5b[5.2174##0.1863]/1?-5b[5.2174##0.1863]/1?-5b[5.2174##0.1863]/1?-5b[5.2174##0.1863]/1?-5b[5.2174##0.1863]/1?-5b[5.2174##0.1863]/1?-5b[5.2174##0.1863]/1?-5b[5.2174##0.1863]/1?-5b[5.2174##0.1863]/1?-5b[5.2174##0.1863]/1?-5b[5.2174##0.1863]/1?-5b[5.2174##0.1863]/1?-5b[5.2174##0.1863]/1?-5b[5.2174##0.1863]/1?-5b[5.2174##0.1863]/1?-5b[5.2174##0.1863]/1?-5b[5.2174##0.1863]/1?-5b[5.2174##0.1863]/1?-5b[5.2174##0.1863]/1?-5b[5.2174##0.1863]/1?-5b[5.2174##0.1863]/1?-5b[5.2174##0.1863]/1?-5b[5.2174##0.1863]/1?-5b[5.2174##0.1863]/1?-5b[5.2174##0.1863]/1?-5b[5.2174##0.1863]/1?-5b[5.2174##0.1863]/1?-5b[5.2174##0.1863]/1?-5b[5.2174##0.1863]/1?-5b[5.2174##0.1863]/1?-5b[5.2174##0.1863]/1?-5b[5.2174##0.1863]/1?-5b[5.2174##0.1863]/1?-5b[5.2174##0.1863]/1?-5b[5.2174##0.1863]/1?-5b[5.2174##0.1863]/1?-5b[5.2174##0.1863]/1?-5b[5.2174##0.1863]/1?-5b[5.2174##0.1863]/1?-5b[5.2174##0.1863]/1?-5b[5.2174##0.1863]/1?-5b[5.2174##0.1863]/1?-5b[5.2174##0.1863]/1?-5b[5.2174##0.1863]/1?-5b[5.2174##0.1863]/1?-5b[5.2174##0.1863]/1?-5b[5.2174##0.1863]/1?-5b[5.2174##0.1863]/1?-5b[5.2174##0.1863]/1?-5b[5.2174##0.1863]/1?-5b[5.2174##0.1863]/1?-5b[5.2174##0.1863]/1?-5b[5.2174##0.1863]/1?-5b[5.2174##0.1863]/1?-5b[5.2174##0.1863]/1?-5b[5.2174##0.1863]/1?-5b[5.2174##0.1863]/1?-5b[5.2174##0.1863]/1?-5b[5.2174##0.1863]/1?-5b[5.2174##0.1863]/1?-5b[5.2174##0.1863]/1?-5b[5.2174##0.1863]/1?-5b[5.2174##0.1863]/1?-5b[5.2174##0.1863]/1?-5b[5.2174##0.1863]/1?-5b[5.2174##0.1863]/1?-5b[5.2174##0.1863]/1?-5b[5.2174##0.1863]/1?-5b[5.2174##0.1863]/1?-5b[5.2174##0.1863]/1?-5b[5.2174##0.1863]/1?-5b[5.2174##0.1863]/1?-5b[5.2174##0.1863]/1?-5b[5.2174##0.1863]/1?-5b[5.2174##0.1863]/1?-5b[5.2174##0.1863]/1?-5b[5.2174##0.1863]/1?-5b[5.2174##0.1863]/1?-5b[5.2174##0.1863]/1?-5b[5.2174##0.1863]/1?-5b[5.2174##0.1863]/1?-5b[5.2174##0.1863]/1?-5b[5.2174##0.1863]/1?-5b[5.2174##0.1863]/1?-5b[5.2174##0.1863]/1?-5b[5.2174##0.1863]/1?-5b[5.2174##0.1863]/1?-5b[5.2174##0.1863]/1?-5b[5.2174##0.1863]/1?-5b[5.2174##0.1863]/1?-5b[5.2174##0.1863]/1?-5b[5.2174##0.1863]/1?-5b[5.2174##0.1863]/1?-5b[5.2174##0.1863]/1?-5b[5.2174##0.1863]/1?-5b[5.2174##0.1863]/1?-5b[5.2174##0.1863]/1?-5b[5.2174##0.1863]/1?-5b[5.2174##0.1863]/1?-5b[5.2174##0.1863]/1?-5b[5.2174##0.1863]/1?-5b[5.2174##0.1863]/1?-5b[5.2174##0.1863]/1?-5b[5.2174##0.1863]/1?-5b[5.2174##0.1863]/1?-5b[5.2174##0.1863]/1?-5b[5.2174##0.1863]/1?-5b[5.2174##0.1863]/1?-5b[5.2174##0.1863]/1?-5b[5.2174##0.1863]/1?-5b[5.2174##0.1863]/1?-5b[5.2174##0.1863]/1?-5b[5.2174##0.1863]/1?-5b[5.2174##0.1863]/1?-5b[5.2174##0.1863]/1?-5b[5.2174##0.1863]/1?-5b[5.2174##0.1863]/1?-5b[5.2174##0.1863]/1?-5b[5.2174##0.1863]/1?-5b[5.2174##0.1863]/1?-5b[5.2174##0.1863]/1?-5b[5.2174##0.1863]/1?-5b[5.2174##0.1863]/1?-5b[5.2174##0.1863]/1?-5b[5.2174##0.1863]/1?-5b[5.2174##0.1863]/1?-5b[5.2174##0.1863]/1?-5b[5.2174##0.1863]/1?-5b[5.2174##0.1863]/1?-5b[5.2174##0.1863]/1?-5b[5.2174##0.1863]/1?-5b[5.2174##0.1863]/1?-5b[5.2174##0.1863]/1?-5b[5.2174##0.1863]/1?-5b[5.2174##0.1863]/1?-5b[5.2174##0.1863]/1?-5b[5.2174##0.1863]/1?-5b[5.2174##0.1863]/1?-5b[5.2174##0.1863]/1?-5b[5.2174##0.1863]/1?-5b[5.2174##0.1863]/1?-5b[5.2174##0.1863]/1?-5b[5.2174##0.1863]/1?-5b[5.2174##0.1863]/1?-5b[5.2174##0.1863]/1?-5b[5.2174##0.1863]/1?-5b[5.2174##0.1863]/1?-5b[5.2174##0.1863]/1?-5b[5.2174##0.1863]/1?-5b[5.2174##0.1863]/1?-5b[5.2174##0.1863]/1?-5b[5.2174##0.1863]/1?-5b[5.2174##0.1863]/1?-5b[5.2174##0.1863]/1?-5b[5.2174##0.1863]/1?-5b[5.2174##0.1863]/1?-5b[5.2174##0.1863]/1?-5b[5.2174##0.1863]/1?-5b[5.2174##0.1863]/1?-5b[5.2174##0.1863]/1?-5b[5.2174##0.1863]/1?-5b[5.2174##0.1863]/1?-5b[5.2174##0.1863]/1?-5b[5.2174##0.1863]/1?-5b[5.2174##0.1863]/1?-5b[5.2174##0.1863]/1?-5b[5.2174##0.1863]/1?-5b[5.2174##0.1863]/1?-5b[5.2174##0.1863]/1?-5b[5.2174##0.1863]/1?-5b[5.2174##0.1863]/1?-5b[5.2174##0.1863]/1?-5b[5.2174##0.1863]/1?-5b[5.2174##0.1863]/1?-5b[5.2174##0.1863]/1?-5b[5.2174##0.1863]/1?-5b[5.2174##0.1863]/1?-5b[5.2174##0.1863]/1?-5b[5.2174##0.1863]/1?-5b[5.2174##0.1863]/1?-5b[5.2174##0.1863]/1?-5b[5.2174##0.1863]/1?-5b[5.2174##0.1863]/1?-5b[5.2174##0.1863]/1?-5b[5.2174##0.1863]/1?-5b[5.2174##0.1863]/1?-5b[5.2174##0.1863]/1?-5b[5.2174##0.1863]/1?-5b[5.2174##0.1863]/1?-5b[5.2174##0.1863]/1?-5b[5.2174##0.1863]/1?-5b[5.2174##0.1863]/1?-5b[5.2174##0.1863]/1?-5b[5.2174##0.1863]/1?-5b[5.2174##0.1863]/1?-5b[5.2174##0.1863]/1?-5b[5.2174##0.1863]/1?-5b[5.2174##0.1863]/1?-5b[5.2174##0.1863]/1?-5b[5.2174##0.1863]/1?-5b[5.2174##0.1863]/1?-5b[5.2174##0.1863]/1?-5b[5.2174##0.1863]/1?-5b[5.2174##0.1863]/1?-5b[5.2174##0.1863]/1?-5b[5.2174##0.1863]/1?-5b[5.2174##0.1863]/1?-5b[5.2174##0.1863]/1?-5b[5.2174##0.1863]/1?-5b[5.2174##0.1863]/1?-5b[5.2174##0.1863]/1?-5b[5.2174##0.1863]/1?-5b[5.2174##0.1863]/1?-5b[5.2174##0.1863]/1?-5b[5.2174##0.1863]/1?-5b[5.2174##0.1863]/1?-5b[5.2174##0.1863]/1?-5b[5.2174##0.1863]/1?-5b[5.2174##0.1863]/1?-5b[5.2174##0.1863]/1?-5b[5.2174##0.1863]/1?-5b[5.2174##0.1863]/1?-5b[5.2174##0.1863]/1?-5b[5.2174##0.1863]/1?-5b[5.2174##0.1863]/1?-5b[5.2174##0.1863]/1?-5b[5.2174##0.1863]/1?-5b[5.2174##0.1863]/1?-5b[5.2174##0.1863]/1?-5b[5.2174##0.1863]/1?-5b[5.2174##0.1863]/1?-5b[5.2174##0.1863]/1?-5b[5.2174##0.1863]/1?-5b[5.2174##0.1863]/1?-5b[5.2174##0.1863]/1?-5b[5.2174##0.1863]/1?-5b[5.2174##0.1863]/1?-5b[5.2174##0.1863]/1?-5b[5.2174##0.1863]/1?-5b[5.2174##0.1863]/1?-5b[5.2174##0.1863]/1?-5b[5.2174##0.1863]/1?-5b[5.2174##0.1863]/1?-5b[5.2174##0.1863]/1?-5b[5.2174##0.1863]/1?-5b[5.2174##0.1863]/1?-5b[5.2174##0.1863]/1?-5b[5.2174##0.1863]/1?-5b[5.2174##0.1863]/1?-5b[5.2174##0.1863]/1?-5b[5.2174##0.1863]/1?-5b[5.2174##0.1863]/1?-5b[5.2174##0.1863]/1?-5b[5.2174##0.1863]/1?-5b[5.2174##0.1863]/1?-5b[5.2174##0.1863]/1?-5b[5.2174##0.1863]/1?-5b[5.2174##0.1863]/1?-5b[5.2174##0.1863]/1?-5b[5.2174##0.1863]/1?-5b[5.2174##0.1863]/1?-5b[5.2174##0.1863]/1?-5b[5.2174##0.1863]/1?-5b[5.2174##0.1863]/1?-5b[5.2174##0.1863]/1?-5b[5.2174##0.1863]/1?-5b[5.2174##0.1863]/1?-5b[5.2174##0.1863]/1?-5b[5.2174##0.1863]/1?-5b[5.2174##0.1863]/1?-5b[5.2174##0.1863]/1?-5b[5.2174##0.1863]/1?-5b[5.2174##0.1863]/1?-5b[5.2174##0.1863]/1?-5b[5.2174##0.1863]/1?-5b[5.2174##0.1863]/1?-5b[5.2174##0.1863]/1?-5b[5.2174##0.1863]/1?-5b[5.2174##0.1863]/1?-5b[5.2174##0.1863]/1?-5b[5.2174##0.1863]/1?-5b[5.2174##0.1863]/1?-5b[5.2174##0.1863]/1?-5b[5.2174##0.1863]/1?-5b[5.2174##0.1863]/1?-5b[5.2174##0.1863]/1?-5b[5.2174##0.1863]/1?-5b[5.2174##0.1863]/1?-5b[5.2174##0.1863]/1?-5b[5.2174##0.1863]/1?-5b[5.2174##0.1863]/1?-5b[5.2174##0.1863]/1?-5b[5.2174##0.1863]/1?-5b[5.2174##0.1863]/1?-5b[5.2174##0.1863]/1?-5b[5.2174##0.1863]/1?-5b[5.2174##0.1863]/1?-5b[5.2174##0.1863]/1?-5b[5.2174##0.1863]/1?-5b[5.2174##0.1863]/1?-5b[5.2174##0.1863]/1?-5b[5.2174##0.1863]/1?-5b[5.2174##0.1863]/1?-5b[5.2174##0.1863]/1?-5b[5.2174##0.1863]/1?-5b[5.2174##0.1863]/1?-5b[5.2174##0.1863]/1?-5b[5.2174##0.1863]/1?-5b[5.2174##0.1863]/1?-5b[5.2174##0.1863]/1?-5b[5.2174##0.1863]/1?-5b[5.2174##0.1863]/1?-5b[5.2174##0.1863]/1?-5b[5.2174##0.1863]/1?-5b[5.2174##0.1863]/1?-5b[5.2174##0.1863]/1?-5b[5.2174##0.1863]/1?-5b[5.2174##0.1863]/1?-5b[5.2174##0.1863]/1?-5b[5.2174##0.1863]/1?-5b[5.2174##0.1863]/1?-5b[5.2174##0.1863]/1?-5b[5.2174##0.1863]/1?-5b[5.2174##0.1863]/1?-5b[5.2174##0.1863]/1?-5b[5.2174##0.1863]/1?-5b[5.2174##0.1863]/1?-5b[5.2174##0.1863]/1?-5b[5.2174##0.1863]/1?-5b[5.2174##0.1863]/1?-5b[5.2174##0.1863]/1?-5b[5.2174##0.1863]/1?-5b[5.2174##0.1863]/1?-5b[5.2174##0.1863]/1?-5b[5.2174##0.1863]/1?-5b[5.2174##0.1863]/1?-5b[5.2174##0.1863]/1?-5b[5.2174##0.1863]/1?-5b[5.2174##0.1863]/1?-5b[5.2174##0.1863]/1?-5b[5.2174##0.1863]/1?-5b[5.2174##0.1863]/1?-5b[5.2174##0.1863]/1?-5b[5.2174##0.1863]/1?-5b[5.2174##0.1863]/1?-5b[5.2174##0.1863]/1?-5b[5.2174##0.1863]/1?-5b[5.2174##0.1863]/1?-5b[5.2174##0.1863]/1?-5b[5.2174##0.1863]/1?-5b[5.2174##0.1863]/1?-5b[5.2174##0.1863]/1?-5b[5.2174##0.1863]/1?-5b[5.2174##0.1863]/1?-5b[5.2174##0.1863]/1?-5b[5.2174##0.1863]/1?-5b[5.2174##0.1863]/1?-5b[5.2174##0.1863]/1?-5b[5.2174##0.1863]/1?-5b[5.2174##0.1863]/1?-5b[5.2174##0.1863]/1?-5b[5.2174##0.1863]/1?-5b[5.2174##0.1863]/1?-5b[5.2174##0.1863]/1?-5b[5.2174##0.1863]/1?-5b[5.2174##0.1863]/1?-5b[5.2174##0.1863]/1?-5b[5.2174##0.1863]/1?-5b[5.2174##0.1863]/1?-5b[5.2174##0.1863]/1?-5b[5.2174##0.1863]/1?-5b[5.2174##0.1863]/1?-5b[5.2174##0.1863]/1?-5b[5.2174##0.1863]/1?-5b[5.2174##0.1863]/1?-5b[5.2174##0.1863]/1?-5b[5.2174##0.1863]/1?-5b[5.2174##0.1863]/1?-5b[5.2174##0.1863]/1?-5b[5.2174##0.1863]/1?-5b[5.2174##0.1863]/1?-5b[5.2174##0.1863]/1?-5b[5.2174##0.1863]/1?-5b[5.2174##0.1863]/1?-5b[5.2174##0.1863]/1?-5b[5.2174##0.1863]/1?-5b[5.2174##0.1863]/1?-5b[5.2174##0.1863]/1?-5b[5.2174##0.1863]/1?-5b[5.2174##0.1863]/1?-5b[5.2174##0.1863]/1?-5b[5.2174##0.1863]/1?-5b[5.2174##0.1863]/1?-5b[5.2174##0.1863]/1?-5b[5.2174##0.1863]/1?-5b[5.2174##0.1863]/1?-5b[5.2174##0.1863]/1?-5b[5.2174##0.1863]/1?-5b[5.2174##0.1863]/1?-5b[5.2174##0.1863]/1?-5b[5.2174##0.1863]/1?-5b[5.2174##0.1863]/1?-5b[5.2174##0.1863]/1?-5b[5.2174##0.1863]/1?-5b[5.2174##0.1863]/1?-5b[5.2174##0.1863]/1?-5b[5.2174##0.1863]/1?-5b[5.2174##0.1863]/1?-5b[5.2174##0.1863]/1?-5b[5.2174##0.1863]/1?-5b[5.2174##0.1863]/1?-5b[5.2174##0.1863]/1?-5b[5.2174##0.1863]/1?-5b[5.2174##0.1863]/1?-5b[5.2174##0.1863]/1?-5b[5.2174##0.1863]/1?-5b[5.2174##0.1863]/1?-5b[5.2174##0.1863]/1?-5b[5.2174##0.1863]/1?-5b[5.2174##0.1863]/1?-5b[5.2174##0.1863]/1?-5b[5.2174##0.1863]/1?-5b[5.2174##0.1863]/1?-5b[5.2174##0.1863]/1?-5b[5.2174##0.1863]/1?-5b[5.2174##0.1863]/1?-5b[5.2174##0.1863]/1?-5b[5.2174##0.1863]/1?-5b[5.2174##0.1863]/1?-5b[5.2174##0.1863]/1?-5b[5.2174##0.1863]/1?-5b[5.2174##0.1863]/1?-5b[5.2174##0.1863]/1?-5b[5.2174##0.1863]/1?-5b[5.2174##0.1863]/1?-5b[5.2174##0.1863]/1?-5b[5.2174##0.1863]/1?-5b[5.2174##0.1863]/1?-5b[5.2174##0.1863]/1?-5b[5.2174##0.1863]/1?-5b[5.2174##0.1863]/1?-5b[5.2174##0.1863]/1?-5b[5.2174##0.1863]/1?-5b[5.2174##0.1863]/1?-5b[5.2174##0.1863]/1?-5b[5.2174##0.1863]/1?-5b[5.2174##0.1863]/1?-5b[5.2174##0.1863]/1?-5b[5.2174##0.1863]/1?-5b[5.2174##0.1863]/1?-5b[5.2174##0.1863]/1?-5b[5.2174##0.1863]/1?-5b[5.2174##0.1863]/1?-5b[5.2174##0.1863]/1?-5b[5.2174##0.1863]/1?-5b[5.2174##0.1863]/1?-5b[5.2174##0.1863]/1?-5b[5.2174##0.1863]/1?-5b[5.2174##0.1863]/1?-5b[5.2174##0.1863]/1?-5b[5.2174##0.1863]/1?-5b[5.2174##0.1863]/1?-5b[5.2174##0.1863]/1?-5b[5.2174##0.1863]/1?-5b[5.2174##0.1863]/1?-5b[5.2174##0.1863]/1?-5b[5.2174##0.1863]/1?-5b[5.2174##0.1863]/1?-5b[5.2174##0.1863]/1?-5b[5.2174##0.1863]/1?-5b[5.2174##0.1863]/1?-5b[5.2174##0.1863]/1?-5b[5.2174##0.1863]/1?-5b[5.2174##0.1863]/1?-5b[5.2174##0.1863]/1?-5b[5.2174##0.1863]/1?-5b[5.2174##0.1863]/1?-5b[5.2174##0.1863]/1?-5b[5.2174##0.1863]/1?-5b[5.2174##0.1863]/1?-5b[5.2174##0.1863]/1?-5b[5.2174##0.1863]/1?-5b[5.2174##0.1863]/1?-5b[5.2174##0.1863]/1?-5b[5.2174##0.1863]/1?-5b[5.2174##0.1863]/1?-5b[5.2174##0.1863]/1?-5b[5.2174##0.1863]/1?-5b[5.2174##0.1863]/1?-5b[5.2174##0.1863]/1?-5b[5.2174##0.1863]/1?-5b[5.2174##0.1863]/1?-5b[5.2174##0.1863]/1?-5b[5.2174##0.1863]/1?-5b[5.2174##0.1863]/1?-5b[5.2174##0.1863]/1?-5b[5.2174##0.1863]/1?-5b[5.2174##0.1863]/1?-5b[5.2174##0.1863]/1?-5b[5.2174##0.1863]/1?-5b[5.2174##0.1863]/1?-5b[5.2174##0.1863]/1?-5b[5.2174##0.1863]/1?-5b[5.2174##0.1863]/1?-5b[5.2174##0.1863]/1?-5b[5.2174##0.1863]/1?-5b[5.2174##0.1863]/1?-5b[5.2174##0.1863]/1?-5b[5.2174##0.1863]/1?-5b[5.2174##0.1863]/1?-5b[5.2174##0.1863]/1?-5b[5.2174##0.1863]/1?-5b[5.2174##0.1863]/1?-5b[5.2174##0.1863]/1?-5b[5.2174##0.1863]/1?-5b[5.2174##0.1863]/1?-5b[5.2174##0.1863]/1?-5b[5.2174##0.1863]/1?-5b[5.2174##0.1863]/1?-5b[5.2174##0.1863]/1?-5b[5.2174##0.1863]/1?-5b[5.2174##0.1863]/1?-5b[5.2174##0.1863]/1?-5b[5.2174##0.1863]/1?-5b[5.2174##0.1863]/1?-5b[5.2174##0.1863]/1?-5b[5.2174##0.1863]/1?-5b[5.2174##0.1863]/1?-5b[5.2174##0.1863]/1?-5b[5.2174##0.1863]/1?-5b[5.2174##0.1863]/1?-5b[5.2174##0.1863]/1?-5b[5.2174##0.1863]/1?-5b[5.2174##0.1863]/1?-5b[5.2174##0.1863]/1?-5b[5.2174##0.1863]/1?-5b[5.2174##0.1863]/1?-5b[5.2174##0.1863]/1?-5b[5.2174##0.1863]/1?-5b[5.2174##0.1863]/1?-5b[5.2174##0.1863]/1?-5b[5.2174##0.1863]/1?-5b[5.2174##0.1863]/1?-5b[5.2174##0.1863]/1?-5b[5.2174##0.1863]/1?-5b[5.2174##0.1863]/1?-5b[5.2174##0.1863]/1?-5b[5.2174##0.1863]/1?-5b[5.2174##0.1863]/1?-5b[5.2174##0.1863]/1?-5b[5.2174##0.1863]/1?-5b[5.2174##0.1863]/1?-5b[5.2174##0.1863]/1?-5b[5.2174##0.1863]/1?-5b[5.2174##0.1863]/1?-5b[5.2174##0.1863]/1?-5b[5.2174##0.1863]/1?-5b[5.2174##0.1863]/1?-5b[5.2174##0.1863]/1?-5b[5.2174##0.1863]/1?-5b[5.2174##0.1863]/1?-5b[5.2174##0.1863]/1?-5b[5.2174##0.1863]/1?-5b[5.2174##0.1863]/1?-5b[5.2174##0.1863]/1?-5b[5.2174##0.1863]/1?-5b[5.2174##0.1863]/1?-5b[5.2174##0.1863]/1?-5b[5.2174##0.1863]/1?-5b[5.2174##0.1863]/1?-5b[5.2174##0.1863]/1?-5b[5.2174##0.1863]/1?-5b[5.2174##0.1863]/1?-5b[5.2174##0.1863]/1?-5b[5.2174##0.1863]/1?-5b[5.2174##0.1863]/1?-5b[5.2174##0.1863]/1?-5b[5.2174##0.1863]/1?-5b[5.2174##0.1863]/1?-5b[5.2174##0.1863]/1?-5b[5.2174##0.1863]/1?-5b[5.2174##0.1863]/1?-5b[5.2174##0.1863]/1?-5b[5.2174##0.1863]/1?-5b[5.2174##0.1863]/1?-5b[5.2174##0.1863]/1?-5b[5.2174##0.1863]/1?-5b[5.2174##0.1863]/1?-5b[5.2174##0.1863]/1?-5b[5.2174##0.1863]/1?-5b[5.2174##0.1863]/1?-5b[5.2174##0.1863]/1?-5b[5.2174##0.1863]/1?-5b[5.2174##0.1863]/1?-5b[5.2174##0.1863]/1?-5b[5.2174##0.1863]/1?-5b[5.2174##0.1863]/1?-5b[5.2174##0.1863]/1?-5b[5.2174##0.1863]/1?-5b[5.2174##0.1863]/1?-5b[5.2174##0.1863]/1?-5b[5.2174##0.1863]/1?-5b[5.2174##0.1863]/1?-5b[5.2174##0.1863]/1?-5b[5.2174##0.1863]/1?-5b[5.2174##0.1863]/1?-5b[5.2174##0.1863]/1?-5b[5.2174##0.1863]/1?-5b[5.2174##0.1863]/1?-5b[5.2174##0.1863]/1?-5b[5.2174##0.1863]/1?-5b[5.2174##0.1863]/1?-5b[5.2174##0.1863]/1?-5b[5.2174##0.1863]/1?-5b[5.2174##0.1863]/1?-5b[5.2174##0.1863]/1?-5b[5.2174##0.1863]/1?-5b[5.2174##0.1863]/1?-5b[5.2174##0.1863]/1?-5b[5.2174##0.1863]/1?-5b[5.2174##0.1863]/1?-5b[5.2174##0.1863]/1?-5b[5.2174##0.1863]/1?-5b[5.2174##0.1863]/1?-5b[5.2174##0.1863]/1?-5b[5.2174##0.1863]/1?-5b[5.2174##0.1863]/1?-5b[5.2174##0.1863]/1?-5b[5.2174##0.1863]/1?-5b[5.2174##0.1863]/1?-5b[5.2174##0.1863]/1?-5b[5.2174##0.1863]/1?-5b[5.2174##0.1863]/1?-5b[5.2174##0.1863]/1?-5b[5.2174##0.1863]/1?-5b[5.2174##0.1863]/1?-5b[5.2174##0.1863]/1?-5b[5.2174##0.1863]/1?-5b[5.2174##0.1863]/1?-5b[5.2174##0.1863]/1?-5b[5.2174##0.1863]/1?-5b[5.2174##0.1863]/1?-5b[5.2174##0.1863]/1?-5b[5.2174##0.1863]/1?-5b[5.2174##0.1863]/1?-5b[5.2174##0.1863]/1?-5b[5.2174##0.1863]/1?-5b[5.2174##0.1863]/1?-5b[5.2174##0.1863]/1?-5b[5.2174##0.1863]/1?-5b[5.2174##0.1863]/1?-5b[5.2174##0.1863]/1?-5b[5.2174##0.1863]/1?-5b[5.2174##0.1863]/1?-5b[5.2174##0.1863]/1?-5b[5.2174##0.1863]/1?-5b[5.2174##0.1863]/1?-5b[5.2174##0.1863]/1?-5b[5.2174##0.1863]/1?-5b[5.2174##0.1863]/1?-5b[5.2174##0.1863]/1?-5b[5.2174##0.1863]/1?-5b[5.2174##0.1863]/1?-5b[5.2174##0.1863]/1?-5b[5.2174##0.1863]/1?-5b[5.2174##0.1863]/1?-5b[5.2174##0.1863]/1?-5b[5.2174##0.1863]/1?-5b[5.2174##0.1863]/1?-5b[5.2174##0.1863]/1?-5b[5.2174##0.1863]/1?-5b[5.2174##0.1863]/1?-5b[5.2174##0.1863]/1?-5b[5.2174##0.1863]/1?-5b[5.2174##0.1863]/1?-5b[5.2174##0.1863]/1?-5b[5.2174##0.1863]/1?-5b[5.2174##0.1863]/1?-5b[5.2174##0.1863]/1?-5b[5.2174##0.1863]/1?-5b[5.2174##0.1863]/1?-5b[5.2174##0.1863]/1?-5b[5.2174##0.1863]/1?-5b[5.2174##0.1863]/1?-5b[5.2174##0.1863]/1?-5b[5.2174##0.1863]/1?-5b[5.2174##0.1863]/1?-5b[5.2174##0.1863]/1?-5b[5.2174##0.1863]/1?-5b[5.2174##0.1863]/1?-5b[5.2174##0.1863]/1?-5b[5.2174##0.1863]/1?-5b[5.2174##0.1863]/1?-5b[5.2174##0.1863]/1?-5b[5.2174##0.1863]/1?-5b[5.2174##0.1863]/1?-5b[5.2174##0.1863]/1?-5b[5.2174##0.1863]/1?-5b[5.2174##0.1863]/1?-5b[5.2174##0.1863]/1?-5b[5.2174##0.1863]/1?-5b[5.2174##0.1863]/1?-5b[5.2174##0.1863]/1?-5b[5.2174##0.1863]/1?-5b[5.2174##0.1863]/1?-5b[5.2174##0.1863]/1?-5b[5.2174##0.1863]/1?-5b[5.2174##0.1863]/1?-5b[5.2174##0.1863]/1?-5b[5.2174##0.1863]/1?-5b[5.2174##0.1863]/1?-5b[5.2174##0.1863]/1?-5b[5.2174##0.1863]/1?-5b[5.2174##0.1863]/1?-5b[5.2174##0.1863]/1?-5b[5.2174##0.1863]/1?-5b[5.2174##0.1863]/1?-5b[5.2174##0.1863]/1?-5b[5.2174##0.1863]/1?-5b[5.2174##0.1863]/1?-5b[5.2174##0.1863]/1?-5b[5.2174##0.1863]/1?-5b[5.2174##0.1863]/1?-5b[5.2174##0.1863]/1?-5b[5.2174##0.1863]/1?-5b[5.2174##0.1863]/1?-5b[5.2174##0.1863]/1?-5b[5.2174##0.1863]/1?-5b[5.2174##0.1863]/1?-5b[5.2174##0.1863]/1?-5b[5.2174##0.1863]/1?-5b[5.2174##0.1863]/1?-5b[5.2174##0.1863]/1?-5b[5.2174##0.1863]/1?-5b[5.2174##0.1863]/1?-5b[5.2174##0.1863]/1?-5b[5.2174##0.1863]/1?-5b[5.2174##0.1863]/1?-5b[5.2174##0.1863]/1?-5b[5.2174##0.1863]/1?-5b[5.2174##0.1863]/1?-5b[5.2174##0.1863]/1?-5b[5.2174##0.1863]/1?-5b[5.2174##0.1863]/1?-5b[5.2174##0.1863]/1?-5b[5.2174##0.1863]/1?-5b[5.2174##0.1863]/1?-5b[5.2174##0.1863]/1?-5b[5.2174##0.1863]/1?-5b[5.2174##0.1863]/1?-5b[5.2174##0.1863]/1?-5b[5.2174##0.1863]/1?-5b[5.2174##0.1863]/1?-5b[5.2174##0.1863]/1?-5b[5.2174##0.1863]/1?-5b[5.2174##0.1863]/1?-5b[5.2174##0.1863]/1?-5b[5.2174##0.1863]/1?-5b[5.2174##0.1863]/1?-5b[5.2174##0.1863]/1?-5b[5.2174##0.1863]/1?-5b[5.2174##0.1863]/1?-5b[5.2174##0.1863]/1?-5b[5.2174##0.1863]/1?-5b[5.2174##0.1863]/1?-5b[5.2174##0.1863]/1?-5b[5.2174##0.1863]/1?-5b[5.2174##0.1863]/1?-5b[5.2174##0.1863]/1?-5b[5.2174##0.1863]/1?-5b[5.2174##0.1863]/1?-5b[5.2174##0.1863]/1?-5b[5.2174##0.1863]/1?-5b[5.2174##0.1863]/1?-5b[5.2174##0.1863]/1?-5b[5.2174##0.1863]/1?-5b[5.2174##0.1863]/1?-5b[5.2174##0.1863]/1?-5b[5.2174##0.1863]/1?-5b[5.2174##0.1863]/1?-5b[5.2174##0.1863]/1?-5b[5.2174##0.1863]/1?-5b[5.2174##0.1863]/1?-5b[5.2174##0.1863]/1?-5b[5.2174##0.1863]/1?-5b[5.2174##0.1863]/1?-5b[5.2174##0.1863]/1?-5b[5.2174##0.1863]/1?-5b[5.2174##0.1863]/1?-5b[5.2174##0.1863]/1?-5b[5.2174##0.1863]/1?-5b[5.2174##0.1863]/1?-5b[5.2174##0.1863]/1?-5b[5.2174##0.1863]/1?-5b[5.2174##0.1863]/1?-5b[5.2174##0.1863]/1?-5b[5.2174##0.1863]/1?-5b[5.2174##0.1863]/1?-5b[5.2174##0.1863]/1?-5b[5.2174##0.1863]/1?-5b[5.2174##0.1863]/1?-5b[5.2174##0.1863]/1?-5b[5.2174##0.1863]/1?-5b[5.2174##0.1863]/1?-5b[5.2174##0.1863]/1?-5b[5.2174##0.1863]/1?-5b[5.2174##0.1863]/1?-5b[5.2174##0.1863]/1?-5b[5.2174##0.1863]/1?-5b[5.2174##0.1863]/1?-5b[5.2174##0.1863]/1?-5b[5.2174##0.1863]/1?-5b[5.2174##0.1863]/1?-5b[5.2174##0.1863]/1?-5b[5.2174##0.1863]/1?-5b[5.2174##0.1863]/1?-5b[5.2174##0.1863]/1?-5b[5.2174##0.1863]/1?-5b[5.2174##0.1863]/1?-5b[5.2174##0.1863]/1?-5b[5.2174##0.1863]/1?-5b[5.2174##0.1863]/1?-5b[5.2174##0.1863]/1?-5b[5.2174##0.1863]/1?-5b[5.2174##0.1863]/1?-5b[5.2174##0.1863]/1?-5b[5.2174##0.1863]/1?-5b[5.2174##0.1863]/1?-5b[5.2174##0.1863]/1?-5b[5.2174##0.1863]/1?-5b[5.2174##0.1863]/1?-5b[5.2174##0.1863]/1?-5b[5.2174##0.1863]/1?-5b[5.2174##0.1863]/1?-5b[5.2174##0.1863]/1?-5b[5.2174##0.1863]/1?-5b[5.2174##0.1863]/1?-5b[5.2174##0.1863]/1?-5b[5.2174##0.1863]/1?-5b[5.2174##0.1863]/1?-5b[5.2174##0.1863]/1?-5b[5.2174##0.1863]/1?-5b[5.2174##0.1863]/1?-5b[5.2174##0.1863]/1?-5b[5.2174##0.1863]/1?-5b[5.2174##0.1863]/1?-5b[5.2174##0.1863]/1?-5b[5.2174##0.1863]/1?-5b[5.2174##0.1863]/1?-5b[5.2174##0.1863]/1?-5b[5.2174##0.1863]/1?-5b[5.2174##0.1863]/1?-5b[5.2174##0.1863]/1?-5b[5.2174##0.1863]/1?-5b[5.2174##0.1863]/1?-5b[5.2174##0.1863]/1?-5b[5.2174##0.1863]/1?-5b[5.2174##0.1863]/1?-5b[5.2174##0.1863]/1?-5b[5.2174##0.1863]/1?-5b[5.2174##0.1863]/1?-5b[5.2174##0.1863]/1?-5b[5.2174##0.1863]/1?-5b[5.2174##0.1863]/1?-5b[5.2174##0.1863]/1?-5b[5.2174##0.1863]/1?-5b[5.2174##0.1863]/1?-5b[5.2174##0.1863]/1?-5b[5.2174##0.1863]/1?-5b[5.2174##0.1863]/1?-5b[5.2174##0.1863]/1?-5b[5.2174##0.1863]/1?-5b[5.2174##0.1863]/1?-5b[5.2174##0.1863]/1?-5b[5.2174##0.1863]/1?-5b[5.2174##0.1863]/1?-5b[5.2174##0.1863]/1?-5b[5.2174##0.1863]/1?-5b[5.2174##0.1863]/1?-5b[5.2174##0.1863]/1?-5b[5.2174##0.1863]/1?-5b[5.2174##0.1863]/1?-5b[5.2174##0.1863]/1?-5b[5.2174##0.1863]/1?-5b[5.2174##0.1863]/1?-5b[5.2174##0.1863]/1?-5b[5.2174##0.1863]/1?-5b[5.2174##0.1863]/1?-5b[5.2174##0.1863]/1?-5b[5.2174##0.1863]/1?-5b[5.2174##0.1863]/1?-5b[5.2174##0.1863]/1?-5b[5.2174##0.1863]/1?-5b[5.2174##0.1863]/1?-5b[5.2174##0.1863]/1?-5b[5.2174##0.1863]/1?-5b[5.2174##0.1863]/1?-5b[5.2174##0.1863]/1?-5b[5.2174##0.1863]/1?-5b[5.2174##0.1863]/1?-5b[5.2174##0.1863]/1?-5b[5.2174##0.1863]/1?-5b[5.2174##0.1863]/1?-5b[5.2174##0.1863]/1?-5b[5.2174##0.1863]/1?-5b[5.2174##0.1863]/1?-5b[5.2174##0.1863]/1?-5b[5.2174##0.1863]/1?-5b[5.2174##0.1863]/1?-5b[5.2174##0.1863]/1?-5b[5.2174##0.1863]/1?-5b[5.2174##0.1863]/1?-5b[5.2174##0.1863]/1?-5b[5.2174##0.1863]/1?-5b[5.2174##0.1863]/1?-5b[5.2174##0.1863]/1?-5b[5.2174##0.1863]/1?-5b[5.2174##0.1863]/1?-5b[5.2174##0.1863]/1?-5b[5.2174##0.1863]/1?-5b[5.2174##0.1863]/1?-5b[5.2174##0.1863]/1?-5b[5.2174##0.1863]/1?-5b[5.2174##0.1863]/1?-5b[5.2174##0.1863]/1?-5b[5.2174##0.1863]/1?-5b[5.2174##0.1863]/1?-5b[5.2174##0.1863]/1?-5b[5.2174##0.1863]/1?-5b[5.2174##0.1863]/1?-5b[5.2174##0.1863]/1?-5b[5.2174##0.1863]/1?-5b[5.2174##0.1863]/1?-5b[5.2174##0.1863]/1?-5b[5.2174##0.1863]/1?-5b[5.2174##0.1863]/1?-5b[5.2174##0.1863]/1?-5b[5.2174##0.1863]/1?-5b[5.2174##0.1863]/1?-5b[5.2174##0.1863]/1?-5b[5.2174##0.1863]/1?-5b[5.2174##0.1863]/1?-5b[5.2174##0.1863]/1?-5b[5.2174##0.1863]/1?-5b[5.2174##0.1863]/1?-5b[5.2174##0.1863]/1?-5b[5.2174##0.1863]/1?-5b[5.2174##0.1863]/1?-5b[5.2174##0.1863]/1?-5b[5.2174##0.1863]/1?-5b[5.2174##0.1863]/1?-5b[5.2174##0.1863]/1?-5b[5.2174##0.1863]/1?-5b[5.2174##0.1863]/1?-5b[5.2174##0.1863]/1?-5b[5.2174##0.1863]/1?-5b[5.2174##0.1863]/1?-5b[5.2174##0.1863]/1?-5b[5.2174##0.1863]/1?-5b[5.2174##0.1863]/1?-5b[5.2174##0.1863]/1?-5b[5.2174##0.1863]/1?-5b[5.2174##0.1863]/1?-5b[5.2174##0.1863]/1?-5b[5.2174##0.1863]/1?-5b[5.2174##0.1863]/1?-5b[5.2174##0.1863]/1?-5b[5.2174##0.1863]/1?-5b[5.2174##0.1863]/1?-5b[5.2174##0.1863]/1?-5b[5.2174##0.1863]/1?-5b[5.2174##0.1863]/1?-5b[5.2174##0.1863]/1?-5b[5.2174##0.1863]/1?-5b[5.2174##0.1863]/1?-5b[5.2174##0.1863]/1?-5b[5.2174##0.1863]/1?-5b[5.2174##0.1863]/1?-5b[5.2174##0.1863]/1?-5b[5.2174##0.1863]/1?-5b[5.2174##0.1863]/1?-5b[5.2174##0.1863]/1?-5b[5.2174##0.1863]/1?-5b[5.2174##0.1863]/1?-5b[5.2174##0.1863]/1?-5b[5.2174##0.1863]/1?-5b[5.2174##0.1863]/1?-5b[5.2174##0.1863]/1?-5b[5.2174##0.1863]/1?-5b[5.2174##0.1863]/1?-5b[5.2174##0.1863]/1?-5b[5.2174##0.1863]/1?-5b[5.2174##0.1863]/1?-5b[5.2174##0.1863]/1?-5b[5.2174##0.1863]/1?-5b[5.2174##0.1863]/1?-5b[5.2174##0.1863]/1?-5b[5.2174##0.1863]/1?-5b[5.2174##0.1863]/1?-5b[5.2174##0.1863]/1?-5b[5.2174##0.1863]/1?-5b[5.2174##0.1863]/1?-5b[5.2174##0.1863]/1?-5b[5.2174##0.1863]/1?-5b[5.2174##0.1863]/1?-5b[5.2174##0.1863]/1?-5b[5.2174##0.1863]/1?-5b[5.2174##0.1863]/1?-5b[5.2174##0.1863]/1?-5b[5.2174##0.1863]/1?-5b[5.2174##0.1863]/1?-5b[5.2174##0.1863]/1?-5b[5.2174##0.1863]/1?-5b[5.2174##0.1863]/1?-5b[5.2174##0.1863]/1?-5b[5.2174##0.1863]/1?-5b[5.2174##0.1863]/1?-5b[5.2174##0.1863]/1?-5b[5.2174##0.1863]/1?-5b[5.2174##0.1863]/1?-5b[5.2174##0.1863]/1?-5b[5.2174##0.1863]/1?-5b[5.2174##0.1863]/1?-5b[5.2174##0.1863]/1?-5b[5.2174##0.1863]/1?-5b[5.2174##0.1863]/1?-5b[5.2174##0.1863]/1?-5b[5.2174##0.1863]/1?-5b[5.2174##0.1863]/1?-5b[5.2174##0.1863]/1?-5b[5.2174##0.1863]/1?-5b[5.2174##0.1863]/1?-5b[5.2174##0.1863]/1?-5b[5.2174##0.1863]/1?-5b[5.2174##0.1863]/1?-5b[5.2174##0.1863]/1?-5b[5.2174##0.1863]/1?-5b[5.2174##0.1863]/1?-5b[5.2174##0.1863]/1?-5b[5.2174##0.1863]/1?-5b[5.2174##0.1863]/1?-5b[5.2174##0.1863]/1?-5b[5.2174##0.1863]/1?-5b[5.2174##0.1863]/1?-5b[5.2174##0.1863]/1?-5b[5.2174##0.1863]/1?-5b[5.2174##0.1863]/1?-5b[5.2174##0.1863]/1?-5b[5.2174##0.1863]/1?-5b[5.2174##0.1863]/1?-5b[5.2174##0.1863]/1?-5b[5.2174##0.1863]/1?-5b[5.2174##0.1863]/1?-5b[5.2174##0.1863]/1?-5b[5.2174##0.1863]/1?-5b[5.2174##0.1863]/1?-5b[5.2174##0.1863]/1?-5b[5.2174##0.1863]/1?-5b[5.2174##0.1863]/1?-5b[5.2174##0.1863]/1?-5b[5.2174##0.1863]/1?-5b[5.2174##0.1863]/1?-5b[5.2174##0.1863]/1?-5b[5.2174##0.1863]/1?-5b[5.2174##0.1863]/1?-5b[5.2174##0.1863]/1?-5b[5.2174##0.1863]/1?-5b[5.2174##0.1863]/1?-5b[5.2174##0.1863]/1?-5b[5.2174##0.1863]/1?-5b[5.2174##0.1863]/1?-5b[5.2174##0.1863]/1?-5b[5.2174##0.1863]/1?-5b[5.2174##0.1863]/1?-5b[5.2174##0.1863]/1?-5b[5.2174##0.1863]/1?-5b[5.2174##0.1863]/1?-5b[5.2174##0.1863]/1?-5b[5.2174##0.1863]/1?-5b[5.2174##0.1863]/1?-5b[5.2174##0.1863]/1?-5b[5.2174##0.1863]/1?-5b[5.2174##0.1863]/1?-5b[5.2174##0.1863]/1?-5b[5.2174##0.1863]/1?-5b[5.2174##0.1863]/1?-5b[5.2174##0.1863]/1?-5b[5.2174##0.1863]/1?-5b[5.2174##0.1863]/1?-5b[5.2174##0.1863]/1?-5b[5.2174##0.1863]/1?-5b[5.2174##0.1863]/1?-5b[5.2174##0.1863]/1?-5b[5.2174##0.1863]/1?-5b[5.2174##0.1863]/1?-5b[5.2174##0.1863]/1?-5b[5.2174##0.1863]/1?-5b[5.2174##0.1863]/1?-5b[5.2174##0.1863]/1?-5b[5.2174##0.1863]/1?-5b[5.2174##0.1863]/1?-5b[5.2174##0.1863]/1?-5b[5.2174##0.1863]/1?-5b[5.2174##0.1863]/1?-5b[5.2174##0.1863]/1?-5b[5.2174##0.1863]/1?-5b[5.2174##0.1863]/1?-5b[5.2174##0.1863]/1?-5b[5.2174##0.1863]/1?-5b[5.2174##0.1863]/1?-5b[5.2174##0.1863]/1?-5b[5.2174##0.1863]/1?-5b[5.2174##0.1863]/1?-5b[5.2174##0.1863]/1?-5b[5.2174##0.1863]/1?-5b[5.2174##0.1863]/1?-5b[5.2174##0.1863]/1?-5b[5.2174##0.1863]/1?-5b[5.2174##0.1863]/1?-5b[5.2174##0.1863]/1?-5b[5.2174##0.1863]/1?-5b[5.2174##0.1863]/1?-5b[5.2174##0.1863]/1?-5b[5.2174##0.1863]/1?-5b[5.2174##0.1863]/1?-5b[5.2174##0.1863]/1?-5b[5.2174##0.1863]/1?-5b[5.2174##0.1863]/1?-5b[5.2174##0.1863]/1?-5b[5.2174##0.1863]/1?-5b[5.2174##0.1863]/1?-5b[5.2174##0.1863]/1?-5b[5.2174##0.1863]/1?-5b[5.2174##0.1863]/1?-5b[5.2174##0.1863]/1?-5b[5.2174##0.1863]/1?-5b[5.2174##0.1863]/1?-5b[5.2174##0.1863]/1?-5b[5.2174##0.1863]/1?-5b[5.2174##0.1863]/1?-5b[5.2174##0.1863]/1?-5b[5.2174##0.1863]/1?-5b[5.2174##0.1863]/1?-5b[5.2174##0.1863]/1?-5b[5.2174##0.1863]/1?-5b[5.2174##0.1863]/1?-5b[5.2174##0.1863]/1?-5b[5.2174##0.1863]/1?-5b[5.2174##0.1863]/1?-5b[5.2174##0.1863]/1?-5b[5.2174##0.1863]/1?-5b[5.2174##0.1863]/1?-5b[5.2174##0.1863]/1?-5b[5.2174##0.1863]/1?-5b[5.2174##0.1863]/1?-5b[5.2174##0.1863]/1?-5b[5.2174##0.1863]/1?-5b[5.2174##0.1863]/1?-5b[5.2174##0.1863]/1?-5b[5.2174##0.1863]/1?-5b[5.2174##0.1863]/1?-5b[5.2174##0.1863]/1?-5b[5.2174##0.1863]/1?-5b[5.2174##0.1863]/1?-5b[5.2174##0.1863]/1?-5b[5.2174##0.1863]/1?-5b[5.2174##0.1863]/1?-5b[5.2174##0.1863]/1?-5b[5.2174##0.1863]/1?-5b[5.2174##0.1863]/1?-5b[5.2174##0.1863]/1?-5b[5.2174##0.1863]/1?-5b[5.2174##0.1863]/1?-5b[5.2174##0.1863]/1?-5b[5.2174##0.1863]/1?-5b[5.2174##0.1863]/1?-5b[5.2174##0.1863]/1?-5b[5.2174##0.1863]/1?-5b[5.2174##0.1863]/1?-5b[5.2174##0.1863]/1?-5b[5.2174##0.1863]/1?-5b[5.2174##0.1863]/1?-5b[5.2174##0.1863]/1?-5b[5.2174##0.1863]/1?-5b[5.2174##0.1863]/1?-5b[5.2174##0.1863]/1?-5b[5.2174##0.1863]/1?-5b[5.2174##0.1863]/1?-5b[5.2174##0.1863]/1?-5b[5.2174##0.1863]/1?-5b[5.2174##0.1863]/1?-5b[5.2174##0.1863]/1?-5b[5.2174##0.1863]/1?-5b[5.2174##0.1863]/1?-5b[5.2174##0.1863]/1?-5b[5.2174##0.1863]/1?-5b[5.2174##0.1863]/1?-5b[5.2174##0.1863]/1?-5b[5.2174##0.1863]/1?-5b[5.2174##0.1863]/1?-5b[5.2174##0.1863]/1?-5b[5.2174##0.1863]/1?-5b[5.2174##0.1863]/1?-5b[5.2174##0.1863]/1?-5b[5.2174##0.1863]/1?-5b[5.2174##0.1863]/1?-5b[5.2174##0.1863]/1?-5b[5.2174##0.1863]/1?-5b[5.2174##0.1863]/1?-5b[5.2174##0.1863]/1?-5b[5.2174##0.1863]/1?-5b[5.2174##0.1863]/1?-5b[5.2174##0.1863]/1?-5b[5.2174##0.1863]/1?-5b[5.2174##0.1863]/1?-5b[5.2174##0.1863]/1?-5b[5.2174##0.1863]/1?-5b[5.2174##0.1863]/1?-5b[5.2174##0.1863]/1?-5b[5.2174##0.1863]/1?-5b[5.2174##0.1863]/1?-5b[5.2174##0.1863]/1?-5b[5.2174##0.1863]/1?-5b[5.2174##0.1863]/1?-5b[5.2174##0.1863]/1?-5b[5.2174##0.1863]/1?-5b[5.2174##0.1863]/1?-5b[5.2174##0.1863]/1?-5b[5.2174##0.1863]/1?-5b[5.2174##0.1863]/1?-5b[5.2174##0.1863]/1?-5b[5.2174##0.1863]/1?-5b[5.2174##0.1863]/1?-5b[5.2174##0.1863]/1?-5b[5.2174##0.1863]/1?-5b[5.2174##0.1863]/1?-5b[5.2174##0.1863]/1?-5b[5.2174##0.1863]/1?-5b[5.2174##0.1863]/1?-5b[5.2174##0.1863]/1?-5b[5.2174##0.1863]/1?-5b[5.2174##0.1863]/1?-5b[5.2174##0.1863]/1?-5b[5.2174##0.1863]/1?-5b[5.2174##0.1863]/1?-5b[5.2174##0.1863]/1?-5b[5.2174##0.1863]/1?-5b[5.2174##0.1863]/1?-5b[5.2174##0.1863]/1?-5b[5.2174##0.1863]/1?-5b[5.2174##0.1863]/1?-5b[5.2174##0.1863]/1?-5b[5.2174##0.1863]/1?-5b[5.2174##0.1863]/1?-5b[5.2174##0.1863]/1?-5b[5.2174##0.1863]/1?-5b[5.2174##0.1863]/1?-5b[5.2174##0.1863]/1?-5b[5.2174##0.1863]/1?-5b[5.2174##0.1863]/1?-5b[5.2174##0.1863]/1?-5b[5.2174##0.1863]/1?-5b[5.2174##0.1863]/1?-5b[5.2174##0.1863]/1?-5b[5.2174##0.1863]/1?-5b[5.2174##0.1863]/1?-5b[5.2174##0.1863]/1?-5b[5.2174##0.1863]/1?-5b[5.2174##0.1863]/1?-5b[5.2174##0.1863]/1?-5b[5.2174##0.1863]/1?-5b[5.2174##0.1863]/1?-5b[5.2174##0.1863]/1?-5b[5.2174##0.1863]/1?-5b[5.2174##0.1863]/1?-5b[5.2174##0.1863]/1?-5b[5.2174##0.1863]/1?-5b[5.2174##0.1863]/1?-5b[5.2174##0.1863]/1?-5b[5.2174##0.1863]/1?-5b[5.2174##0.1863]/1?-5b[5.2174##0.1863]/1?-5b[5.2174##0.1863]/1?-5b[5.2174##0.1863]/1?-5b[5.2174##0.1863]/1?-5b[5.2174##0.1863]/1?-5b[5.2174##0.1863]/1?-5b[5.2174##0.1863]/1?-5b[5.2174##0.1863]/1?-5b[5.2174##0.1863]/1?-5b[5.2174##0.1863]/1?-5b[5.2174##0.1863]/1?-5b[5.2174##0.1863]/1?-5b[5.2174##0.1863]/1?-5b[5.2174##0.1863]/1?-5b[5.2174##0.1863]/1?-5b[5.2174##0.1863]/1?-5b[5.2174##0.1863]/1?-5b[5.2174##0.1863]/1?-5b[5.2174##0.1863]/1?-5b[5.2174##0.1863]/1?-5b[5.2174##0.1863]/1?-5b[5.2174##0.1863]/1?-5b[5.2174##0.1863]/1?-5b[5.2174##0.1863]/1?-5b[5.2174##0.1863]/1?-5b[5.2174##0.1863]/1?-5b[5.2174##0.1863]/1?-5b[5.2174##0.1863]/1?-5b[5.2174##0.1863]/1?-5b[5.2174##0.1863]/1?-5b[5.2174##0.1863]/1?-5b[5.2174##0.1863]/1?-5b[5.2174##0.1863]/1?-5b[5.2174##0.1863]/1?-5b[5.2174##0.1863]/1?-5b[5.2174##0.1863]/1?-5b[5.2174##0.1863]/1?-5b[5.2174##0.1863]/1?-5b[5.2174##0.1863]/1?-5b[5.2174##0.1863]/1?-5b[5.2174##0.1863]/1?-5b[5.2174##0.1863]/1?-5b[5.2174##0.1863]/1?-5b[5.2174##0.1863]/1?-5b[5.2174##0.1863]/1?-5b[5.2174##0.1863]/1?-5b[5.2174##0.1863]/1?-5b[5.2174##0.1863]/1?-5b[5.2174##0.1863]/1?-5b[5.2174##0.1863]/1?-5b[5.2174##0.1863]/1?-5b[5.2174##0.1863]/1?-5b[5.2174##0.1863]/1?-5b[5.2174##0.1863]/1?-5b[5.2174##0.1863]/1?-5b[5.2174##0.1863]/1?-5b[5.2174##0.1863]/1?-5b[5.2174##0.1863]/1?-5b[5.2174##0.1863]/1?-5b[5.2174##0.1863]/1?-5b[5.2174##0.1863]/1?-5b[5.2174##0.1863]/1?-5b[5.2174##0.1863]/1?-5b[5.2174##0.1863]/1?-5b[5.2174##0.1863]/1?-5b[5.2174##0.1863]/1?-5b[5.2174##0.1863]/1?-5b[5.2174##0.1863]/1?-5b[5.2174##0.1863]/1?-5b[5.2174##0.1863]/1?-5b[5.2174##0.1863]/1?-5b[5.2174##0.1863]/1?-5b[5.2174##0.1863]/1?-5b[5.2174##0.1863]/1?-5b[5.2174##0.1863]/1?-5b[5.2174##0.1863]/1?-5b[5.2174##0.1863]/1?-5b[5.2174##0.1863]/1?-5b[5.2174##0.1863]/1?-5b[5.2174##0.1863]/1?-5b[5.2174##0.1863]/1?-5b[5.2174##0.1863]/1?-5b[5.2174##0.1863]/1?-5b[5.2174##0.1863]/1?-5b[5.2174##0.1863]/1?-5b[5.2174##0.1863]/1?-5b[5.2174##0.1863]/1?-5b[5.2174##0.1863]/1?-5b[5.2174##0.1863]/1?-5b[5.2174##0.1863]/1?-5b[5.2174##0.1863]/1?-5b[5.2174##0.1863]/1?-5b[5.2174##0.1863]/1?-5b[5.2174##0.1863]/1?-5b[5.2174##0.1863]/1?-5b[5.2174##0.1863]/1?-5b[5.2174##0.1863]/1?-5b[5.2174##0.1863]/1?-5b[5.2174##0.1863]/1?-5b[5.2174##0.1863]/1?-5b[5.2174##0.1863]/1?-5b[5.2174##0.1863]/1?-5b[5.2174##0.1863]/1?-5b[5.2174##0.1863]/1?-5b[5.2174##0.1863]/1?-5b[5.2174##0.1863]/1?-5b[5.2174##0.1863]/1?-5b[5.2174##0.1863]/1?-5b[5.2174##0.1863]/1?-5b[5.2174##0.1863]/1?-5b[5.2174##0.1863]/1?-5b[5.2174##0.1863]/1?-5b[5.2174##0.1863]/1?-5b[5.2174##0.1863]/1?-5b[5.2174##0.1863]/1?-5b[5.2174##0.1863]/1?-5b[5.2174##0.1863]/1?-5b[5.2174##0.1863]/1?-5b[5.2174##0.1863]/1?-5b[5.2174##0.1863]/1?-5b[5.2174##0.1863]/1?-5b[5.2174##0.1863]/1?-5b[5.2174##0.1863]/1?-5b[5.2174##0.1863]/1?-5b[5.2174##0.1863]/1?-5b[5.2174##0.1863]/1?-5b[5.2174##0.1863]/1?-5b[5.2174##0.1863]/1?-5b[5.2174##0.1863]/1?-5b[5.2174##0.1863]/1?-5b[5.2174##0.1863]/1?-5b[5.2174##0.1863]/1?-5b[5.2174##0.1863]/1?-5b[5.2174##0.1863]/1?-5b[5.2174##0.1863]/1?-5b[5.2174##0.1863]/1?-5b[5.2174##0.1863]/1?-5b[5.2174##0.1863]/1?-5b[5.2174##0.1863]/1?-5b[5.2174##0.1863]/1?-5b[5.2174##0.1863]/1?-5b[5.2174##0.1863]/1?-5b[5.2174##0.1863]/1?-5b[5.2174##0.1863]/1?-5b[5.2174##0.1863]/1?-5b[5.2174##0.1863]/1?-5b[5.2174##0.1863]/1?-5b[5.2174##0.1863]/1?-5b[5.2174##0.1863]/1?-5b[5.2174##0.1863]/1?-5b[5.2174##0.1863]/1?-5b[5.2174##0.1863]/1?-5b[5.2174##0.1863]/1?-5b[5.2174##0.1863]/1?-5b[5.2174##0.1863]/1?-5b[5.2174##0.1863]/1?-5b[5.2174##0.1863]/1?-5b[5.2174##0.1863]/1?-5b[5.2174##0.1863]/1?-5b[5.2174##0.1863]/1?-5b[5.2174##0.1863]/1?-5b[5.2174##0.1863]/1?-5b[5.2174##0.1863]/1?-5b[5.2174##0.1863]/1?-5b[5.2174##0.1863]/1?-5b[5.2174##0.1863]/1?-5b[5.2174##0.1863]/1?-5b[5.2174##0.1863]/1?-5b[5.2174##0.1863]/1?-5b[5.2174##0.1863]/1?-5b[5.2174##0.1863]/1?-5b[5.2174##0.1863]/1?-5b[5.2174##0.1863]/1?-5b[5.2174##0.1863]/1?-5b[5.2174##0.1863]/1?-5b[5.2174##0.1863]/1?-5b[5.2174##0.1863]/1?-5b[5.2174##0.1863]/1?-5b[5.2174##0.1863]/1?-5b[5.2174##0.1863]/1?-5b[5.2174##0.1863]/1?-5b[5.2174##0.1863]/1?-5b[5.2174##0.1863]/1?-5b[5.2174##0.1863]/1?-5b[5.2174##0.1863]/1?-5b[5.2174##0.1863]/1?-5b[5.2174##0.1863]/1?-5b[5.2174##0.1863]/1?-5b[5.2174##0.1863]/1?-5b[5.2174##0.1863]/1?-5b[5.2174##0.1863]/1?-5b[5.2174##0.1863]/1?-5b[5.2174##0.1863]/1?-5b[5.2174##0.1863]/1?-5b[5.2174##0.1863]/1?-5b[5.2174##0.1863]/1?-5b[5.2174##0.1863]/1?-5b[5.2174##0.1863]/1?-5b[5.2174##0.1863]/1?-5b[5.2174##0.1863]/1?-5b[5.2174##0.1863]/1?-5b[5.2174##0.1863]/1?-5b[5.2174##0.1863]/1?-5b[5.2174##0.1863]/1?-5b[5.2174##0.1863]/1?-5b[5.2174##0.1863]/1?-5b[5.2174##0.1863]/1?-5b[5.2174##0.1863]/1?-5b[5.2174##0.1863]/1?-5b[5.2174##0.1863]/1?-5b[5.2174##0.1863]/1?-5b[5.2174##0.1863]/1?-5b[5.2174##0.1863]/1?-5b[5.2174##0.1863]/1?-5b[5.2174##0.1863]/1?-5b[5.2174##0.1863]/1?-5b[5.2174##0.1863]/1?-5b[5.2174##0.1863]/1?-5b[5.2174##0.1863]/1?-5b[5.2174##0.1863]/1?-5b[5.2174##0.1863]/1?-5b[5.2174##0.1863]/1?-5b[5.2174##0.1863]/1?-5b[5.2174##0.1863]/1?-5b[5.2174##0.1863]/1?-5b[5.2174##0.1863]/1?-5b[5.2174##0.1863]/1?-5b[5.2174##0.1863]/1?-5b[5.2174##0.1863]/1?-5b[5.2174##0.1863]/1?-5b[5.2174##0.1863]/1?-5b[5.2174##0.1863]/1?-5b[5.2174##0.1863]/1?-5b[5.2174##0.1863]/1?-5b[5.2174##0.1863]/1?-5b[5.2174##0.1863]/1?-5b[5.2174##0.1863]/1?-5b[5.2174##0.1863]/1?-5b[5.2174##0.1863]/1?-5b[5.2174##0.1863]/1?-5b[5.2174##0.1863]/1?-5b[5.2174##0.1863]/1?-5b[5.2174##0.1863]/1?-5b[5.2174##0.1863]/1?-5b[5.2174##0.1863]/1?-5b[5.2174##0.1863]/1?-5b[5.2174##0.1863]/1?-5b[5.2174##0.1863]/1?-5b[5.2174##0.1863]/1?-5b[5.2174##0.1863]/1?-5b[5.2174##0.1863]/1?-5b[5.2174##0.1863]/1?-5b[5.2174##0.1863]/1?-5b[5.2174##0.1863]/1?-5b[5.2174##0.1863]/1?-5b[5.2174##0.1863]/1?-5b[5.2174##0.1863]/1?-5b[5.2174##0.1863]/1?-5b[5.2174##0.1863]/1?-5b[5.2174##0.1863]/1?-5b[5.2174##0.1863]/1?-5b[5.2174##0.1863]/1?-5b[5.2174##0.1863]/1?-5b[5.2174##0.1863]/1?-5b[5.2174##0.1863]/1?-5b[5.2174##0.1863]/1?-5b[5.2174##0.1863]/1?-5b[5.2174##0.1863]/1?-5b[5.2174##0.1863]/1?-5b[5.2174##0.1863]/1?-5b[5.2174##0.1863]/1?-5b[5.2174##0.1863]/1?-5b[5.2174##0.1863]/1?-5b[5.2174##0.1863]/1?-5b[5.2174##0.1863]/1?-5b[5.2174##0.1863]/1?-5b[5.2174##0.1863]/1?-5b[5.2174##0.1863]/1?-5b[5.2174##0.1863]/1?-5b[5.2174##0.1863]/1?-5b[5.2174##0.1863]/1?-5b[5.2174##0.1863]/1?-5b[5.2174##0.1863]/1?-5b[5.2174##0.1863]/1?-5b[5.2174##0.1863]/1?-5b[5.2174##0.1863]/1?-5b[5.2174##0.1863]/1?-5b[5.2174##0.1863]/1?-5b[5.2174##0.1863]/1?-5b[5.2174##0.1863]/1?-5b[5.2174##0.1863]/1?-5b[5.2174##0.1863]/1?-5b[5.2174##0.1863]/1?-5b[5.2174##0.1863]/1?-5b[5.2174##0.1863]/1?-5b[5.2174##0.1863]/1?-5b[5.2174##0.1863]/1?-5b[5.2174##0.1863]/1?-5b[5.2174##0.1863]/1?-5b[5.2174##0.1863]/1?-5b[5.2174##0.1863]/1?-5b[5.2174##0.1863]/1?-5b[5.2174##0.1863]/1?-5b[5.2174##0.1863]/1?-5b[5.2174##0.1863]/1?-5b[5.2174##0.1863]/1?-5b[5.2174##0.1863]/1?-5b[5.2174##0.1863]/1?-5b[5.2174##0.1863]/1?-5b[5.2174##0.1863]/1?-5b[5.2174##0.1863]/1?-5b[5.2174##0.1863]/1?-5b[5.2174##0.1863]/1?-5b[5.2174##0.1863]/1?-5b[5.2174##0.1863]/1?-5b[5.2174##0.1863]/1?-5b[5.2174##0.1863]/1?-5b[5.2174##0.1863]/1?-5b[5.2174##0.1863]/1?-5b[5.2174##0.1863]/1?-5b[5.2174##0.1863]/1?-5b[5.2174##0.1863]/1?-5b[5.2174##0.1863]/1?-5b[5.2174##0.1863]/1?-5b[5.2174##0.1863]/1?-5b[5.2174##0.1863]/1?-5b[5.2174##0.1863]/1?-5b[5.2174##0.1863]/1?-5b[5.2174##0.1863]/1?-5b[5.2174##0.1863]/1?-5b[5.2174##0.1863]/1?-5b[5.2174##0.1863]/1?-5b[5.2174##0.1863]/1?-5b[5.2174##0.1863]/1?-5b[5.2174##0.1863]/1?-5b[5.2174##0.1863]/1?-5b[5.2174##0.1863]/1?-5b[5.2174##0.1863]/1?-5b[5.2174##0.1863]/1?-5b[5.2174##0.1863]/1?-5b[5.2174##0.1863]/1?-5b[5.2174##0.1863]/1?-5b[5.2174##0.1863]/1?-5b[5.2174##0.1863]/1?-5b[5.2174##0.1863]/1?-5b[5.2174##0.1863]/1?-5b[5.2174##0.1863]/1?-5b[5.2174##0.1863]/1?-5b[5.2174##0.1863]/1?-5b[5.2174##0.1863]/1?-5b[5.2174##0.1863]/1?-5b[5.2174##0.1863]/1?-5b[5.2174##0.1863]/1?-5b[5.2174##0.1863]/1?-5b[5.2174##0.1863]/1?-5b[5.2174##0.1863]/1?-5b[5.2174##0.1863]/1?-5b[5.2174##0.1863]/1?-5b[5.2174##0.1863]/1?-5b[5.2174##0.1863]/1?-5b[5.2174##0.1863]/1?-5b[5.2174##0.1863]/1?-5b[5.2174##0.1863]/1?-5b[5.2174##0.1863]/1?-5b[5.2174##0.1863]/1?-5b[5.2174##0.1863]/1?-5b[5.2174##0.1863]/1?-5b[5.2174##0.1863]/1?-5b[5.2174##0.1863]/1?-5b[5.2174##0.1863]/1?-5b[5.2174##0.1863]/1?-5b[5.2174##0.1863]/1?-5b[5.2174##0.1863]/1?-5b[5.2174##0.1863]/1?-5b[5.2174##0.1863]/1?-5b[5.2174##0.1863]/1?-5b[5.2174##0.1863]/1?-5b[5.2174##0.1863]/1?-5b[5.2174##0.1863]/1?-5b[5.2174##0.1863]/1?-5b[5.2174##0.1863]/1?-5b[5.2174##0.1863]/1?-5b[5.2174##0.1863]/1?-5b[5.2174##0.1863]/1?-5b[5.2174##0.1863]/1?-5b[5.2174##0.1863]/1?-5b[5.2174##0.1863]/1?-5b[5.2174##0.1863]/1?-5b[5.2174##0.1863]/1?-5b[5.2174##0.1863]/1?-5b[5.2174##0.1863]/1?-5b[5.2174##0.1863]/1?-5b[5.2174##0.1863]/1?-5b[5.2174##0.1863]/1?-5b[5.2174##0.1863]/1?-5b[5.2174##0.1863]/1?-5b[5.2174##0.1863]/1?-5b[5.2174##0.1863]/1?-5b[5.2174##0.1863]/1?-5b[5.2174##0.1863]/1?-5b[5.2174##0.1863]/1?-5b[5.2174##0.1863]/1?-5b[5.2174##0.1863]/1?-5b[5.2174##0.1863]/1?-5b[5.2174##0.1863]/1?-5b[5.2174##0.1863]/1?-5b[5.2174##0.1863]/1?-5b[5.2174##0.1863]/1?-5b[5.2174##0.1863]/1?-5b[5.2174##0.1863]/1?-5b[5.2174##0.1863]/1?-5b[5.2174##0.1863]/1?-5b[5.2174##0.1863]/1?-5b[5.2174##0.1863]/1?-5b[5.2174##0.1863]/1?-5b[5.2174##0.1863]/1?-5b[5.2174##0.1863]/1?-5b[5.2174##0.1863]/1?-5b[5.2174##0.1863]/1?-5b[5.2174##0.1863]/1?-5b[5.2174##0.1863]/1?-5b[5.2174##0.1863]/1?-5b[5.2174##0.1863]/1?-5b[5.2174##0.1863]/1?-5b[5.2174##0.1863]/1?-5b[5.2174##0.1863]/1?-5b[5.2174##0.1863]/1?-5b[5.2174##0.1863]/1?-5b[5.2174##0.1863]/1?-5b[5.2174##0.1863]/1?-5b[5.2174##0.1863]/1?-5b[5.2174##0.1863]/1?-5b[5.2174##0.1863]/1?-5b[5.2174##0.1863]/1?-5b[5.2174##0.1863]/1?-5b[5.2174##0.1863]/1?-5b[5.2174##0.1863]/1?-5b[5.2174##0.1863]/1?-5b[5.2174##0.1863]/1?-5b[5.2174##0.1863]/1?-5b[5.2174##0.1863]/1?-5b[5.2174##0.1863]/1?-5b[5.2174##0.1863]/1?-5b[5.2174##0.1863]/1?-5b[5.2174##0.1863]/1?-5b[5.2174##0.1863]/1?-5b[5.2174##0.1863]/1?-5b[5.2174##0.1863]/1?-5b[5.2174##0.1863]/1?-5b[5.2174##0.1863]/1?-5b[5.2174##0.1863]/1?-5b[5.2174##0.1863]/1?-5b[5.2174##0.1863]/1?-5b[5.2174##0.1863]/1?-5b[5.2174##0.1863]/1?-5b[5.2174##0.1863]/1?-5b[5.2174##0.1863]/1?-5b[5.2174##0.1863]/1?-5b[5.2174##0.1863]/1?-5b[5.2174##0.1863]/1?-5b[5.2174##0.1863]/1?-5b[5.2174##0.1863]/1?-5b[5.2174##0.1863]/1?-5b[5.2174##0.1863]/1?-5b[5.2174##0.1863]/1?-5b[5.2174##0.1863]/1?-5b[5.2174##0.1863]/1?-5b[5.2174##0.1863]/1?-5b[5.2174##0.1863]/1?-5b[5.2174##0.1863]/1?-5b[5.2174##0.1863]/1?-5b[5.2174##0.1863]/1?-5b[5.2174##0.1863]/1?-5b[5.2174##0.1863]/1?-5b[5.2174##0.1863]/1?-5b[5.2174##0.1863]/1?-5b[5.2174##0.1863]/1?-5b[5.2174##0.1863]/1?-5b[5.2174##0.1863]/1?-5b[5.2174##0.1863]/1?-5b[5.2174##0.1863]/1?-5b[5.2174##0.1863]/1?-5b[5.2174##0.1863]/1?-5b[5.2174##0.1863]/1?-5b[5.2174##0.1863]/1?-5b[5.2174##0.1863]/1?-5b[5.2174##0.1863]/1?-5b[5.2174##0.1863]/1?-5b[5.2174##0.1863]/1?-5b[5.2174##0.1863]/1?-5b[5.2174##0.1863]/1?-5b[5.2174##0.1863]/1?-5b[5.2174##0.1863]/1?-5b[5.2174##0.1863]/1?-5b[5.2174##0.1863]/1?-5b[5.2174##0.1863]/1?-5b[5.2174##0.1863]/1?-5b[5.2174##0.1863]/1?-5b[5.2174##0.1863]/1?-5b[5.2174##0.1863]/1?-5b[5.2174##0.1863]/1?-5b[5.2174##0.1863]/1?-5b[5.2174##0.1863]/1?-5b[5.2174##0.1863]/1?-5b[5.2174##0.1863]/1?-5b[5.2174##0.1863]/1?-5b[5.2174##0.1863]/1?-5b[5.2174##0.1863]/1?-5b[5.2174##0.1863]/1?-5b[5.2174##0.1863]/1?-5b[5.2174##0.1863]/1?-5b[5.2174##0.1863]/1?-5b[5.2174##0.1863]/1?-5b[5.2174##0.1863]/1?-5b[5.2174##0.1863]/1?-5b[5.2174##0.1863]/1?-5b[5.2174##0.1863]/1?-5b[5.2174##0.1863]/1?-5b[5.2174##0.1863]/1?-5b[5.2174##0.1863]/1?-5b[5.2174##0.1863]/1?-5b[5.2174##0.1863]/1?-5b[5.2174##0.1863]/1?-5b[5.2174##0.1863]/1?-5b[5.2174##0.1863]/1?-5b[5.2174##0.1863]/1?-5b[5.2174##0.1863]/1?-5b[5.2174##0.1863]/1?-5b[5.2174##0.1863]/1?-5b[5.2174##0.1863]/1?-5b[5.2174##0.1863]/1?-5b[5.2174##0.1863]/1?-5b[5.2174##0.1863]/1?-5b[5.2174##0.1863]/1?-5b[5.2174##0.1863]/1?-5b[5.2174##0.1863]/1?-5b[5.2174##0.1863]/1?-5b[5.2174##0.1863]/1?-5b[5.2174##0.1863]/1?-5b[5.2174##0.1863]/1?-5b[5.2174##0.1863]/1?-5b[5.2174##0.1863]/1?-5b[5.2174##0.1863]/1?-5b[5.2174##0.1863]/1?-5b[5.2174##0.1863]/1?-5b[5.2174##0.1863]/1?-5b[5.2174##0.1863]/1?-5b[5.2174##0.1863]/1?-5b[5.2174##0.1863]/1?-5b[5.2174##0.1863]/1?-5b[5.2174##0.1863]/1?-5b[5.2174##0.1863]/1?-5b[5.2174##0.1863]/1?-5b[5.2174##0.1863]/1?-5b[5.2174##0.1863]/1?-5b[5.2174##0.1863]/1?-5b[5.2174##0.1863]/1?-5b[5.2174##0.1863]/1?-5b[5.2174##0.1863]/1?-5b[5.2174##0.1863]/1?-5b[5.2174##0.1863]/1?-5b[5.2174##0.1863]/1?-5b[5.2174##0.1863]/1?-5b[5.2174##0.1863]/1?-5b[5.2174##0.1863]/1?-5b[5.2174##0.1863]/1?-5b[5.2174##0.1863]/1?-5b[5.2174##0.1863]/1?-5b[5.2174##0.1863]/1?-5b[5.2174##0.1863]/1?-5b[5.2174##0.1863]/1?-5b[5.2174##0.1863]/1?-5b[5.2174##0.1863]/1?-5b[5.2174##0.1863]/1?-5b[5.2174##0.1863]/1?-5b[5.2174##0.1863]/1?-5b[5.2174##0.1863]/1?-5b[5.2174##0.1863]/1?-5b[5.2174##0.1863]/1?-5b[5.2174##0.1863]/1?-5b[5.2174##0.1863]/1?-5b[5.2174##0.1863]/1?-5b[5.2174##0.1863]/1?-5b[5.2174##0.1863]/1?-5b[5.2174##0.1863]/1?-5b[5.2174##0.1863]/1?-5b[5.2174##0.1863]/1?-5b[5.2174##0.1863]/1?-5b[5.2174##0.1863]/1?-5b[5.2174##0.1863]/1?-5b[5.2174##0.1863]/1?-5b[5.2174##0.1863]/1?-5b[5.2174##0.1863]/1?-5b[5.2174##0.1863]/1?-5b[5.2174##0.1863]/1?-5b[5.2174##0.1863]/1?-5b[5.2174##0.1863]/1?-5b[5.2174##0.1863]/1?-5b[5.2174##0.1863]/1?-5b[5.2174##0.1863]/1?-5b[5.2174##0.1863]/1?-5b[5.2174##0.1863]/1?-5b[5.2174##0.1863]/1?-5b[5.2174##0.1863]/1?-5b[5.2174##0.1863]/1?-5b[5.2174##0.1863]/1?-5b[5.2174##0.1863]/1?-5b[5.2174##0.1863]/1?-5b[5.2174##0.1863]/1?-5b[5.2174##0.1863]/1?-5b[5.2174##0.1863]/1?-5b[5.2174##0.1863]/1?-5b[5.2174##0.1863]/1?-5b[5.2174##0.1863]/1?-5b[5.2174##0.1863]/1?-5b[5.2174##0.1863]/1?-5b[5.2174##0.1863]/1?-5b[5.2174##0.1863]/1?-5b[5.2174##0.1863]/1?-5b[5.2174##0.1863]/1?-5b[5.2174##0.1863]/1?-5b[5.2174##0.1863]/1?-5b[5.2174##0.1863]/1?-5b[5.2174##0.1863]/1?-5b[5.2174##0.1863]/1?-5b[5.2174##0.1863]/1?-5b[5.2174##0.1863]/1?-5b[5.2174##0.1863]/1?-5b[5.2174##0.1863]/1?-5b[5.2174##0.1863]/1?-5b[5.2174##0.1863]/1?-5b[5.2174##0.1863]/1?-5b[5.2174##0.1863]/1?-5b[5.2174##0.1863]/1?-5b[5.2174##0.1863]/1?-5b[5.2174##0.1863]/1?-5b[5.2174##0.1863]/1?-5b[5.2174##0.1863]/1?-5b[5.2174##0.1863]/1?-5b[5.2174##0.1863]/1?-5b[5.2174##0.1863]/1?-5b[5.2174##0.1863]/1?-5b[5.2174##0.1863]/1?-5b[5.2174##0.1863]/1?-5b[5.2174##0.1863]/1?-5b[5.2174##0.1863]/1?-5b[5.2174##0.1863]/1?-5b[5.2174##0.1863]/1?-5b[5.2174##0.1863]/1?-5b[5.2174##0.1863]/1?-5b[5.2174##0.1863]/1?-5b[5.2174##0.1863]/1?-5b[5.2174##0.1863]/1?-5b[5.2174##0.1863]/1?-5b[5.2174##0.1863]/1?-5b[5.2174##0.1863]/1?-5b[5.2174##0.1863]/1?-5b[5.2174##0.1863]/1?-5b[5.2174##0.1863]/1?-5b[5.2174##0.1863]/1?-5b[5.2174##0.1863]/1?-5b[5.2174##0.1863]/1?-5b[5.2174##0.1863]/1?-5b[5.2174##0.1863]/1?-5b[5.2174##0.1863]/1?-5b[5.2174##0.1863]/1?-5b[5.2174##0.1863]/1?-5b[5.2174##0.1863]/1?-5b[5.2174##0.1863]/1?-5b[5.2174##0.1863]/1?-5b[5.2174##0.1863]/1?-5b[5.2174##0.1863]/1?-5b[5.2174##0.1863]/1?-5b[5.2174##0.1863]/1?-5b[5.2174##0.1863]/1?-5b[5.2174##0.1863]/1?-5b[5.2174##0.1863]/1?-5b[5.2174##0.1863]/1?-5b[5.2174##0.1863]/1?-5b[5.2174##0.1863]/1?-5b[5.2174##0.1863]/1?-5b[5.2174##0.1863]/1?-5b[5.2174##0.1863]/1?-5b[5.2174##0.1863]/1?-5b[5.2174##0.1863]/1?-5b[5.2174##0.1863]/1?-5b[5.2174##0.1863]/1?-5b[5.2174##0.1863]/1?-5b[5.2174##0.1863]/1?-5b[5.2174##0.1863]/1?-5b[5.2174##0.1863]/1?-5b[5.2174##0.1863]/1?-5b[5.2174##0.1863]/1?-5b[5.2174##0.1863]/1?-5b[5.2174##0.1863]/1?-5b[5.2174##0.1863]/1?-5b[5.2174##0.1863]/1?-5b[5.2174##0.1863]/1?-5b[5.2174##0.1863]/1?-5b[5.2174##0.1863]/1?-5b[5.2174##0.1863]/1?-5b[5.2174##0.1863]/1?-5b[5.2174##0.1863]/1?-5b[5.2174##0.1863]/1?-5b[5.2174##0.1863]/1?-5b[5.2174##0.1863]/1?-5b[5.2174##0.1863]/1?-5b[5.2174##0.1863]/1?-5b[5.2174##0.1863]/1?-5b[5.2174##0.1863]/1?-5b[5.2174##0.1863]/1?-5b[5.2174##0.1863]/1?-5b[5.2174##0.1863]/1?-5b[5.2174##0.1863]/1?-5b[5.2174##0.1863]/1?-5b[5.2174##0.1863]/1?-5b[5.2174##0.1863]/1?-5b[5.2174##0.1863]/1?-5b[5.2174##0.1863]/1?-5b[5.2174##0.1863]/1?-5b[5.2174##0.1863]/1?-5b[5.2174##0.1863]/1?-5b[5.2174##0.1863]/1?-5b[5.2174##0.1863]/1?-5b[5.2174##0.1863]/1?-5b[5.2174##0.1863]/1?-5b[5.2174##0.1863]/1?-5b[5.2174##0.1863]/1?-5b[5.2174##0.1863]/1?-5b[5.2174##0.1863]/1?-5b[5.2174##0.1863]/1?-5b[5.2174##0.1863]/1?-5b[5.2174##0.1863]/1?-5b[5.2174##0.1863]/1?-5b[5.2174##0.1863]/1?-5b[5.2174##0.1863]/1?-5b[5.2174##0.1863]/1?-5b[5.2174##0.1863]/1?-5b[5.2174##0.1863]/1?-5b[5.2174##0.1863]/1?-5b[5.2174##0.1863]/1?-5b[5.2174##0.1863]/1?-5b[5.2174##0.1863]/1?-5b[5.2174##0.1863]/1?-5b[5.2174##0.1863]/1?-5b[5.2174##0.1863]/1?-5b[5.2174##0.1863]/1?-5b[5.2174##0.1863]/1?-5b[5.2174##0.1863]/1?-5b[5.2174##0.1863]/1?-5b[5.2174##0.1863]/1?-5b[5.2174##0.1863]/1?-5b[5.2174##0.1863]/1?-5b[5.2174##0.1863]/1?-5b[5.2174##0.1863]/1?-5b[5.2174##0.1863]/1?-5b[5.2174##0.1863]/1?-5b[5.2174##0.1863]/1?-5b[5.2174##0.1863]/1?-5b[5.2174##0.1863]/1?-5b[5.2174##0.1863]/1?-5b[5.2174##0.1863]/1?-5b[5.2174##0.1863]/1?-5b[5.2174##0.1863]/1?-5b[5.2174##0.1863]/1?-5b[5.2174##0.1863]/1?-5b[5.2174##0.1863]/1?-5b[5.2174##0.1863]/1?-5b[5.2174##0.1863]/1?-5b[5.2174##0.1863]/1?-5b[5.2174##0.1863]/1?-5b[5.2174##0.1863]/1?-5b[5.2174##0.1863]/1?-5b[5.2174##0.1863]/1?-5b[5.2174##0.1863]/1?-5b[5.2174##0.1863]/1?-5b[5.2174##0.1863]/1?-5b[5.2174##0.1863]/1?-5b[5.2174##0.1863]/1?-5b[5.2174##0.1863]/1?-5b[5.2174##0.1863]/1?-5b[5.2174##0.1863]/1?-5b[5.2174##0.1863]/1?-5b[5.2174##0.1863]/1?-5b[5.2174##0.1863]/1?-5b[5.2174##0.1863]/1?-5b[5.2174##0.1863]/1?-5b[5.2174##0.1863]/1?-5b[5.2174##0.1863]/1?-5b[5.2174##0.1863]/1?-5b[5.2174##0.1863]/1?-5b[5.2174##0.1863]/1?-5b[5.2174##0.1863]/1?-5b[5.2174##0.1863]/1?-5b[5.2174##0.1863]/1?-5b[5.2174##0.1863]/1?-5b[5.2174##0.1863]/1?-5b[5.2174##0.1863]/1?-5b[5.2174##0.1863]/1?-5b[5.2174##0.1863]/1?-5b[5.2174##0.1863]/1?-5b[5.2174##0.1863]/1?-5b[5.2174##0.1863]/1?-5b[5.2174##0.1863]/1?-5b[5.2174##0.1863]/1?-5b[5.2174##0.1863]/1?-5b[5.2174##0.1863]/1?-5b[5.2174##0.1863]/1?-5b[5.2174##0.1863]/1?-5b[5.2174##0.1863]/1?-5b[5.2174##0.1863]/1?-5b[5.2174##0.1863]/1?-5b[5.2174##0.1863]/1?-5b[5.2174##0.1863]/1?-5b[5.2174##0.1863]/1?-5b[5.2174##0.1863]/1?-5b[5.2174##0.1863]/1?-5b[5.2174##0.1863]/1?-5b[5.2174##0.1863]/1?-5b[5.2174##0.1863]/1?-5b[5.2174##0.1863]/1?-5b[5.2174##0.1863]/1?-5b[5.2174##0.1863]/1?-5b[5.2174##0.1863]/1?-5b[5.2174##0.1863]/1?-5b[5.2174##0.1863]/1?-5b[5.2174##0.1863]/1?-5b[5.2174##0.1863]/1?-5b[5.2174##0.1863]/1?-5b[5.2174##0.1863]/1?-5b[5.2174##0.1863]/1?-5b[5.2174##0.1863]/1?-5b[5.2174##0.1863]/1?-5b[5.2174##0.1863]/1?-5b[5.2174##0.1863]/1?-5b[5.2174##0.1863]/1?-5b[5.2174##0.1863]/1?-5b[5.2174##0.1863]/1?-5b[5.2174##0.1863]/1?-5b[5.2174##0.1863]/1?-5b[5.2174##0.1863]/1?-5b[5.2174##0.1863]/1?-5b[5.2174##0.1863]/1?-5b[5.2174##0.1863]/1?-5b[5.2174##0.1863]/1?-5b[5.2174##0.1863]/1?-5b[5.2174##0.1863]/1?-5b[5.2174##0.1863]/1?-5b[5.2174##0.1863]/1?-5b[5.2174##0.1863]/1?-5b[5.2174##0.1863]/1?-5b[5.2174##0.1863]/1?-5b[5.2174##0.1863]/1?-5b[5.2174##0.1863]/1?-5b[5.2174##0.1863]/1?-5b[5.2174##0.1863]/1?-5b[5.2174##0.1863]/1?-5b[5.2174##0.1863]/1?-5b[5.2174##0.1863]/1?-5b[5.2174##0.1863]/1?-5b[5.2174##0.1863]/1?-5b[5.2174##0.1863]/1?-5b[5.2174##0.1863]/1?-5b[5.2174##0.1863]/1?-5b[5.2174##0.1863]/1?-5b[5.2174##0.1863]/1?-5b[5.2174##0.1863]/1?-5b[5.2174##0.1863]/1?-5b[5.2174##0.1863]/1?-5b[5.2174##0.1863]/1?-5b[5.2174##0.1863]/1?-5b[5.2174##0.1863]/1?-5b[5.2174##0.1863]/1?-5b[5.2174##0.1863]/1?-5b[5.2174##0.1863]/1?-5b[5.2174##0.1863]/1?-5b[5.2174##0.1863]/1?-5b[5.2174##0.1863]/1?-5b[5.2174##0.1863]/1?-5b[5.2174##0.1863]/1?-5b[5.2174##0.1863]/1?-5b[5.2174##0.1863]/1?-5b[5.2174##0.1863]/1?-5b[5.2174##0.1863]/1?-5b[5.2174##0.1863]/1?-5b[5.2174##0.1863]/1?-5b[5.2174##0.1863]/1?-5b[5.2174##0.1863]/1?-5b[5.2174##0.1863]/1?-5b[5.2174##0.1863]/1?-5b[5.2174##0.1863]/1?-5b[5.2174##0.1863]/1?-5b[5.2174##0.1863]/1?-5b[5.2174##0.1863]/1?-5b[5.2174##0.1863]/1?-5b[5.2174##0.1863]/1?-5b[5.2174##0.1863]/1?-5b[5.2174##0.1863]/1?-5b[5.2174##0.1863]/1?-5b[5.2174##0.1863]/1?-5b[5.2174##0.1863]/1?-5b[5.2174##0.1863]/1?-5b[5.2174##0.1863]/1?-5b[5.2174##0.1863]/1?-5b[5.2174##0.1863]/1?-5b[5.2174##0.1863]/1?-5b[5.2174##0.1863]/1?-5b[5.2174##0.1863]/1?-5b[5.2174##0.1863]/1?-5b[5.2174##0.1863]/1?-5b[5.2174##0.1863]/1?-5b[5.2174##0.1863]/1?-5b[5.2174##0.1863]/1?-5b[5.2174##0.1863]/1?-5b[5.2174##0.1863]/1?-5b[5.2174##0.1863]/1?-5b[5.2174##0.1863]/1?-5b[5.2174##0.1863]/1?-5b[5.2174##0.1863]/1?-5b[5.2174##0.1863]/1?-5b[5.2174##0.1863]/1?-5b[5.2174##0.1863]/1?-5b[5.2174##0.1863]/1?-5b[5.2174##0.1863]/1?-5b[5.2174##0.1863]/1?-5b[5.2174##0.1863]/1?-5b[5.2174##0.1863]/1?-5b[5.2174##0.1863]/1?-5b[5.2174##0.1863]/1?-5b[5.2174##0.1863]/1?-5b[5.2174##0.1863]/1?-5b[5.2174##0.1863]/1?-5b[5.2174##0.1863]/1?-5b[5.2174##0.1863]/1?-5b[5.2174##0.1863]/1?-5b[5.2174##0.1863]/1?-5b[5.2174##0.1863]/1?-5b[5.2174##0.1863]/1?-5b[5.2174##0.1863]/1?-5b[5.2174##0.1863]/1?-5b[5.2174##0.1863]/1?-5b[5.2174##0.1863]/1?-5b[5.2174##0.1863]/1?-5b[5.2174##0.1863]/1?-5b[5.2174##0.1863]/1?-5b[5.2174##0.1863]/1?-5b[5.2174##0.1863]/1?-5b[5.2174##0.1863]/1?-5b[5.2174##0.1863]/1?-5b[5.2174##0.1863]/1?-5b[5.2174##0.1863]/1?-5b[5.2174##0.1863]/1?-5b[5.2174##0.1863]/1?-5b[5.2174##0.1863]/1?-5b[5.2174##0.1863]/1?-5b[5.2174##0.1863]/1?-5b[5.2174##0.1863]/1?-5b[5.2174##0.1863]/1?-5b[5.2174##0.1863]/1?-5b[5.2174##0.1863]/1?-5b[5.2174##0.1863]/1?-5b[5.2174##0.1863]/1?-5b[5.2174##0.1863]/1?-5b[5.2174##0.1863]/1?-5b[5.2174##0.1863]/1?-5b[5.2174##0.1863]/1?-5b[5.2174##0.1863]/1?-5b[5.2174##0.1863]/1?-5b[5.2174##0.1863]/1?-5b[5.2174##0.1863]/1?-5b[5.2174##0.1863]/1?-5b[5.2174##0.1863]/1?-5b[5.2174##0.1863]/1?-5b[5.2174##0.1863]/1?-5b[5.2174##0.1863]/1?-5b[5.2174##0.1863]/1?-5b[5.2174##0.1863]/1?-5b[5.2174##0.1863]/1?-5b[5.2174##0.1863]/1?-5b[5.2174##0.1863]/1?-5b[5.2174##0.1863]/1?-5b[5.2174##0.1863]/1?-5b[5.2174##0.1863]/1?-5b[5.2174##0.1863]/1?-5b[5.2174##0.1863]/1?-5b[5.2174##0.1863]/1?-5b[5.2174##0.1863]/1?-5b[5.2174##0.1863]/1?-5b[5.2174##0.1863]/1?-5b[5.2174##0.1863]/1?-5b[5.2174##0.1863]/1?-5b[5.2174##0.1863]/1?-5b[5.2174##0.1863]/1?-5b[5.2174##0.1863]/1?-5b[5.2174##0.1863]/1?-5b[5.2174##0.1863]/1?-5b[5.2174##0.1863]/1?-5b[5.2174##0.1863]/1?-5b[5.2174##0.1863]/1?-5b[5.2174##0.1863]/1?-5b[5.2174##0.1863]/1?-5b[5.2174##0.1863]/1?-5b[5.2174##0.1863]/1?-5b[5.2174##0.1863]/1?-5b[5.2174##0.1863]/1?-5b[5.2174##0.1863]/1?-5b[5.2174##0.1863]/1?-5b[5.2174##0.1863]/1?-5b[5.2174##0.1863]/1?-5b[5.2174##0.1863]/1?-5b[5.2174##0.1863]/1?-5b[5.2174##0.1863]/1?-5b[5.2174##0.1863]/1?-5b[5.2174##0.1863]/1?-5b[5.2174##0.1863]/1?-5b[5.2174##0.1863]/1?-5b[5.2174##0.1863]/1?-5b[5.2174##0.1863]/1?-5b[5.2174##0.1863]/1?-5b[5.2174##0.1863]/1?-5b[5.2174##0.1863]/1?-5b[5.2174##0.1863]/1?-5b[5.2174##0.1863]/1?-5b[5.2174##0.1863]/1?-5b[5.2174##0.1863]/1?-5b[5.2174##0.1863]/1?-5b[5.2174##0.1863]/1?-5b[5.2174##0.1863]/1?-5b[5.2174##0.1863]/1?-5b[5.2174##0.1863]/1?-5b[5.2174##0.1863]/1?-5b[5.2174##0.1863]/1?-5b[5.2174##0.1863]/1?-5b[5.2174##0.1863]/1?-5b[5.2174##0.1863]/1?-5b[5.2174##0.1863]/1?-5b[5.2174##0.1863]/1?-5b[5.2174##0.1863]/1?-5b[5.2174##0.1863]/1?-5b[5.2174##0.1863]/1?-5b[5.2174##0.1863]/1?-5b[5.2174##0.1863]/1?-5b[5.2174##0.1863]/1?-5b[5.2174##0.1863]/1?-5b[5.2174##0.1863]/1?-5b[5.2174##0.1863]/1?-5b[5.2174##0.1863]/1?-5b[5.2174##0.1863]/1?-5b[5.2174##0.1863]/1?-5b[5.2174##0.1863]/1?-5b[5.2174##0.1863]/1?-5b[5.2174##0.1863]/1?-5b[5.2174##0.1863]/1?-5b[5.2174##0.1863]/1?-5b[5.2174##0.1863]/1?-5b[5.2174##0.1863]/1?-5b[5.2174##0.1863]/1?-5b[5.2174##0.1863]/1?-5b[5.2174##0.1863]/1?-5b[5.2174##0.1863]/1?-5b[5.2174##0.1863]/1?-5b[5.2174##0.1863]/1?-5b[5.2174##0.1863]/1?-5b[5.2174##0.1863]/1?-5b[5.2174##0.1863]/1?-5b[5.2174##0.1863]/1?-5b[5.2174##0.1863]/1?-5b[5.2174##0.1863]/1?-5b[5.2174##0.1863]/1?-5b[5.2174##0.1863]/1?-5b[5.2174##0.1863]/1?-5b[5.2174##0.1863]/1?-5b[5.2174##0.1863]/1?-5b[5.2174##0.1863]/1?-5b[5.2174##0.1863]/1?-5b[5.2174##0.1863]/1?-5b[5.2174##0.1863]/1?-5b[5.2174##0.1863]/1?-5b[5.2174##0.1863]/1?-5b[5.2174##0.1863]/1?-5b[5.2174##0.1863]/1?-5b[5.2174##0.1863]/1?-5b[5.2174##0.1863]/1?-5b[5.2174##0.1863]/1?-5b[5.2174##0.1863]/1?-5b[5.2174##0.1863]/1?-5b[5.2174##0.1863]/1?-5b[5.2174##0.1863]/1?-5b[5.2174##0.1863]/1?-5b[5.2174##0.1863]/1?-5b[5.2174##0.1863]/1?-5b[5.2174##0.1863]/1?-5b[5.2174##0.1863]/1?-5b[5.2174##0.1863]/1?-5b[5.2174##0.1863]/1?-5b[5.2174##0.1863]/1?-5b[5.2174##0.1863]/1?-5b[5.2174##0.1863]/1?-5b[5.2174##0.1863]/1?-5b[5.2174##0.1863]/1?-5b[5.2174##0.1863]/1?-5b[5.2174##0.1863]/1?-5b[5.2174##0.1863]/1?-5b[5.2174##0.1863]/1?-5b[5.2174##0.1863]/1?-5b[5.2174##0.1863]/1?-5b[5.2174##0.1863]/1?-5b[5.2174##0.1863]/1?-5b[5.2174##0.1863]/1?-5b[5.2174##0.1863]/1?-5b[5.2174##0.1863]/1?-5b[5.2174##0.1863]/1?-5b[5.2174##0.1863]/1?-5b[5.2174##0.1863]/1?-5b[5.2174##0.1863]/1?-5b[5.2174##0.1863]/1?-5b[5.2174##0.1863]/1?-5b[5.2174##0.1863]/1?-5b[5.2174##0.1863]/1?-5b[5.2174##0.1863]/1?-5b[5.2174##0.1863]/1?-5b[5.2174##0.1863]/1?-5b[5.2174##0.1863]/1?-5b[5.2174##0.1863]/1?-5b[5.2174##0.1863]/1?-5b[5.2174##0.1863]/1?-5b[5.2174##0.1863]/1?-5b[5.2174##0.1863]/1?-5b[5.2174##0.1863]/1?-5b[5.2174##0.1863]/1?-5b[5.2174##0.1863]/1?-5b[5.2174##0.1863]/1?-5b[5.2174##0.1863]/1?-5b[5.2174##0.1863]/1?-5b[5.2174##0.1863]/1?-5b[5.2174##0.1863]/1?-5b[5.2174##0.1863]/1?-5b[5.2174##0.1863]/1?-5b[5.2174##0.1863]/1?-5b[5.2174##0.1863]/1?-5b[5.2174##0.1863]/1?-5b[5.2174##0.1863]/1?-5b[5.2174##0.1863]/1?-5b[5.2174##0.1863]/1?-5b[5.2174##0.1863]/1?-5b[5.2174##0.1863]/1?-5b[5.2174##0.1863]/1?-5b[5.2174##0.1863]/1?-5b[5.2174##0.1863]/1?-5b[5.2174##0.1863]/1?-5b[5.2174##0.1863]/1?-5b[5.2174##0.1863]/1?-5b[5.2174##0.1863]/1?-5b[5.2174##0.1863]/1?-5b[5.2174##0.1863]/1?-5b[5.2174##0.1863]/1?-5b[5.2174##0.1863]/1?-5b[5.2174##0.1863]/1?-5b[5.2174##0.1863]/1?-5b[5.2174##0.1863]/1?-5b[5.2174##0.1863]/1?-5b[5.2174##0.1863]/1?-5b[5.2174##0.1863]/1?-5b[5.2174##0.1863]/1?-5b[5.2174##0.1863]/1?-5b[5.2174##0.1863]/1?-5b[5.2174##0.1863]/1?-5b[5.2174##0.1863]/1?-5b[5.2174##0.1863]/1?-5b[5.2174##0.1863]/1?-5b[5.2174##0.1863]/1?-5b[5.2174##0.1863]/1?-5b[5.2174##0.1863]/1?-5b[5.2174##0.1863]/1?-5b[5.2174##0.1863]/1?-5b[5.2174##0.1863]/1?-5b[5.2174##0.1863]/1?-5b[5.2174##0.1863]/1?-5b[5.2174##0.1863]/1?-5b[5.2174##0.1863]/1?-5b[5.2174##0.1863]/1?-5b[5.2174##0.1863]/1?-5b[5.2174##0.1863]/1?-5b[5.2174##0.1863]/1?-5b[5.2174##0.1863]/1?-5b[5.2174##0.1863]/1?-5b[5.2174##0.1863]/1?-5b[5.2174##0.1863]/1?-5b[5.2174##0.1863]/1?-5b[5.2174##0.1863]/1?-5b[5.2174##0.1863]/1?-5b[5.2174##0.1863]/1?-5b[5.2174##0.1863]/1?-5b[5.2174##0.1863]/1?-5b[5.2174##0.1863]/1?-5b[5.2174##0.1863]/1?-5b[5.2174##0.1863]/1?-5b[5.2174##0.1863]/1?-5b[5.2174##0.1863]/1?-5b[5.2174##0.1863]/1?-5b[5.2174##0.1863]/1?-5b[5.2174##0.1863]/1?-5b[5.2174##0.1863]/1?-5b[5.2174##0.1863]/1?-5b[5.2174##0.1863]/1?-5b[5.2174##0.1863]/1?-5b[5.2174##0.1863]/1?-5b[5.2174##0.1863]/1?-5b[5.2174##0.1863]/1?-5b[5.2174##0.1863]/1?-5b[5.2174##0.1863]/1?-5b[5.2174##0.1863]/1?-5b[5.2174##0.1863]/1?-5b[5.2174##0.1863]/1?-5b[5.2174##0.1863]/1?-5b[5.2174##0.1863]/1?-5b[5.2174##0.1863]/1?-5b[5.2174##0.1863]/1?-5b[5.2174##0.1863]/1?-5b[5.2174##0.1863]/1?-5b[5.2174##0.1863]/1?-5b[5.2174##0.1863]/1?-5b[5.2174##0.1863]/1?-5b[5.2174##0.1863]/1?-5b[5.2174##0.1863]/1?-5b[5.2174##0.1863]/1?-5b[5.2174##0.1863]/1?-5b[5.2174##0.1863]/1?-5b[5.2174##0.1863]/1?-5b[5.2174##0.1863]/1?-5b[5.2174##0.1863]/1?-5b[5.2174##0.1863]/1?-5b[5.2174##0.1863]/1?-5b[5.2174##0.1863]/1?-5b[5.2174##0.1863]/1?-5b[5.2174##0.1863]/1?-5b[5.2174##0.1863]/1?-5b[5.2174##0.1863]/1?-5b[5.2174##0.1863]/1?-5b[5.2174##0.1863]/1?-5b[5.2174##0.1863]/1?-5b[5.2174##0.1863]/1?-5b[5.2174##0.1863]/1?-5b[5.2174##0.1863]/1?-5b[5.2174##0.1863]/1?-5b[5.2174##0.1863]/1?-5b[5.2174##0.1863]/1?-5b[5.2174##0.1863]/1?-5b[5.2174##0.1863]/1?-5b[5.2174##0.1863]/1?-5b[5.2174##0.1863]/1?-5b[5.2174##0.1863]/1?-5b[5.2174##0.1863]/1?-5b[5.2174##0.1863]/1?-5b[5.2174##0.1863]/1?-5b[5.2174##0.1863]/1?-5b[5.2174##0.1863]/1?-5b[5.2174##0.1863]/1?-5b[5.2174##0.1863]/1?-5b[5.2174##0.1863]/1?-5b[5.2174##0.1863]/1?-5b[5.2174##0.1863]/1?-5b[5.2174##0.1863]/1?-5b[5.2174##0.1863]/1?-5b[5.2174##0.1863]/1?-5b[5.2174##0.1863]/1?-5b[5.2174##0.1863]/1?-5b[5.2174##0.1863]/1?-5b[5.2174##0.1863]/1?-5b[5.2174##0.1863]/1?-5b[5.2174##0.1863]/1?-5b[5.2174##0.1863]/1?-5b[5.2174##0.1863]/1?-5b[5.2174##0.1863]/1?-5b[5.2174##0.1863]/1?-5b[5.2174##0.1863]/1?-5b[5.2174##0.1863]/1?-5b[5.2174##0.1863]/1?-5b[5.2174##0.1863]/1?-5b[5.2174##0.1863]/1?-5b[5.2174##0.1863]/1?-5b[5.2174##0.1863]/1?-5b[5.2174##0.1863]/1?-5b[5.2174##0.1863]/1?-5b[5.2174##0.1863]/1?-5b[5.2174##0.1863]/1?-5b[5.2174##0.1863]/1?-5b[5.2174##0.1863]/1?-5b[5.2174##0.1863]/1?-5b[5.2174##0.1863]/1?-5b[5.2174##0.1863]/1?-5b[5.2174##0.1863]/1?-5b[5.2174##0.1863]/1?-5b[5.2174##0.1863]/1?-5b[5.2174##0.1863]/1?-5b[5.2174##0.1863]/1?-5b[5.2174##0.1863]/1?-5b[5.2174##0.1863]/1?-5b[5.2174##0.1863]/1?-5b[5.2174##0.1863]/1?-5b[5.2174##0.1863]/1?-5b[5.2174##0.1863]/1?-5b[5.2174##0.1863]/1?-5b[5.2174##0.1863]/1?-5b[5.2174##0.1863]/1?-5b[5.2174##0.1863]/1?-5b[5.2174##0.1863]/1?-5b[5.2174##0.1863]/1?-5b[5.2174##0.1863]/1?-5b[5.2174##0.1863]/1?-5b[5.2174##0.1863]/1?-5b[5.2174##0.1863]/1?-5b[5.2174##0.1863]/1?-5b[5.2174##0.1863]/1?-5b[5.2174##0.1863]/1?-5b[5.2174##0.1863]/1?-5b[5.2174##0.1863]/1?-5b[5.2174##0.1863]/1?-5b[5.2174##0.1863]/1?-5b[5.2174##0.1863]/1?-5b[5.2174##0.1863]/1?-5b[5.2174##0.1863]/1?-5b[5.2174##0.1863]/1?-5b[5.2174##0.1863]/1?-5b[5.2174##0.1863]/1?-5b[5.2174##0.1863]/1?-5b[5.2174##0.1863]/1?-5b[5.2174##0.1863]/1?-5b[5.2174##0.1863]/1?-5b[5.2174##0.1863]/1?-5b[5.2174##0.1863]/1?-5b[5.2174##0.1863]/1?-5b[5.2174##0.1863]/1?-5b[5.2174##0.1863]/1?-5b[5.2174##0.1863]/1?-5b[5.2174##0.1863]/1?-5b[5.2174##0.1863]/1?-5b[5.2174##0.1863]/1?-5b[5.2174##0.1863]/1?-5b[5.2174##0.1863]/1?-5b[5.2174##0.1863]/1?-5b[5.2174##0.1863]/1?-5b[5.2174##0.1863]/1?-5b[5.2174##0.1863]/1?-5b[5.2174##0.1863]/1?-5b[5.2174##0.1863]/1?-5b[5.2174##0.1863]/1?-5b[5.2174##0.1863]/1?-5b[5.2174##0.1863]/1?-5b[5.2174##0.1863]/1?-5b[5.2174##0.1863]/1?-5b[5.2174##0.1863]/1?-5b[5.2174##0.1863]/1?-5b[5.2174##0.1863]/1?-5b[5.2174##0.1863]/1?-5b[5.2174##0.1863]/1?-5b[5.2174##0.1863]/1?-5b[5.2174##0.1863]/1?-5b[5.2174##0.1863]/1?-5b[5.2174##0.1863]/1?-5b[5.2174##0.1863]/1?-5b[5.2174##0.1863]/1?-5b[5.2174##0.1863]/1?-5b[5.2174##0.1863]/1?-5b[5.2174##0.1863]/1?-5b[5.2174##0.1863]/1?-5b[5.2174##0.1863]/1?-5b[5.2174##0.1863]/1?-5b[5.2174##0.1863]/1?-5b[5.2174##0.1863]/1?-5b[5.2174##0.1863]/1?-5b[5.2174##0.1863]/1?-5b[5.2174##0.1863]/1?-5b[5.2174##0.1863]/1?-5b[5.2174##0.1863]/1?-5b[5.2174##0.1863]/1?-5b[5.2174##0.1863]/1?-5b[5.2174##0.1863]/1?-5b[5.2174##0.1863]/1?-5b[5.2174##0.1863]/1?-5b[5.2174##0.1863]/1?-5b[5.2174##0.1863]/1?-5b[5.2174##0.1863]/1?-5b[5.2174##0.1863]/1?-5b[5.2174##0.1863]/1?-5b[5.2174##0.1863]/1?-5b[5.2174##0.1863]/1?-5b[5.2174##0.1863]/1?-5b[5.2174##0.1863]/1?-5b[5.2174##0.1863]/1?-5b[5.2174##0.1863]/1?-5b[5.2174##0.1863]/1?-5b[5.2174##0.1863]/1?-5b[5.2174##0.1863]/1?-5b[5.2174##0.1863]/1?-5b[5.2174##0.1863]/1?-5b[5.2174##0.1863]/1?-5b[5.2174##0.1863]/1?-5b[5.2174##0.1863]/1?-5b[5.2174##0.1863]/1?-5b[5.2174##0.1863]/1?-5b[5.2174##0.1863]/1?-5b[5.2174##0.1863]/1?-5b[5.2174##0.1863]/1?-5b[5.2174##0.1863]/1?-5b[5.2174##0.1863]/1?-5b[5.2174##0.1863]/1?-5b[5.2174##0.1863]/1?-5b[5.2174##0.1863]/1?-5b[5.2174##0.1863]/1?-5b[5.2174##0.1863]/1?-5b[5.2174##0.1863]/1?-5b[5.2174##0.1863]/1?-5b[5.2174##0.1863]/1?-5b[5.2174##0.1863]/1?-5b[5.2174##0.1863]/1?-5b[5.2174##0.1863]/1?-5b[5.2174##0.1863]/1?-5b[5.2174##0.1863]/1?-5b[5.2174##0.1863]/1?-5b[5.2174##0.1863]/1?-5b[5.2174##0.1863]/1?-5b[5.2174##0.1863]/1?-5b[5.2174##0.1863]/1?-5b[5.2174##0.1863]/1?-5b[5.2174##0.1863]/1?-5b[5.2174##0.1863]/1?-5b[5.2174##0.1863]/1?-5b[5.2174##0.1863]/1?-5b[5.2174##0.1863]/1?-5b[5.2174##0.1863]/1?-5b[5.2174##0.1863]/1?-5b[5.2174##0.1863]/1?-5b[5.2174##0.1863]/1?-5b[5.2174##0.1863]/1?-5b[5.2174##0.1863]/1?-5b[5.2174##0.1863]/1?-5b[5.2174##0.1863]/1?-5b[5.2174##0.1863]/1?-5b[5.2174##0.1863]/1?-5b[5.2174##0.1863]/1?-5b[5.2174##0.1863]/1?-5b[5.2174##0.1863]/1?-5b[5.2174##0.1863]/1?-5b[5.2174##0.1863]/1?-5b[5.2174##0.1863]/1?-5b[5.2174##0.1863]/1?-5b[5.2174##0.1863]/1?-5b[5.2174##0.1863]/1?-5b[5.2174##0.1863]/1?-5b[5.2174##0.1863]/1?-5b[5.2174##0.1863]/1?-5b[5.2174##0.1863]/1?-5b[5.2174##0.1863]/1?-5b[5.2174##0.1863]/1?-5b[5.2174##0.1863]/1?-5b[5.2174##0.1863]/1?-5b[5.2174##0.1863]/1?-5b[5.2174##0.1863]/1?-5b[5.2174##0.1863]/1?-5b[5.2174##0.1863]/1?-5b[5.2174##0.1863]/1?-5b[5.2174##0.1863]/1?-5b[5.2174##0.1863]/1?-5b[5.2174##0.1863]/1?-5b[5.2174##0.1863]/1?-5b[5.2174##0.1863]/1?-5b[5.2174##0.1863]/1?-5b[5.2174##0.1863]/1?-5b[5.2174##0.1863]/1?-5b[5.2174##0.1863]/1?-5b[5.2174##0.1863]/1?-5b[5.2174##0.1863]/1?-5b[5.2174##0.1863]/1?-5b[5.2174##0.1863]/1?-5b[5.2174##0.1863]/1?-5b[5.2174##0.1863]/1?-5b[5.2174##0.1863]/1?-5b[5.2174##0.1863]/1?-5b[5.2174##0.1863]/1?-5b[5.2174##0.1863]/1?-5b[5.2174##0.1863]/1?-5b[5.2174##0.1863]/1?-5b[5.2174##0.1863]/1?-5b[5.2174##0.1863]/1?-5b[5.2174##0.1863]/1?-5b[5.2174##0.1863]/1?-5b[5.2174##0.1863]/1?-5b[5.2174##0.1863]/1?-5b[5.2174##0.1863]/1?-5b[5.2174##0.1863]/1?-5b[5.2174##0.1863]/1?-5b[5.2174##0.1863]/1?-5b[5.2174##0.1863]/1?-5b[5.2174##0.1863]/1?-5b[5.2174##0.1863]/1?-5b[5.2174##0.1863]/1?-5b[5.2174##0.1863]/1?-5b[5.2174##0.1863]/1?-5b[5.2174##0.1863]/1?-5b[5.2174##0.1863]/1?-5b[5.2174##0.1863]/1?-5b[5.2174##0.1863]/1?-5b[5.2174##0.1863]/1?-5b[5.2174##0.1863]/1?-5b[5.2174##0.1863]/1?-5b[5.2174##0.1863]/1?-5b[5.2174##0.1863]/1?-5b[5.2174##0.1863]/1?-5b[5.2174##0.1863]/1?-5b[5.2174##0.1863]/1?-5b[5.2174##0.1863]/1?-5b[5.2174##0.1863]/1?-5b[5.2174##0.1863]/1?-5b[5.2174##0.1863]/1?-5b[5.2174##0.1863]/1?-5b[5.2174##0.1863]/1?-5b[5.2174##0.1863]/1?-5b[5.2174##0.1863]/1?-5b[5.2174##0.1863]/1?-5b[5.2174##0.1863]/1?-5b[5.2174##0.1863]/1?-5b[5.2174##0.1863]/1?-5b[5.2174##0.1863]/1?-5b[5.2174##0.1863]/1?-5b[5.2174##0.1863]/1?-5b[5.2174##0.1863]/1?-5b[5.2174##0.1863]/1?-5b[5.2174##0.1863]/1?-5b[5.2174##0.1863]/1?-5b[5.2174##0.1863]/1?-5b[5.2174##0.1863]/1?-5b[5.2174##0.1863]/1?-5b[5.2174##0.1863]/1?-5b[5.2174##0.1863]/1?-5b[5.2174##0.1863]/1?-5b[5.2174##0.1863]/1?-5b[5.2174##0.1863]/1?-5b[5.2174##0.1863]/1?-5b[5.2174##0.1863]/1?-5b[5.2174##0.1863]/1?-5b[5.2174##0.1863]/1?-5b[5.2174##0.1863]/1?-5b[5.2174##0.1863]/1?-5b[5.2174##0.1863]/1?-5b[5.2174##0.1863]/1?-5b[5.2174##0.1863]/1?-5b[5.2174##0.1863]/1?-5b[5.2174##0.1863]/1?-5b[5.2174##0.1863]/1?-5b[5.2174##0.1863]/1?-5b[5.2174##0.1863]/1?-5b[5.2174##0.1863]/1?-5b[5.2174##0.1863]/1?-5b[5.2174##0.1863]/1?-5b[5.2174##0.1863]/1?-5b[5.2174##0.1863]/1?-5b[5.2174##0.1863]/1?-5b[5.2174##0.1863]/1?-5b[5.2174##0.1863]/1?-5b[5.2174##0.1863]/1?-5b[5.2174##0.1863]/1?-5b[5.2174##0.1863]/1?-5b[5.2174##0.1863]/1?-5b[5.2174##0.1863]/1?-5b[5.2174##0.1863]/1?-5b[5.2174##0.1863]/1?-5b[5.2174##0.1863]/1?-5b[5.2174##0.1863]/1?-5b[5.2174##0.1863]/1?-5b[5.2174##0.1863]/1?-5b[5.2174##0.1863]/1?-5b[5.2174##0.1863]/1?-5b[5.2174##0.1863]/1?-5b[5.2174##0.1863]/1?-5b[5.2174##0.1863]/1?-5b[5.2174##0.1863]/1?-5b[5.2174##0.1863]/1?-5b[5.2174##0.1863]/1?-5b[5.2174##0.1863]/1?-5b[5.2174##0.1863]/1?-5b[5.2174##0.1863]/1?-5b[5.2174##0.1863]/1?-5b[5.2174##0.1863]/1?-5b[5.2174##0.1863]/1?-5b[5.2174##0.1863]/1?-5b[5.2174##0.1863]/1?-5b[5.2174##0.1863]/1?-5b[5.2174##0.1863]/1?-5b[5.2174##0.1863]/1?-5b[5.2174##0.1863]/1?-5b[5.2174##0.1863]/1?-5b[5.2174##0.1863]/1?-5b[5.2174##0.1863]/1?-5b[5.2174##0.1863]/1?-5b[5.2174##0.1863]/1?-5b[5.2174##0.1863]/1?-5b[5.2174##0.1863]/1?-5b[5.2174##0.1863]/1?-5b[5.2174##0.1863]/1?-5b[5.2174##0.1863]/1?-5b[5.2174##0.1863]/1?-5b[5.2174##0.1863]/1?-5b[5.2174##0.1863]/1?-5b[5.2174##0.1863]/1?-5b[5.2174##0.1863]/1?-5b[5.2174##0.1863]/1?-5b[5.2174##0.1863]/1?-5b[5.2174##0.1863]/1?-5b[5.2174##0.1863]/1?-5b[5.2174##0.1863]/1?-5b[5.2174##0.1863]/1?-5b[5.2174##0.1863]/1?-5b[5.2174##0.1863]/1?-5b[5.2174##0.1863]/1?-5b[5.2174##0.1863]/1?-5b[5.2174##0.1863]/1?-5b[5.2174##0.1863]/1?-5b[5.2174##0.1863]/1?-5b[5.2174##0.1863]/1?-5b[5.2174##0.1863]/1?-5b[5.2174##0.1863]/1?-5b[5.2174##0.1863]/1?-5b[5.2174##0.1863]/1?-5b[5.2174##0.1863]/1?-5b[5.2174##0.1863]/1?-5b[5.2174##0.1863]/1?-5b[5.2174##0.1863]/1?-5b[5.2174##0.1863]/1?-5b[5.2174##0.1863]/1?-5b[5.2174##0.1863]/1?-5b[5.2174##0.1863]/1?-5b[5.2174##0.1863]/1?-5b[5.2174##0.1863]/1?-5b[5.2174##0.1863]/1?-5b[5.2174##0.1863]/1?-5b[5.2174##0.1863]/1?-5b[5.2174##0.1863]/1?-5b[5.2174##0.1863]/1?-5b[5.2174##0.1863]/1?-5b[5.2174##0.1863]/1?-5b[5.2174##0.1863]/1?-5b[5.2174##0.1863]/1?-5b[5.2174##0.1863]/1?-5b[5.2174##0.1863]/1?-5b[5.2174##0.1863]/1?-5b[5.2174##0.1863]/1?-5b[5.2174##0.1863]/1?-5b[5.2174##0.1863]/1?-5b[5.2174##0.1863]/1?-5b[5.2174##0.1863]/1?-5b[5.2174##0.1863]/1?-5b[5.2174##0.1863]/1?-5b[5.2174##0.1863]/1?-5b[5.2174##0.1863]/1?-5b[5.2174##0.1863]/1?-5b[5.2174##0.1863]/1?-5b[5.2174##0.1863]/1?-5b[5.2174##0.1863]/1?-5b[5.2174##0.1863]/1?-5b[5.2174##0.1863]/1?-5b[5.2174##0.1863]/1?-5b[5.2174##0.1863]/1?-5b[5.2174##0.1863]/1?-5b[5.2174##0.1863]/1?-5b[5.2174##0.1863]/1?-5b[5.2174##0.1863]/1?-5b[5.2174##0.1863]/1?-5b[5.2174##0.1863]/1?-5b[5.2174##0.1863]/1?-5b[5.2174##0.1863]/1?-5b[5.2174##0.1863]/1?-5b[5.2174##0.1863]/1?-5b[5.2174##0.1863]/1?-5b[5.2174##0.1863]/1?-5b[5.2174##0.1863]/1?-5b[5.2174##0.1863]/1?-5b[5.2174##0.1863]/1?-5b[5.2174##0.1863]/1?-5b[5.2174##0.1863]/1?-5b[5.2174##0.1863]/1?-5b[5.2174##0.1863]/1?-5b[5.2174##0.1863]/1?-5b[5.2174##0.1863]/1?-5b[5.2174##0.1863]/1?-5b[5.2174##0.1863]/1?-5b[5.2174##0.1863]/1?-5b[5.2174##0.1863]/1?-5b[5.2174##0.1863]/1?-5b[5.2174##0.1863]/1?-5b[5.2174##0.1863]/1?-5b[5.2174##0.1863]/1?-5b[5.2174##0.1863]/1?-5b[5.2174##0.1863]/1?-5b[5.2174##0.1863]/1?-5b[5.2174##0.1863]/1?-5b[5.2174##0.1863]/1?-5b[5.2174##0.1863]/1?-5b[5.2174##0.1863]/1?-5b[5.2174##0.1863]/1?-5b[5.2174##0.1863]/1?-5b[5.2174##0.1863]/1?-5b[5.2174##0.1863]/1?-5b[5.2174##0.1863]/1?-5b[5.2174##0.1863]/1?-5b[5.2174##0.1863]/1?-5b[5.2174##0.1863]/1?-5b[5.2174##0.1863]/1?-5b[5.2174##0.1863]/1?-5b[5.2174##0.1863]/1?-5b[5.2174##0.1863]/1?-5b[5.2174##0.1863]/1?-5b[5.2174##0.1863]/1?-5b[5.2174##0.1863]/1?-5b[5.2174##0.1863]/1?-5b[5.2174##0.1863]/1?-5b[5.2174##0.1863]/1?-5b[5.2174##0.1863]/1?-5b[5.2174##0.1863]/1?-5b[5.2174##0.1863]/1?-5b[5.2174##0.1863]/1?-5b[5.2174##0.1863]/1?-5b[5.2174##0.1863]/1?-5b[5.2174##0.1863]/1?-5b[5.2174##0.1863]/1?-5b[5.2174##0.1863]/1?-5b[5.2174##0.1863]/1?-5b[5.2174##0.1863]/1?-5b[5.2174##0.1863]/1?-5b[5.2174##0.1863]/1?-5b[5.2174##0.1863]/1?-5b[5.2174##0.1863]/1?-5b[5.2174##0.1863]/1?-5b[5.2174##0.1863]/1?-5b[5.2174##0.1863]/1?-5b[5.2174##0.1863]/1?-5b[5.2174##0.1863]/1?-5b[5.2174##0.1863]/1?-5b[5.2174##0.1863]/1?-5b[5.2174##0.1863]/1?-5b[5.2174##0.1863]/1?-5b[5.2174##0.1863]/1?-5b[5.2174##0.1863]/1?-5b[5.2174##0.1863]/1?-5b[5.2174##0.1863]/1?-5b[5.2174##0.1863]/1?-5b[5.2174##0.1863]/1?-5b[5.2174##0.1863]/1?-5b[5.2174##0.1863]/1?-5b[5.2174##0.1863]/1?-5b[5.2174##0.1863]/1?-5b[5.2174##0.1863]/1?-5b[5.2174##0.1863]/1?-5b[5.2174##0.1863]/1?-5b[5.2174##0.1863]/1?-5b[5.2174##0.1863]/1?-5b[5.2174##0.1863]/1?-5b[5.2174##0.1863]/1?-5b[5.2174##0.1863]/1?-5b[5.2174##0.1863]/1?-5b[5.2174##0.1863]/1?-5b[5.2174##0.1863]/1?-5b[5.2174##0.1863]/1?-5b[5.2174##0.1863]/1?-5b[5.2174##0.1863]/1?-5b[5.2174##0.1863]/1?-5b[5.2174##0.1863]/1?-5b[5.2174##0.1863]/1?-5b[5.2174##0.1863]/1?-5b[5.2174##0.1863]/1?-5b[5.2174##0.1863]/1?-5b[5.2174##0.1863]/1?-5b[5.2174##0.1863]/1?-5b[5.2174##0.1863]/1?-5b[5.2174##0.1863]/1?-5b[5.2174##0.1863]/1?-5b[5.2174##0.1863]/1?-5b[5.2174##0.1863]/1?-5b[5.2174##0.1863]/1?-5b[5.2174##0.1863]/1?-5b[5.2174##0.1863]/1?-5b[5.2174##0.1863]/1?-5b[5.2174##0.1863]/1?-5b[5.2174##0.1863]/1?-5b[5.2174##0.1863]/1?-5b[5.2174##0.1863]/1?-5b[5.2174##0.1863]/1?-5b[5.2174##0.1863]/1?-5b[5.2174##0.1863]/1?-5b[5.2174##0.1863]/1?-5b[5.2174##0.1863]/1?-5b[5.2174##0.1863]/1?-5b[5.2174##0.1863]/1?-5b[5.2174##0.1863]/1?-5b[5.2174##0.1863]/1?-5b[5.2174##0.1863]/1?-5b[5.2174##0.1863]/1?-5b[5.2174##0.1863]/1?-5b[5.2174##0.1863]/1?-5b[5.2174##0.1863]/1?-5b[5.2174##0.1863]/1?-5b[5.2174##0.1863]/1?-5b[5.2174##0.1863]/1?-5b[5.2174##0.1863]/1?-5b[5.2174##0.1863]/1?-5b[5.2174##0.1863]/1?-5b[5.2174##0.1863]/1?-5b[5.2174##0.1863]/1?-5b[5.2174##0.1863]/1?-5b[5.2174##0.1863]/1?-5b[5.2174##0.1863]/1?-5b[5.2174##0.1863]/1?-5b[5.2174##0.1863]/1?-5b[5.2174##0.1863]/1?-5b[5.2174##0.1863]/1?-5b[5.2174##0.1863]/1?-5b[5.2174##0.1863]/1?-5b[5.2174##0.1863]/1?-5b[5.2174##0.1863]/1?-5b[5.2174##0.1863]/1?-5b[5.2174##0.1863]/1?-5b[5.2174##0.1863]/1?-5b[5.2174##0.1863]/1?-5b[5.2174##0.1863]/1?-5b[5.2174##0.1863]/1?-5b[5.2174##0.1863]/1?-5b[5.2174##0.1863]/1?-5b[5.2174##0.1863]/1?-5b[5.2174##0.1863]/1?-5b[5.2174##0.1863]/1?-5b[5.2174##0.1863]/1?-5b[5.2174##0.1863]/1?-5b[5.2174##0.1863]/1?-5b[5.2174##0.1863]/1?-5b[5.2174##0.1863]/1?-5b[5.2174##0.1863]/1?-5b[5.2174##0.1863]/1?-5b[5.2174##0.1863]/1?-5b[5.2174##0.1863]/1?-5b[5.2174##0.1863]/1?-5b[5.2174##0.1863]/1?-5b[5.2174##0.1863]/1?-5b[5.2174##0.1863]/1?-5b[5.2174##0.1863]/1?-5b[5.2174##0.1863]/1?-5b[5.2174##0.1863]/1?-5b[5.2174##0.1863]/1?-5b[5.2174##0.1863]/1?-5b[5.2174##0.1863]/1?-5b[5.2174##0.1863]/1?-5b[5.2174##0.1863]/1?-5b[5.2174##0.1863]/1?-5b[5.2174##0.1863]/1?-5b[5.2174##0.1863]/1?-5b[5.2174##0.1863]/1?-5b[5.2174##0.1863]/1?-5b[5.2174##0.1863]/1?-5b[5.2174##0.1863]/1?-5b[5.2174##0.1863]/1?-5b[5.2174##0.1863]/1?-5b[5.2174##0.1863]/1?-5b[5.2174##0.1863]/1?-5b[5.2174##0.1863]/1?-5b[5.2174##0.1863]/1?-5b[5.2174##0.1863]/1?-5b[5.2174##0.1863]/1?-5b[5.2174##0.1863]/1?-5b[5.2174##0.1863]/1?-5b[5.2174##0.1863]/1?-5b[5.2174##0.1863]/1?-5b[5.2174##0.1863]/1?-5b[5.2174##0.1863]/1?-5b[5.2174##0.1863]/1?-5b[5.2174##0.1863]/1?-5b[5.2174##0.1863]/1?-5b[5.2174##0.1863]/1?-5b[5.2174##0.1863]/1?-5b[5.2174##0.1863]/1?-5b[5.2174##0.1863]/1?-5b[5.2174##0.1863]/1?-5b[5.2174##0.1863]/1?-5b[5.2174##0.1863]/1?-5b[5.2174##0.1863]/1?-5b[5.2174##0.1863]/1?-5b[5.2174##0.1863]/1?-5b[5.2174##0.1863]/1?-5b[5.2174##0.1863]/1?-5b[5.2174##0.1863]/1?-5b[5.2174##0.1863]/1?-5b[5.2174##0.1863]/1?-5b[5.2174##0.1863]/1?-5b[5.2174##0.1863]/1?-5b[5.2174##0.1863]/1?-5b[5.2174##0.1863]/1?-5b[5.2174##0.1863]/1?-5b[5.2174##0.1863]/1?-5b[5.2174##0.1863]/1?-5b[5.2174##0.1863]/1?-5b[5.2174##0.1863]/1?-5b[5.2174##0.1863]/1?-5b[5.2174##0.1863]/1?-5b[5.2174##0.1863]/1?-5b[5.2174##0.1863]/1?-5b[5.2174##0.1863]/1?-5b[5.2174##0.1863]/1?-5b[5.2174##0.1863]/1?-5b[5.2174##0.1863]/1?-5b[5.2174##0.1863]/1?-5b[5.2174##0.1863]/1?-5b[5.2174##0.1863]/1?-5b[5.2174##0.1863]/1?-5b[5.2174##0.1863]/1?-5b[5.2174##0.1863]/1?-5b[5.2174##0.1863]/1?-5b[5.2174##0.1863]/1?-5b[5.2174##0.1863]/1?-5b[5.2174##0.1863]/1?-5b[5.2174##0.1863]/1?-5b[5.2174##0.1863]/1?-5b[5.2174##0.1863]/1?-5b[5.2174##0.1863]/1?-5b[5.2174##0.1863]/1?-5b[5.2174##0.1863]/1?-5b[5.2174##0.1863]/1?-5b[5.2174##0.1863]/1?-5b[5.2174##0.1863]/1?-5b[5.2174##0.1863]/1?-5b[5.2174##0.1863]/1?-5b[5.2174##0.1863]/1?-5b[5.2174##0.1863]/1?-5b[5.2174##0.1863]/1?-5b[5.2174##0.1863]/1?-5b[5.2174##0.1863]/1?-5b[5.2174##0.1863]/1?-5b[5.2174##0.1863]/1?-5b[5.2174##0.1863]/1?-5b[5.2174##0.1863]/1?-5b[5.2174##0.1863]/1?-5b[5.2174##0.1863]/1?-5b[5.2174##0.1863]/1?-5b[5.2174##0.1863]/1?-5b[5.2174##0.1863]/1?-5b[5.2174##0.1863]/1?-5b[5.2174##0.1863]/1?-5b[5.2174##0.1863]/1?-5b[5.2174##0.1863]/1?-5b[5.2174##0.1863]/1?-5b[5.2174##0.1863]/1?-5b[5.2174##0.1863]/1?-5b[5.2174##0.1863]/1?-5b[5.2174##0.1863]/1?-5b[5.2174##0.1863]/1?-5b[5.2174##0.1863]/1?-5b[5.2174##0.1863]/1?-5b[5.2174##0.1863]/1?-5b[5.2174##0.1863]/1?-5b[5.2174##0.1863]/1?-5b[5.2174##0.1863]/1?-5b[5.2174##0.1863]/1?-5b[5.2174##0.1863]/1?-5b[5.2174##0.1863]/1?-5b[5.2174##0.1863]/1?-5b[5.2174##0.1863]/1?-5b[5.2174##0.1863]/1?-5b[5.2174##0.1863]/1?-5b[5.2174##0.1863]/1?-5b[5.2174##0.1863]/1?-5b[5.2174##0.1863]/1?-5b[5.2174##0.1863]/1?-5b[5.2174##0.1863]/1?-5b[5.2174##0.1863]/1?-5b[5.2174##0.1863]/1?-5b[5.2174##0.1863]/1?-5b[5.2174##0.1863]/1?-5b[5.2174##0.1863]/1?-5b[5.2174##0.1863]/1?-5b[5.2174##0.1863]/1?-5b[5.2174##0.1863]/1?-5b[5.2174##0.1863]/1?-5b[5.2174##0.1863]/1?-5b[5.2174##0.1863]/1?-5b[5.2174##0.1863]/1?-5b[5.2174##0.1863]/1?-5b[5.2174##0.1863]/1?-5b[5.2174##0.1863]/1?-5b[5.2174##0.1863]/1?-5b[5.2174##0.1863]/1?-5b[5.2174##0.1863]/1?-5b[5.2174##0.1863]/1?-5b[5.2174##0.1863]/1?-5b[5.2174##0.1863]/1?-5b[5.2174##0.1863]/1?-5b[5.2174##0.1863]/1?-5b[5.2174##0.1863]/1?-5b[5.2174##0.1863]/1?-5b[5.2174##0.1863]/1?-5b[5.2174##0.1863]/1?-5b[5.2174##0.1863]/1?-5b[5.2174##0.1863]/1?-5b[5.2174##0.1863]/1?-5b[5.2174##0.1863]/1?-5b[5.2174##0.1863]/1?-5b[5.2174##0.1863]/1?-5b[5.2174##0.1863]/1?-5b[5.2174##0.1863]/1?-5b[5.2174##0.1863]/1?-5b[5.2174##0.1863]/1?-5b[5.2174##0.1863]/1?-5b[5.2174##0.1863]/1?-5b[5.2174##0.1863]/1?-5b[5.2174##0.1863]/1?-5b[5.2174##0.1863]/1?-5b[5.2174##0.1863]/1?-5b[5.2174##0.1863]/1?-5b[5.2174##0.1863]/1?-5b[5.2174##0.1863]/1?-5b[5.2174##0.1863]/1?-5b[5.2174##0.1863]/1?-5b[5.2174##0.1863]/1?-5b[5.2174##0.1863]/1?-5b[5.2174##0.1863]/1?-5b[5.2174##0.1863]/1?-5b[5.2174##0.1863]/1?-5b[5.2174##0.1863]/1?-5b[5.2174##0.1863]/1?-5b[5.2174##0.1863]/1?-5b[5.2174##0.1863]/1?-5b[5.2174##0.1863]/1?-5b[5.2174##0.1863]/1?-5b[5.2174##0.1863]/1?-5b[5.2174##0.1863]/1?-5b[5.2174##0.1863]/1?-5b[5.2174##0.1863]/1?-5b[5.2174##0.1863]/1?-5b[5.2174##0.1863]/1?-5b[5.2174##0.1863]/1?-5b[5.2174##0.1863]/1?-5b[5.2174##0.1863]/1?-5b[5.2174##0.1863]/1?-5b[5.2174##0.1863]/1?-5b[5.2174##0.1863]/1?-5b[5.2174##0.1863]/1?-5b[5.2174##0.1863]/1?-5b[5.2174##0.1863]/1?-5b[5.2174##0.1863]/1?-5b[5.2174##0.1863]/1?-5b[5.2174##0.1863]/1?-5b[5.2174##0.1863]/1?-5b[5.2174##0.1863]/1?-5b[5.2174##0.1863]/1?-5b[5.2174##0.1863]/1?-5b[5.2174##0.1863]/1?-5b[5.2174##0.1863]/1?-5b[5.2174##0.1863]/1?-5b[5.2174##0.1863]/1?-5b[5.2174##0.1863]/1?-5b[5.2174##0.1863]/1?-5b[5.2174##0.1863]/1?-5b[5.2174##0.1863]/1?-5b[5.2174##0.1863]/1?-5b[5.2174##0.1863]/1?-5b[5.2174##0.1863]/1?-5b[5.2174##0.1863]/1?-5b[5.2174##0.1863]/1?-5b[5.2174##0.1863]/1?-5b[5.2174##0.1863]/1?-5b[5.2174##0.1863]/1?-5b[5.2174##0.1863]/1?-5b[5.2174##0.1863]/1?-5b[5.2174##0.1863]/1?-5b[5.2174##0.1863]/1?-5b[5.2174##0.1863]/1?-5b[5.2174##0.1863]/1?-5b[5.2174##0.1863]/1?-5b[5.2174##0.1863]/1?-5b[5.2174##0.1863]/1?-5b[5.2174##0.1863]/1?-5b[5.2174##0.1863]/1?-5b[5.2174##0.1863]/1?-5b[5.2174##0.1863]/1?-5b[5.2174##0.1863]/1?-5b[5.2174##0.1863]/1?-5b[5.2174##0.1863]/1?-5b[5.2174##0.1863]/1?-5b[5.2174##0.1863]/1?-5b[5.2174##0.1863]/1?-5b[5.2174##0.1863]/1?-5b[5.2174##0.1863]/1?-5b[5.2174##0.1863]/1?-5b[5.2174##0.1863]/1?-5b[5.2174##0.1863]/1?-5b[5.2174##0.1863]/1?-5b[5.2174##0.1863]/1?-5b[5.2174##0.1863]/1?-5b[5.2174##0.1863]/1?-5b[5.2174##0.1863]/1?-5b[5.2174##0.1863]/1?-5b[5.2174##0.1863]/1?-5b[5.2174##0.1863]/1?-5b[5.2174##0.1863]/1?-5b[5.2174##0.1863]/1?-5b[5.2174##0.1863]/1?-5b[5.2174##0.1863]/1?-5b[5.2174##0.1863]/1?-5b[5.2174##0.1863]/1?-5b[5.2174##0.1863]/1?-5b[5.2174##0.1863]/1?-5b[5.2174##0.1863]/1?-5b[5.2174##0.1863]/1?-5b[5.2174##0.1863]/1?-5b[5.2174##0.1863]/1?-5b[5.2174##0.1863]/1?-5b[5.2174##0.1863]/1?-5b[5.2174##0.1863]/1?-5b[5.2174##0.1863]/1?-5b[5.2174##0.1863]/1?-5b[5.2174##0.1863]/1?-5b[5.2174##0.1863]/1?-5b[5.2174##0.1863]/1?-5b[5.2174##0.1863]/1?-5b[5.2174##0.1863]/1?-5b[5.2174##0.1863]/1?-5b[5.2174##0.1863]/1?-5b[5.2174##0.1863]/1?-5b[5.2174##0.1863]/1?-5b[5.2174##0.1863]/1?-5b[5.2174##0.1863]/1?-5b[5.2174##0.1863]/1?-5b[5.2174##0.1863]/1?-5b[5.2174##0.1863]/1?-5b[5.2174##0.1863]/1?-5b[5.2174##0.1863]/1?-5b[5.2174##0.1863]/1?-5b[5.2174##0.1863]/1?-5b[5.2174##0.1863]/1?-5b[5.2174##0.1863]/1?-5b[5.2174##0.1863]/1?-5b[5.2174##0.1863]/1?-5b[5.2174##0.1863]/1?-5b[5.2174##0.1863]/1?-5b[5.2174##0.1863]/1?-5b[5.2174##0.1863]/1?-5b[5.2174##0.1863]/1?-5b[5.2174##0.1863]/1?-5b[5.2174##0.1863]/1?-5b[5.2174##0.1863]/1?-5b[5.2174##0.1863]/1?-5b[5.2174##0.1863]/1?-5b[5.2174##0.1863]/1?-5b[5.2174##0.1863]/1?-5b[5.2174##0.1863]/1?-5b[5.2174##0.1863]/1?-5b[5.2174##0.1863]/1?-5b[5.2174##0.1863]/1?-5b[5.2174##0.1863]/1?-5b[5.2174##0.1863]/1?-5b[5.2174##0.1863]/1?-5b[5.2174##0.1863]/1?-5b[5.2174##0.1863]/1?-5b[5.2174##0.1863]/1?-5b[5.2174##0.1863]/1?-5b[5.2174##0.1863]/1?-5b[5.2174##0.1863]/1?-5b[5.2174##0.1863]/1?-5b[5.2174##0.1863]/1?-5b[5.2174##0.1863]/1?-5b[5.2174##0.1863]/1?-5b[5.2174##0.1863]/1?-5b[5.2174##0.1863]/1?-5b[5.2174##0.1863]/1?-5b[5.2174##0.1863]/1?-5b[5.2174##0.1863]/1?-5b[5.2174##0.1863]/1?-5b[5.2174##0.1863]/1?-5b[5.2174##0.1863]/1?-5b[5.2174##0.1863]/1?-5b[5.2174##0.1863]/1?-5b[5.2174##0.1863]/1?-5b[5.2174##0.1863]/1?-5b[5.2174##0.1863]/1?-5b[5.2174##0.1863]/1?-5b[5.2174##0.1863]/1?-5b[5.2174##0.1863]/1?-5b[5.2174##0.1863]/1?-5b[5.2174##0.1863]/1?-5b[5.2174##0.1863]/1?-5b[5.2174##0.1863]/1?-5b[5.2174##0.1863]/1?-5b[5.2174##0.1863]/1?-5b[5.2174##0.1863]/1?-5b[5.2174##0.1863]/1?-5b[5.2174##0.1863]/1?-5b[5.2174##0.1863]/1?-5b[5.2174##0.1863]/1?-5b[5.2174##0.1863]/1?-5b[5.2174##0.1863]/1?-5b[5.2174##0.1863]/1?-5b[5.2174##0.1863]/1?-5b[5.2174##0.1863]/1?-5b[5.2174##0.1863]/1?-5b[5.2174##0.1863]/1?-5b[5.2174##0.1863]/1?-5b[5.2174##0.1863]/1?-5b[5.2174##0.1863]/1?-5b[5.2174##0.1863]/1?-5b[5.2174##0.1863]/1?-5b[5.2174##0.1863]/1?-5b[5.2174##0.1863]/1?-5b[5.2174##0.1863]/1?-5b[5.2174##0.1863]/1?-5b[5.2174##0.1863]/1?-5b[5.2174##0.1863]/1?-5b[5.2174##0.1863]/1?-5b[5.2174##0.1863]/1?-5b[5.2174##0.1863]/1?-5b[5.2174##0.1863]/1?-5b[5.2174##0.1863]/1?-5b[5.2174##0.1863]/1?-5b[5.2174##0.1863]/1?-5b[5.2174##0.1863]/1?-5b[5.2174##0.1863]/1?-5b[5.2174##0.1863]/1?-5b[5.2174##0.1863]/1?-5b[5.2174##0.1863]/1?-5b[5.2174##0.1863]/1?-5b[5.2174##0.1863]/1?-5b[5.2174##0.1863]/1?-5b[5.2174##0.1863]/1?-5b[5.2174##0.1863]/1?-5b[5.2174##0.1863]/1?-5b[5.2174##0.1863]/1?-5b[5.2174##0.1863]/1?-5b[5.2174##0.1863]/1?-5b[5.2174##0.1863]/1?-5b[5.2174##0.1863]/1?-5b[5.2174##0.1863]/1?-5b[5.2174##0.1863]/1?-5b[5.2174##0.1863]/1?-5b[5.2174##0.1863]/1?-5b[5.2174##0.1863]/1?-5b[5.2174##0.1863]/1?-5b[5.2174##0.1863]/1?-5b[5.2174##0.1863]/1?-5b[5.2174##0.1863]/1?-5b[5.2174##0.1863]/1?-5b[5.2174##0.1863]/1?-5b[5.2174##0.1863]/1?-5b[5.2174##0.1863]/1?-5b[5.2174##0.1863]/1?-5b[5.2174##0.1863]/1?-5b[5.2174##0.1863]/1?-5b[5.2174##0.1863]/1?-5b[5.2174##0.1863]/1?-5b[5.2174##0.1863]/1?-5b[5.2174##0.1863]/1?-5b[5.2174##0.1863]/1?-5b[5.2174##0.1863]/1?-5b[5.2174##0.1863]/1?-5b[5.2174##0.1863]/1?-5b[5.2174##0.1863]/1?-5b[5.2174##0.1863]/1?-5b[5.2174##0.1863]/1?-5b[5.2174##0.1863]/1?-5b[5.2174##0.1863]/1?-5b[5.2174##0.1863]/1?-5b[5.2174##0.1863]/1?-5b[5.2174##0.1863]/1?-5b[5.2174##0.1863]/1?-5b[5.2174##0.1863]/1?-5b[5.2174##0.1863]/1?-5b[5.2174##0.1863]/1?-5b[5.2174##0.1863]/1?-5b[5.2174##0.1863]/1?-5b[5.2174##0.1863]/1?-5b[5.2174##0.1863]/1?-5b[5.2174##0.1863]/1?-5b[5.2174##0.1863]/1?-5b[5.2174##0.1863]/1?-5b[5.2174##0.1863]/1?-5b[5.2174##0.1863]/1?-5b[5.2174##0.1863]/1?-5b[5.2174##0.1863]/1?-5b[5.2174##0.1863]/1?-5b[5.2174##0.1863]/1?-5b[5.2174##0.1863]/1?-5b[5.2174##0.1863]/1?-5b[5.2174##0.1863]/1?-5b[5.2174##0.1863]/1?-5b[5.2174##0.1863]/1?-5b[5.2174##0.1863]/1?-5b[5.2174##0.1863]/1?-5b[5.2174##0.1863]/1?-5b[5.2174##0.1863]/1?-5b[5.2174##0.1863]/1?-5b[5.2174##0.1863]/1?-5b[5.2174##0.1863]/1?-5b[5.2174##0.1863]/1?-5b[5.2174##0.1863]/1?-5b[5.2174##0.1863]/1?-5b[5.2174##0.1863]/1?-5b[5.2174##0.1863]/1?-5b[5.2174##0.1863]/1?-5b[5.2174##0.1863]/1?-5b[5.2174##0.1863]/1?-5b[5.2174##0.1863]/1?-5b[5.2174##0.1863]/1?-5b[5.2174##0.1863]/1?-5b[5.2174##0.1863]/1?-5b[5.2174##0.1863]/1?-5b[5.2174##0.1863]/1?-5b[5.2174##0.1863]/1?-5b[5.2174##0.1863]/1?-5b[5.2174##0.1863]/1?-5b[5.2174##0.1863]/1?-5b[5.2174##0.1863]/1?-5b[5.2174##0.1863]/1?-5b[5.2174##0.1863]/1?-5b[5.2174##0.1863]/1?-5b[5.2174##0.1863]/1?-5b[5.2174##0.1863]/1?-5b[5.2174##0.1863]/1?-5b[5.2174##0.1863]/1?-5b[5.2174##0.1863]/1?-5b[5.2174##0.1863]/1?-5b[5.2174##0.1863]/1?-5b[5.2174##0.1863]/1?-5b[5.2174##0.1863]/1?-5b[5.2174##0.1863]/1?-5b[5.2174##0.1863]/1?-5b[5.2174##0.1863]/1?-5b[5.2174##0.1863]/1?-5b[5.2174##0.1863]/1?-5b[5.2174##0.1863]/1?-5b[5.2174##0.1863]/1?-5b[5.2174##0.1863]/1?-5b[5.2174##0.1863]/1?-5b[5.2174##0.1863]/1?-5b[5.2174##0.1863]/1?-5b[5.2174##0.1863]/1?-5b[5.2174##0.1863]/1?-5b[5.2174##0.1863]/1?-5b[5.2174##0.1863]/1?-5b[5.2174##0.1863]/1?-5b[5.2174##0.1863]/1?-5b[5.2174##0.1863]/1?-5b[5.2174##0.1863]/1?-5b[5.2174##0.1863]/1?-5b[5.2174##0.1863]/1?-5b[5.2174##0.1863]/1?-5b[5.2174##0.1863]/1?-5b[5.2174##0.1863]/1?-5b[5.2174##0.1863]/1?-5b[5.2174##0.1863]/1?-5b[5.2174##0.1863]/1?-5b[5.2174##0.1863]/1?-5b[5.2174##0.1863]/1?-5b[5.2174##0.1863]/1?-5b[5.2174##0.1863]/1?-5b[5.2174##0.1863]/1?-5b[5.2174##0.1863]/1?-5b[5.2174##0.1863]/1?-5b[5.2174##0.1863]/1?-5b[5.2174##0.1863]/1?-5b[5.2174##0.1863]/1?-5b[5.2174##0.1863]/1?-5b[5.2174##0.1863]/1?-5b[5.2174##0.1863]/1?-5b[5.2174##0.1863]/1?-5b[5.2174##0.1863]/1?-5b[5.2174##0.1863]/1?-5b[5.2174##0.1863]/1?-5b[5.2174##0.1863]/1?-5b[5.2174##0.1863]/1?-5b[5.2174##0.1863]/1?-5b[5.2174##0.1863]/1?-5b[5.2174##0.1863]/1?-5b[5.2174##0.1863]/1?-5b[5.2174##0.1863]/1?-5b[5.2174##0.1863]/1?-5b[5.2174##0.1863]/1?-5b[5.2174##0.1863]/1?-5b[5.2174##0.1863]/1?-5b[5.2174##0.1863]/1?-5b[5.2174##0.1863]/1?-5b[5.2174##0.1863]/1?-5b[5.2174##0.1863]/1?-5b[5.2174##0.1863]/1?-5b[5.2174##0.1863]/1?-5b[5.2174##0.1863]/1?-5b[5.2174##0.1863]/1?-5b[5.2174##0.1863]/1?-5b[5.2174##0.1863]/1?-5b[5.2174##0.1863]/1?-5b[5.2174##0.1863]/1?-5b[5.2174##0.1863]/1?-5b[5.2174##0.1863]/1?-5b[5.2174##0.1863]/1?-5b[5.2174##0.1863]/1?-5b[5.2174##0.1863]/1?-5b[5.2174##0.1863]/1?-5b[5.2174##0.1863]/1?-5b[5.2174##0.1863]/1?-5b[5.2174##0.1863]/1?-5b[5.2174##0.1863]/1?-5b[5.2174##0.1863]/1?-5b[5.2174##0.1863]/1?-5b[5.2174##0.1863]/1?-5b[5.2174##0.1863]/1?-5b[5.2174##0.1863]/1?-5b[5.2174##0.1863]/1?-5b[5.2174##0.1863]/1?-5b[5.2174##0.1863]/1?-5b[5.2174##0.1863]/1?-5b[5.2174##0.1863]/1?-5b[5.2174##0.1863]/1?-5b[5.2174##0.1863]/1?-5b[5.2174##0.1863]/1?-5b[5.2174##0.1863]/1?-5b[5.2174##0.1863]/1?-5b[5.2174##0.1863]/1?-5b[5.2174##0.1863]/1?-5b[5.2174##0.1863]/1?-5b[5.2174##0.1863]/1?-5b[5.2174##0.1863]/1?-5b[5.2174##0.1863]/1?-5b[5.2174##0.1863]/1?-5b[5.2174##0.1863]/1?-5b[5.2174##0.1863]/1?-5b[5.2174##0.1863]/1?-5b[5.2174##0.1863]/1?-5b[5.2174##0.1863]/1?-5b[5.2174##0.1863]/1?-5b[5.2174##0.1863]/1?-5b[5.2174##0.1863]/1?-5b[5.2174##0.1863]/1?-5b[5.2174##0.1863]/1?-5b[5.2174##0.1863]/1?-5b[5.2174##0.1863]/1?-5b[5.2174##0.1863]/1?-5b[5.2174##0.1863]/1?-5b[5.2174##0.1863]/1?-5b[5.2174##0.1863]/1?-5b[5.2174##0.1863]/1?-5b[5.2174##0.1863]/1?-5b[5.2174##0.1863]/1?-5b[5.2174##0.1863]/1?-5b[5.2174##0.1863]/1?-5b[5.2174##0.1863]/1?-5b[5.2174##0.1863]/1?-5b[5.2174##0.1863]/1?-5b[5.2174##0.1863]/1?-5b[5.2174##0.1863]/1?-5b[5.2174##0.1863]/1?-5b[5.2174##0.1863]/1?-5b[5.2174##0.1863]/1?-5b[5.2174##0.1863]/1?-5b[5.2174##0.1863]/1?-5b[5.2174##0.1863]/1?-5b[5.2174##0.1863]/1?-5b[5.2174##0.1863]/1?-5b[5.2174##0.1863]/1?-5b[5.2174##0.1863]/1?-5b[5.2174##0.1863]/1?-5b[5.2174##0.1863]/1?-5b[5.2174##0.1863]/1?-5b[5.2174##0.1863]/1?-5b[5.2174##0.1863]/1?-5b[5.2174##0.1863]/1?-5b[5.2174##0.1863]/1?-5b[5.2174##0.1863]/1?-5b[5.2174##0.1863]/1?-5b[5.2174##0.1863]/1?-5b[5.2174##0.1863]/1?-5b[5.2174##0.1863]/1?-5b[5.2174##0.1863]/1?-5b[5.2174##0.1863]/1?-5b[5.2174##0.1863]/1?-5b[5.2174##0.1863]/1?-5b[5.2174##0.1863]/1?-5b[5.2174##0.1863]/1?-5b[5.2174##0.1863]/1?-5b[5.2174##0.1863]/1?-5b[5.2174##0.1863]/1?-5b[5.2174##0.1863]/1?-5b[5.2174##0.1863]/1?-5b[5.2174##0.1863]/1?-5b[5.2174##0.1863]/1?-5b[5.2174##0.1863]/1?-5b[5.2174##0.1863]/1?-5b[5.2174##0.1863]/1?-5b[5.2174##0.1863]/1?-5b[5.2174##0.1863]/1?-5b[5.2174##0.1863]/1?-5b[5.2174##0.1863]/1?-5b[5.2174##0.1863]/1?-5b[5.2174##0.1863]/1?-5b[5.2174##0.1863]/1?-5b[5.2174##0.1863]/1?-5b[5.2174##0.1863]/1?-5b[5.2174##0.1863]/1?-5b[5.2174##0.1863]/1?-5b[5.2174##0.1863]/1?-5b[5.2174##0.1863]/1?-5b[5.2174##0.1863]/1?-5b[5.2174##0.1863]/1?-5b[5.2174##0.1863]/1?-5b[5.2174##0.1863]/1?-5b[5.2174##0.1863]/1?-5b[5.2174##0.1863]/1?-5b[5.2174##0.1863]/1?-5b[5.2174##0.1863]/1?-5b[5.2174##0.1863]/1?-5b[5.2174##0.1863]/1?-5b[5.2174##0.1863]/1?-5b[5.2174##0.1863]/1?-5b[5.2174##0.1863]/1?-5b[5.2174##0.1863]/1?-5b[5.2174##0.1863]/1?-5b[5.2174##0.1863]/1?-5b[5.2174##0.1863]/1?-5b[5.2174##0.1863]/1?-5b[5.2174##0.1863]/1?-5b[5.2174##0.1863]/1?-5b[5.2174##0.1863]/1?-5b[5.2174##0.1863]/1?-5b[5.2174##0.1863]/1?-5b[5.2174##0.1863]/1?-5b[5.2174##0.1863]/1?-5b[5.2174##0.1863]/1?-5b[5.2174##0.1863]/1?-5b[5.2174##0.1863]/1?-5b[5.2174##0.1863]/1?-5b[5.2174##0.1863]/1?-5b[5.2174##0.1863]/1?-5b[5.2174##0.1863]/1?-5b[5.2174##0.1863]/1?-5b[5.2174##0.1863]/1?-5b[5.2174##0.1863]/1?-5b[5.2174##0.1863]/1?-5b[5.2174##0.1863]/1?-5b[5.2174##0.1863]/1?-5b[5.2174##0.1863]/1?-5b[5.2174##0.1863]/1?-5b[5.2174##0.1863]/1?-5b[5.2174##0.1863]/1?-5b[5.2174##0.1863]/1?-5b[5.2174##0.1863]/1?-5b[5.2174##0.1863]/1?-5b[5.2174##0.1863]/1?-5b[5.2174##0.1863]/1?-5b[5.2174##0.1863]/1?-5b[5.2174##0.1863]/1?-5b[5.2174##0.1863]/1?-5b[5.2174##0.1863]/1?-5b[5.2174##0.1863]/1?-5b[5.2174##0.1863]/1?-5b[5.2174##0.1863]/1?-5b[5.2174##0.1863]/1?-5b[5.2174##0.1863]/1?-5b[5.2174##0.1863]/1?-5b[5.2174##0.1863]/1?-5b[5.2174##0.1863]/1?-5b[5.2174##0.1863]/1?-5b[5.2174##0.1863]/1?-5b[5.2174##0.1863]/1?-5b[5.2174##0.1863]/1?-5b[5.2174##0.1863]/1?-5b[5.2174##0.1863]/1?-5b[5.2174##0.1863]/1?-5b[5.2174##0.1863]/1?-5b[5.2174##0.1863]/1?-5b[5.2174##0.1863]/1?-5b[5.2174##0.1863]/1?-5b[5.2174##0.1863]/1?-5b[5.2174##0.1863]/1?-5b[5.2174##0.1863]/1?-5b[5.2174##0.1863]/1?-5b[5.2174##0.1863]/1?-5b[5.2174##0.1863]/1?-5b[5.2174##0.1863]/1?-5b[5.2174##0.1863]/1?-5b[5.2174##0.1863]/1?-5b[5.2174##0.1863]/1?-5b[5.2174##0.1863]/1?-5b[5.2174##0.1863]/1?-5b[5.2174##0.1863]/1?-5b[5.2174##0.1863]/1?-5b[5.2174##0.1863]/1?-5b[5.2174##0.1863]/1?-5b[5.2174##0.1863]/1?-5b[5.2174##0.1863]/1?-5b[5.2174##0.1863]/1?-5b[5.2174##0.1863]/1?-5b[5.2174##0.1863]/1?-5b[5.2174##0.1863]/1?-5b[5.2174##0.1863]/1?-5b[5.2174##0.1863]/1?-5b[5.2174##0.1863]/1?-5b[5.2174##0.1863]/1?-5b[5.2174##0.1863]/1?-5b[5.2174##0.1863]/1?-5b[5.2174##0.1863]/1?-5b[5.2174##0.1863]/1?-5b[5.2174##0.1863]/1?-5b[5.2174##0.1863]/1?-5b[5.2174##0.1863]/1?-5b[5.2174##0.1863]/1?-5b[5.2174##0.1863]/1?-5b[5.2174##0.1863]/1?-5b[5.2174##0.1863]/1?-5b[5.2174##0.1863]/1?-5b[5.2174##0.1863]/1?-5b[5.2174##0.1863]/1?-5b[5.2174##0.1863]/1?-5b[5.2174##0.1863]/1?-5b[5.2174##0.1863]/1?-5b[5.2174##0.1863]/1?-5b[5.2174##0.1863]/1?-5b[5.2174##0.1863]/1?-5b[5.2174##0.1863]/1?-5b[5.2174##0.1863]/1?-5b[5.2174##0.1863]/1?-5b[5.2174##0.1863]/1?-5b[5.2174##0.1863]/1?-5b[5.2174##0.1863]/1?-5b[5.2174##0.1863]/1?-5b[5.2174##0.1863]/1?-5b[5.2174##0.1863]/1?-5b[5.2174##0.1863]/1?-5b[5.2174##0.1863]/1?-5b[5.2174##0.1863]/1?-5b[5.2174##0.1863]/1?-5b[5.2174##0.1863]/1?-5b[5.2174##0.1863]/1?-5b[5.2174##0.1863]/1?-5b[5.2174##0.1863]/1?-5b[5.2174##0.1863]/1?-5b[5.2174##0.1863]/1?-5b[5.2174##0.1863]/1?-5b[5.2174##0.1863]/1?-5b[5.2174##0.1863]/1?-5b[5.2174##0.1863]/1?-5b[5.2174##0.1863]/1?-5b[5.2174##0.1863]/1?-5b[5.2174##0.1863]/1?-5b[5.2174##0.1863]/1?-5b[5.2174##0.1863]/1?-5b[5.2174##0.1863]/1?-5b[5.2174##0.1863]/1?-5b[5.2174##0.1863]/1?-5b[5.2174##0.1863]/1?-5b[5.2174##0.1863]/1?-5b[5.2174##0.1863]/1?-5b[5.2174##0.1863]/1?-5b[5.2174##0.1863]/1?-5b[5.2174##0.1863]/1?-5b[5.2174##0.1863]/1?-5b[5.2174##0.1863]/1?-5b[5.2174##0.1863]/1?-5b[5.2174##0.1863]/1?-5b[5.2174##0.1863]/1?-5b[5.2174##0.1863]/1?-5b[5.2174##0.1863]/1?-5b[5.2174##0.1863]/1?-5b[5.2174##0.1863]/1?-5b[5.2174##0.1863]/1?-5b[5.2174##0.1863]/1?-5b[5.2174##0.1863]/1?-5b[5.2174##0.1863]/1?-5b[5.2174##0.1863]/1?-5b[5.2174##0.1863]/1?-5b[5.2174##0.1863]/1?-5b[5.2174##0.1863]/1?-5b[5.2174##0.1863]/1?-5b[5.2174##0.1863]/1?-5b[5.2174##0.1863]/1?-5b[5.2174##0.1863]/1?-5b[5.2174##0.1863]/1?-5b[5.2174##0.1863]/1?-5b[5.2174##0.1863]/1?-5b[5.2174##0.1863]/1?-5b[5.2174##0.1863]/1?-5b[5.2174##0.1863]/1?-5b[5.2174##0.1863]/1?-5b[5.2174##0.1863]/1?-5b[5.2174##0.1863]/1?-5b[5.2174##0.1863]/1?-5b[5.2174##0.1863]/1?-5b[5.2174##0.1863]/1?-5b[5.2174##0.1863]/1?-5b[5.2174##0.1863]/1?-5b[5.2174##0.1863]/1?-5b[5.2174##0.1863]/1?-5b[5.2174##0.1863]/1?-5b[5.2174##0.1863]/1?-5b[5.2174##0.1863]/1?-5b[5.2174##0.1863]/1?-5b[5.2174##0.1863]/1?-5b[5.2174##0.1863]/1?-5b[5.2174##0.1863]/1?-5b[5.2174##0.1863]/1?-5b[5.2174##0.1863]/1?-5b[5.2174##0.1863]/1?-5b[5.2174##0.1863]/1?-5b[5.2174##0.1863]/1?-5b[5.2174##0.1863]/1?-5b[5.2174##0.1863]/1?-5b[5.2174##0.1863]/1?-5b[5.2174##0.1863]/1?-5b[5.2174##0.1863]/1?-5b[5.2174##0.1863]/1?-5b[5.2174##0.1863]/1?-5b[5.2174##0.1863]/1?-5b[5.2174##0.1863]/1?-5b[5.2174##0.1863]/1?-5b[5.2174##0.1863]/1?-5b[5.2174##0.1863]/1?-5b[5.2174##0.1863]/1?-5b[5.2174##0.1863]/1?-5b[5.2174##0.1863]/1?-5b[5.2174##0.1863]/1?-5b[5.2174##0.1863]/1?-5b[5.2174##0.1863]/1?-5b[5.2174##0.1863]/1?-5b[5.2174##0.1863]/1?-5b[5.2174##0.1863]/1?-5b[5.2174##0.1863]/1?-5b[5.2174##0.1863]/1?-5b[5.2174##0.1863]/1?-5b[5.2174##0.1863]/1?-5b[5.2174##0.1863]/1?-5b[5.2174##0.1863]/1?-5b[5.2174##0.1863]/1?-5b[5.2174##0.1863]/1?-5b[5.2174##0.1863]/1?-5b[5.2174##0.1863]/1?-5b[5.2174##0.1863]/1?-5b[5.2174##0.1863]/1?-5b[5.2174##0.1863]/1?-5b[5.2174##0.1863]/1?-5b[5.2174##0.1863]/1?-5b[5.2174##0.1863]/1?-5b[5.2174##0.1863]/1?-5b[5.2174##0.1863]/1?-5b[5.2174##0.1863]/1?-5b[5.2174##0.1863]/1?-5b[5.2174##0.1863]/1?-5b[5.2174##0.1863]/1?-5b[5.2174##0.1863]/1?-5b[5.2174##0.1863]/1?-5b[5.2174##0.1863]/1?-5b[5.2174##0.1863]/1?-5b[5.2174##0.1863]/1?-5b[5.2174##0.1863]/1?-5b[5.2174##0.1863]/1?-5b[5.2174##0.1863]/1?-5b[5.2174##0.1863]/1?-5b[5.2174##0.1863]/1?-5b[5.2174##0.1863]/1?-5b[5.2174##0.1863]/1?-5b[5.2174##0.1863]/1?-5b[5.2174##0.1863]/1?-5b[5.2174##0.1863]/1?-5b[5.2174##0.1863]/1?-5b[5.2174##0.1863]/1?-5b[5.2174##0.1863]/1?-5b[5.2174##0.1863]/1?-5b[5.2174##0.1863]/1?-5b[5.2174##0.1863]/1?-5b[5.2174##0.1863]/1?-5b[5.2174##0.1863]/1?-5b[5.2174##0.1863]/1?-5b[5.2174##0.1863]/1?-5b[5.2174##0.1863]/1?-5b[5.2174##0.1863]/1?-5b[5.2174##0.1863]/1?-5b[5.2174##0.1863]/1?-5b[5.2174##0.1863]/1?-5b[5.2174##0.1863]/1?-5b[5.2174##0.1863]/1?-5b[5.2174##0.1863]/1?-5b[5.2174##0.1863]/1?-5b[5.2174##0.1863]/1?-5b[5.2174##0.1863]/1?-5b[5.2174##0.1863]/1?-5b[5.2174##0.1863]/1?-5b[5.2174##0.1863]/1?-5b[5.2174##0.1863]/1?-5b[5.2174##0.1863]/1?-5b[5.2174##0.1863]/1?-5b[5.2174##0.1863]/1?-5b[5.2174##0.1863]/1?-5b[5.2174##0.1863]/1?-5b[5.2174##0.1863]/1?-5b[5.2174##0.1863]/1?-5b[5.2174##0.1863]/1?-5b[5.2174##0.1863]/1?-5b[5.2174##0.1863]/1?-5b[5.2174##0.1863]/1?-5b[5.2174##0.1863]/1?-5b[5.2174##0.1863]/1?-5b[5.2174##0.1863]/1?-5b[5.2174##0.1863]/1?-5b[5.2174##0.1863]/1?-5b[5.2174##0.1863]/1?-5b[5.2174##0.1863]/1?-5b[5.2174##0.1863]/1?-5b[5.2174##0.1863]/1?-5b[5.2174##0.1863]/1?-5b[5.2174##0.1863]/1?-5b[5.2174##0.1863]/1?-5b[5.2174##0.1863]/1?-5b[5.2174##0.1863]/1?-5b[5.2174##0.1863]/1?-5b[5.2174##0.1863]/1?-5b[5.2174##0.1863]/1?-5b[5.2174##0.1863]/1?-5b[5.2174##0.1863]/1?-5b[5.2174##0.1863]/1?-5b[5.2174##0.1863]/1?-5b[5.2174##0.1863]/1?-5b[5.2174##0.1863]/1?-5b[5.2174##0.1863]/1?-5b[5.2174##0.1863]/1?-5b[5.2174##0.1863]/1?-5b[5.2174##0.1863]/1?-5b[5.2174##0.1863]/1?-5b[5.2174##0.1863]/1?-5b[5.2174##0.1863]/1?-5b[5.2174##0.1863]/1?-5b[5.2174##0.1863]/1?-5b[5.2174##0.1863]/1?-5b[5.2174##0.1863]/1?-5b[5.2174##0.1863]/1?-5b[5.2174##0.1863]/1?-5b[5.2174##0.1863]/1?-5b[5.2174##0.1863]/1?-5b[5.2174##0.1863]/1?-5b[5.2174##0.1863]/1?-5b[5.2174##0.1863]/1?-5b[5.2174##0.1863]/1?-5b[5.2174##0.1863]/1?-5b[5.2174##0.1863]/1?-5b[5.2174##0.1863]/1?-5b[5.2174##0.1863]/1?-5b[5.2174##0.1863]/1?-5b[5.2174##0.1863]/1?-5b[5.2174##0.1863]/1?-5b[5.2174##0.1863]/1?-5b[5.2174##0.1863]/1?-5b[5.2174##0.1863]/1?-5b[5.2174##0.1863]/1?-5b[5.2174##0.1863]/1?-5b[5.2174##0.1863]/1?-5b[5.2174##0.1863]/1?-5b[5.2174##0.1863]/1?-5b[5.2174##0.1863]/1?-5b[5.2174##0.1863]/1?-5b[5.2174##0.1863]/1?-5b[5.2174##0.1863]/1?-5b[5.2174##0.1863]/1?-5b[5.2174##0.1863]/1?-5b[5.2174##0.1863]/1?-5b[5.2174##0.1863]/1?-5b[5.2174##0.1863]/1?-5b[5.2174##0.1863]/1?-5b[5.2174##0.1863]/1?-5b[5.2174##0.1863]/1?-5b[5.2174##0.1863]/1?-5b[5.2174##0.1863]/1?-5b[5.2174##0.1863]/1?-5b[5.2174##0.1863]/1?-5b[5.2174##0.1863]/1?-5b[5.2174##0.1863]/1?-5b[5.2174##0.1863]/1?-5b[5.2174##0.1863]/1?-5b[5.2174##0.1863]/1?-5b[5.2174##0.1863]/1?-5b[5.2174##0.1863]/1?-5b[5.2174##0.1863]/1?-5b[5.2174##0.1863]/1?-5b[5.2174##0.1863]/1?-5b[5.2174##0.1863]/1?-5b[5.2174##0.1863]/1?-5b[5.2174##0.1863]/1?-5b[5.2174##0.1863]/1?-5b[5.2174##0.1863]/1?-5b[5.2174##0.1863]/1?-5b[5.2174##0.1863]/1?-5b[5.2174##0.1863]/1?-5b[5.2174##0.1863]/1?-5b[5.2174##0.1863]/1?-5b[5.2174##0.1863]/1?-5b[5.2174##0.1863]/1?-5b[5.2174##0.1863]/1?-5b[5.2174##0.1863]/1?-5b[5.2174##0.1863]/1?-5b[5.2174##0.1863]/1?-5b[5.2174##0.1863]/1?-5b[5.2174##0.1863]/1?-5b[5.2174##0.1863]/1?-5b[5.2174##0.1863]/1?-5b[5.2174##0.1863]/1?-5b[5.2174##0.1863]/1?-5b[5.2174##0.1863]/1?-5b[5.2174##0.1863]/1?-5b[5.2174##0.1863]/1?-5b[5.2174##0.1863]/1?-5b[5.2174##0.1863]/1?-5b[5.2174##0.1863]/1?-5b[5.2174##0.1863]/1?-5b[5.2174##0.1863]/1?-5b[5.2174##0.1863]/1?-5b[5.2174##0.1863]/1?-5b[5.2174##0.1863]/1?-5b[5.2174##0.1863]/1?-5b[5.2174##0.1863]/1?-5b[5.2174##0.1863]/1?-5b[5.2174##0.1863]/1?-5b[5.2174##0.1863]/1?-5b[5.2174##0.1863]/1?-5b[5.2174##0.1863]/1?-5b[5.2174##0.1863]/1?-5b[5.2174##0.1863]/1?-5b[5.2174##0.1863]/1?-5b[5.2174##0.1863]/1?-5b[5.2174##0.1863]/1?-5b[5.2174##0.1863]/1?-5b[5.2174##0.1863]/1?-5b[5.2174##0.1863]/1?-5b[5.2174##0.1863]/1?-5b[5.2174##0.1863]/1?-5b[5.2174##0.1863]/1?-5b[5.2174##0.1863]/1?-5b[5.2174##0.1863]/1?-5b[5.2174##0.1863]/1?-5b[5.2174##0.1863]/1?-5b[5.2174##0.1863]/1?-5b[5.2174##0.1863]/1?-5b[5.2174##0.1863]/1?-5b[5.2174##0.1863]/1?-5b[5.2174##0.1863]/1?-5b[5.2174##0.1863]/1?-5b[5.2174##0.1863]/1?-5b[5.2174##0.1863]/1?-5b[5.2174##0.1863]/1?-5b[5.2174##0.1863]/1?-5b[5.2174##0.1863]/1?-5b[5.2174##0.1863]/1?-5b[5.2174##0.1863]/1?-5b[5.2174##0.1863]/1?-5b[5.2174##0.1863]/1?-5b[5.2174##0.1863]/1?-5b[5.2174##0.1863]/1?-5b[5.2174##0.1863]/1?-5b[5.2174##0.1863]/1?-5b[5.2174##0.1863]/1?-5b[5.2174##0.1863]/1?-5b[5.2174##0.1863]/1?-5b[5.2174##0.1863]/1?-5b[5.2174##0.1863]/1?-5b[5.2174##0.1863]/1?-5b[5.2174##0.1863]/1?-5b[5.2174##0.1863]/1?-5b[5.2174##0.1863]/1?-5b[5.2174##0.1863]/1?-5b[5.2174##0.1863]/1?-5b[5.2174##0.1863]/1?-5b[5.2174##0.1863]/1?-5b[5.2174##0.1863]/1?-5b[5.2174##0.1863]/1?-5b[5.2174##0.1863]/1?-5b[5.2174##0.1863]/1?-5b[5.2174##0.1863]/1?-5b[5.2174##0.1863]/1?-5b[5.2174##0.1863]/1?-5b[5.2174##0.1863]/1?-5b[5.2174##0.1863]/1?-5b[5.2174##0.1863]/1?-5b[5.2174##0.1863]/1?-5b[5.2174##0.1863]/1?-5b[5.2174##0.1863]/1?-5b[5.2174##0.1863]/1?-5b[5.2174##0.1863]/1?-5b[5.2174##0.1863]/1?-5b[5.2174##0.1863]/1?-5b[5.2174##0.1863]/1?-5b[5.2174##0.1863]/1?-5b[5.2174##0.1863]/1?-5b[5.2174##0.1863]/1?-5b[5.2174##0.1863]/1?-5b[5.2174##0.1863]/1?-5b[5.2174##0.1863]/1?-5b[5.2174##0.1863]/1?-5b[5.2174##0.1863]/1?-5b[5.2174##0.1863]/1?-5b[5.2174##0.1863]/1?-5b[5.2174##0.1863]/1?-5b[5.2174##0.1863]/1?-5b[5.2174##0.1863]/1?-5b[5.2174##0.1863]/1?-5b[5.2174##0.1863]/1?-5b[5.2174##0.1863]/1?-5b[5.2174##0.1863]/1?-5b[5.2174##0.1863]/1?-5b[5.2174##0.1863]/1?-5b[5.2174##0.1863]/1?-5b[5.2174##0.1863]/1?-5b[5.2174##0.1863]/1?-5b[5.2174##0.1863]/1?-5b[5.2174##0.1863]/1?-5b[5.2174##0.1863]/1?-5b[5.2174##0.1863]/1?-5b[5.2174##0.1863]/1?-5b[5.2174##0.1863]/1?-5b[5.2174##0.1863]/1?-5b[5.2174##0.1863]/1?-5b[5.2174##0.1863]/1?-5b[5.2174##0.1863]/1?-5b[5.2174##0.1863]/1?-5b[5.2174##0.1863]/1?-5b[5.2174##0.1863]/1?-5b[5.2174##0.1863]/1?-5b[5.2174##0.1863]/1?-5b[5.2174##0.1863]/1?-5b[5.2174##0.1863]/1?-5b[5.2174##0.1863]/1?-5b[5.2174##0.1863]/1?-5b[5.2174##0.1863]/1?-5b[5.2174##0.1863]/1?-5b[5.2174##0.1863]/1?-5b[5.2174##0.1863]/1?-5b[5.2174##0.1863]/1?-5b[5.2174##0.1863]/1?-5b[5.2174##0.1863]/1?-5b[5.2174##0.1863]/1?-5b[5.2174##0.1863]/1?-5b[5.2174##0.1863]/1?-5b[5.2174##0.1863]/1?-5b[5.2174##0.1863]/1?-5b[5.2174##0.1863]/1?-5b[5.2174##0.1863]/1?-5b[5.2174##0.1863]/1?-5b[5.2174##0.1863]/1?-5b[5.2174##0.1863]/1?-5b[5.2174##0.1863]/1?-5b[5.2174##0.1863]/1?-5b[5.2174##0.1863]/1?-5b[5.2174##0.1863]/1?-5b[5.2174##0.1863]/1?-5b[5.2174##0.1863]/1?-5b[5.2174##0.1863]/1?-5b[5.2174##0.1863]/1?-5b[5.2174##0.1863]/1?-5b[5.2174##0.1863]/1?-5b[5.2174##0.1863]/1?-5b[5.2174##0.1863]/1?-5b[5.2174##0.1863]/1?-5b[5.2174##0.1863]/1?-5b[5.2174##0.1863]/1?-5b[5.2174##0.1863]/1?-5b[5.2174##0.1863]/1?-5b[5.2174##0.1863]/1?-5b[5.2174##0.1863]/1?-5b[5.2174##0.1863]/1?-5b[5.2174##0.1863]/1?-5b[5.2174##0.1863]/1?-5b[5.2174##0.1863]/1?-5b[5.2174##0.1863]/1?-5b[5.2174##0.1863]/1?-5b[5.2174##0.1863]/1?-5b[5.2174##0.1863]/1?-5b[5.2174##0.1863]/1?-5b[5.2174##0.1863]/1?-5b[5.2174##0.1863]/1?-5b[5.2174##0.1863]/1?-5b[5.2174##0.1863]/1?-5b[5.2174##0.1863]/1?-5b[5.2174##0.1863]/1?-5b[5.2174##0.1863]/1?-5b[5.2174##0.1863]/1?-5b[5.2174##0.1863]/1?-5b[5.2174##0.1863]/1?-5b[5.2174##0.1863]/1?-5b[5.2174##0.1863]/1?-5b[5.2174##0.1863]/1?-5b[5.2174##0.1863]/1?-5b[5.2174##0.1863]/1?-5b[5.2174##0.1863]/1?-5b[5.2174##0.1863]/1?-5b[5.2174##0.1863]/1?-5b[5.2174##0.1863]/1?-5b[5.2174##0.1863]/1?-5b[5.2174##0.1863]/1?-5b[5.2174##0.1863]/1?-5b[5.2174##0.1863]/1?-5b[5.2174##0.1863]/1?-5b[5.2174##0.1863]/1?-5b[5.2174##0.1863]/1?-5b[5.2174##0.1863]/1?-5b[5.2174##0.1863]/1?-5b[5.2174##0.1863]/1?-5b[5.2174##0.1863]/1?-5b[5.2174##0.1863]/1?-5b[5.2174##0.1863]/1?-5b[5.2174##0.1863]/1?-5b[5.2174##0.1863]/1?-5b[5.2174##0.1863]/1?-5b[5.2174##0.1863]/1?-5b[5.2174##0.1863]/1?-5b[5.2174##0.1863]/1?-5b[5.2174##0.1863]/1?-5b[5.2174##0.1863]/1?-5b[5.2174##0.1863]/1?-5b[5.2174##0.1863]/1?-5b[5.2174##0.1863]/1?-5b[5.2174##0.1863]/1?-5b[5.2174##0.1863]/1?-5b[5.2174##0.1863]/1?-5b[5.2174##0.1863]/1?-5b[5.2174##0.1863]/1?-5b[5.2174##0.1863]/1?-5b[5.2174##0.1863]/1?-5b[5.2174##0.1863]/1?-5b[5.2174##0.1863]/1?-5b[5.2174##0.1863]/1?-5b[5.2174##0.1863]/1?-5b[5.2174##0.1863]/1?-5b[5.2174##0.1863]/1?-5b[5.2174##0.1863]/1?-5b[5.2174##0.1863]/1?-5b[5.2174##0.1863]/1?-5b[5.2174##0.1863]/1?-5b[5.2174##0.1863]/1?-5b[5.2174##0.1863]/1?-5b[5.2174##0.1863]/1?-5b[5.2174##0.1863]/1?-5b[5.2174##0.1863]/1?-5b[5.2174##0.1863]/1?-5b[5.2174##0.1863]/1?-5b[5.2174##0.1863]/1?-5b[5.2174##0.1863]/1?-5b[5.2174##0.1863]/1?-5b[5.2174##0.1863]/1?-5b[5.2174##0.1863]/1?-5b[5.2174##0.1863]/1?-5b[5.2174##0.1863]/1?-5b[5.2174##0.1863]/1?-5b[5.2174##0.1863]/1?-5b[5.2174##0.1863]/1?-5b[5.2174##0.1863]/1?-5b[5.2174##0.1863]/1?-5b[5.2174##0.1863]/1?-5b[5.2174##0.1863]/1?-5b[5.2174##0.1863]/1?-5b[5.2174##0.1863]/1?-5b[5.2174##0.1863]/1?-5b[5.2174##0.1863]/1?-5b[5.2174##0.1863]/1?-5b[5.2174##0.1863]/1?-5b[5.2174##0.1863]/1?-5b[5.2174##0.1863]/1?-5b[5.2174##0.1863]/1?-5b[5.2174##0.1863]/1?-5b[5.2174##0.1863]/1?-5b[5.2174##0.1863]/1?-5b[5.2174##0.1863]/1?-5b[5.2174##0.1863]/1?-5b[5.2174##0.1863]/1?-5b[5.2174##0.1863]/1?-5b[5.2174##0.1863]/1?-5b[5.2174##0.1863]/1?-5b[5.2174##0.1863]/1?-5b[5.2174##0.1863]/1?-5b[5.2174##0.1863]/1?-5b[5.2174##0.1863]/1?-5b[5.2174##0.1863]/1?-5b[5.2174##0.1863]/1?-5b[5.2174##0.1863]/1?-5b[5.2174##0.1863]/1?-5b[5.2174##0.1863]/1?-5b[5.2174##0.1863]/1?-5b[5.2174##0.1863]/1?-5b[5.2174##0.1863]/1?-5b[5.2174##0.1863]/1?-5b[5.2174##0.1863]/1?-5b[5.2174##0.1863]/1?-5b[5.2174##0.1863]/1?-5b[5.2174##0.1863]/1?-5b[5.2174##0.1863]/1?-5b[5.2174##0.1863]/1?-5b[5.2174##0.1863]/1?-5b[5.2174##0.1863]/1?-5b[5.2174##0.1863]/1?-5b[5.2174##0.1863]/1?-5b[5.2174##0.1863]/1?-5b[5.2174##0.1863]/1?-5b[5.2174##0.1863]/1?-5b[5.2174##0.1863]/1?-5b[5.2174##0.1863]/1?-5b[5.2174##0.1863]/1?-5b[5.2174##0.1863]/1?-5b[5.2174##0.1863]/1?-5b[5.2174##0.1863]/1?-5b[5.2174##0.1863]/1?-5b[5.2174##0.1863]/1?-5b[5.2174##0.1863]/1?-5b[5.2174##0.1863]/1?-5b[5.2174##0.1863]/1?-5b[5.2174##0.1863]/1?-5b[5.2174##0.1863]/1?-5b[5.2174##0.1863]/1?-5b[5.2174##0.1863]/1?-5b[5.2174##0.1863]/1?-5b[5.2174##0.1863]/1?-5b[5.2174##0.1863]/1?-5b[5.2174##0.1863]/1?-5b[5.2174##0.1863]/1?-5b[5.2174##0.1863]/1?-5b[5.2174##0.1863]/1?-5b[5.2174##0.1863]/1?-5b[5.2174##0.1863]/1?-5b[5.2174##0.1863]/1?-5b[5.2174##0.1863]/1?-5b[5.2174##0.1863]/1?-5b[5.2174##0.1863]/1?-5b[5.2174##0.1863]/1?-5b[5.2174##0.1863]/1?-5b[5.2174##0.1863]/1?-5b[5.2174##0.1863]/1?-5b[5.2174##0.1863]/1?-5b[5.2174##0.1863]/1?-5b[5.2174##0.1863]/1?-5b[5.2174##0.1863]/1?-5b[5.2174##0.1863]/1?-5b[5.2174##0.1863]/1?-5b[5.2174##0.1863]/1?-5b[5.2174##0.1863]/1?-5b[5.2174##0.1863]/1?-5b[5.2174##0.1863]/1?-5b[5.2174##0.1863]/1?-5b[5.2174##0.1863]/1?-5b[5.2174##0.1863]/1?-5b[5.2174##0.1863]/1?-5b[5.2174##0.1863]/1?-5b[5.2174##0.1863]/1?-5b[5.2174##0.1863]/1?-5b[5.2174##0.1863]/1?-5b[5.2174##0.1863]/1?-5b[5.2174##0.1863]/1?-5b[5.2174##0.1863]/1?-5b[5.2174##0.1863]/1?-5b[5.2174##0.1863]/1?-5b[5.2174##0.1863]/1?-5b[5.2174##0.1863]/1?-5b[5.2174##0.1863]/1?-5b[5.2174##0.1863]/1?-5b[5.2174##0.1863]/1?-5b[5.2174##0.1863]/1?-5b[5.2174##0.1863]/1?-5b[5.2174##0.1863]/1?-5b[5.2174##0.1863]/1?-5b[5.2174##0.1863]/1?-5b[5.2174##0.1863]/1?-5b[5.2174##0.1863]/1?-5b[5.2174##0.1863]/1?-5b[5.2174##0.1863]/1?-5b[5.2174##0.1863]/1?-5b[5.2174##0.1863]/1?-5b[5.2174##0.1863]/1?-5b[5.2174##0.1863]/1?-5b[5.2174##0.1863]/1?-5b[5.2174##0.1863]/1?-5b[5.2174##0.1863]/1?-5b[5.2174##0.1863]/1?-5b[5.2174##0.1863]/1?-5b[5.2174##0.1863]/1?-5b[5.2174##0.1863]/1?-5b[5.2174##0.1863]/1?-5b[5.2174##0.1863]/1?-5b[5.2174##0.1863]/1?-5b[5.2174##0.1863]/1?-5b[5.2174##0.1863]/1?-5b[5.2174##0.1863]/1?-5b[5.2174##0.1863]/1?-5b[5.2174##0.1863]/1?-5b[5.2174##0.1863]/1?-5b[5.2174##0.1863]/1?-5b[5.2174##0.1863]/1?-5b[5.2174##0.1863]/1?-5b[5.2174##0.1863]/1?-5b[5.2174##0.1863]/1?-5b[5.2174##0.1863]/1?-5b[5.2174##0.1863]/1?-5b[5.2174##0.1863]/1?-5b[5.2174##0.1863]/1?-5b[5.2174##0.1863]/1?-5b[5.2174##0.1863]/1?-5b[5.2174##0.1863]/1?-5b[5.2174##0.1863]/1?-5b[5.2174##0.1863]/1?-5b[5.2174##0.1863]/1?-5b[5.2174##0.1863]/1?-5b[5.2174##0.1863]/1?-5b[5.2174##0.1863]/1?-5b[5.2174##0.1863]/1?-5b[5.2174##0.1863]/1?-5b[5.2174##0.1863]/1?-5b[5.2174##0.1863]/1?-5b[5.2174##0.1863]/1?-5b[5.2174##0.1863]/1?-5b[5.2174##0.1863]/1?-5b[5.2174##0.1863]/1?-5b[5.2174##0.1863]/1?-5b[5.2174##0.1863]/1?-5b[5.2174##0.1863]/1?-5b[5.2174##0.1863]/1?-5b[5.2174##0.1863]/1?-5b[5.2174##0.1863]/1?-5b[5.2174##0.1863]/1?-5b[5.2174##0.1863]/1?-5b[5.2174##0.1863]/1?-5b[5.2174##0.1863]/1?-5b[5.2174##0.1863]/1?-5b[5.2174##0.1863]/1?-5b[5.2174##0.1863]/1?-5b[5.2174##0.1863]/1?-5b[5.2174##0.1863]/1?-5b[5.2174##0.1863]/1?-5b[5.2174##0.1863]/1?-5b[5.2174##0.1863]/1?-5b[5.2174##0.1863]/1?-5b[5.2174##0.1863]/1?-5b[5.2174##0.1863]/1?-5b[5.2174##0.1863]/1?-5b[5.2174##0.1863]/1?-5b[5.2174##0.1863]/1?-5b[5.2174##0.1863]/1?-5b[5.2174##0.1863]/1?-5b[5.2174##0.1863]/1?-5b[5.2174##0.1863]/1?-5b[5.2174##0.1863]/1?-5b[5.2174##0.1863]/1?-5b[5.2174##0.1863]/1?-5b[5.2174##0.1863]/1?-5b[5.2174##0.1863]/1?-5b[5.2174##0.1863]/1?-5b[5.2174##0.1863]/1?-5b[5.2174##0.1863]/1?-5b[5.2174##0.1863]/1?-5b[5.2174##0.1863]/1?-5b[5.2174##0.1863]/1?-5b[5.2174##0.1863]/1?-5b[5.2174##0.1863]/1?-5b[5.2174##0.1863]/1?-5b[5.2174##0.1863]/1?-5b[5.2174##0.1863]/1?-5b[5.2174##0.1863]/1?-5b[5.2174##0.1863]/1?-5b[5.2174##0.1863]/1?-5b[5.2174##0.1863]/1?-5b[5.2174##0.1863]/1?-5b[5.2174##0.1863]/1?-5b[5.2174##0.1863]/1?-5b[5.2174##0.1863]/1?-5b[5.2174##0.1863]/1?-5b[5.2174##0.1863]/1?-5b[5.2174##0.1863]/1?-5b[5.2174##0.1863]/1?-5b[5.2174##0.1863]/1?-5b[5.2174##0.1863]/1?-5b[5.2174##0.1863]/1?-5b[5.2174##0.1863]/1?-5b[5.2174##0.1863]/1?-5b[5.2174##0.1863]/1?-5b[5.2174##0.1863]/1?-5b[5.2174##0.1863]/1?-5b[5.2174##0.1863]/1?-5b[5.2174##0.1863]/1?-5b[5.2174##0.1863]/1?-5b[5.2174##0.1863]/1?-5b[5.2174##0.1863]/1?-5b[5.2174##0.1863]/1?-5b[5.2174##0.1863]/1?-5b[5.2174##0.1863]/1?-5b[5.2174##0.1863]/1?-5b[5.2174##0.1863]/1?-5b[5.2174##0.1863]/1?-5b[5.2174##0.1863]/1?-5b[5.2174##0.1863]/1?-5b[5.2174##0.1863]/1?-5b[5.2174##0.1863]/1?-5b[5.2174##0.1863]/1?-5b[5.2174##0.1863]/1?-5b[5.2174##0.1863]/1?-5b[5.2174##0.1863]/1?-5b[5.2174##0.1863]/1?-5b[5.2174##0.1863]/1?-5b[5.2174##0.1863]/1?-5b[5.2174##0.1863]/1?-5b[5.2174##0.1863]/1?-5b[5.2174##0.1863]/1?-5b[5.2174##0.1863]/1?-5b[5.2174##0.1863]/1?-5b[5.2174##0.1863]/1?-5b[5.2174##0.1863]/1?-5b[5.2174##0.1863]/1?-5b[5.2174##0.1863]/1?-5b[5.2174##0.1863]/1?-5b[5.2174##0.1863]/1?-5b[5.2174##0.1863]/1?-5b[5.2174##0.1863]/1?-5b[5.2174##0.1863]/1?-5b[5.2174##0.1863]/1?-5b[5.2174##0.1863]/1?-5b[5.2174##0.1863]/1?-5b[5.2174##0.1863]/1?-5b[5.2174##0.1863]/1?-5b[5.2174##0.1863]/1?-5b[5.2174##0.1863]/1?-5b[5.2174##0.1863]/1?-5b[5.2174##0.1863]/1?-5b[5.2174##0.1863]/1?-5b[5.2174##0.1863]/1?-5b[5.2174##0.1863]/1?-5b[5.2174##0.1863]/1?-5b[5.2174##0.1863]/1?-5b[5.2174##0.1863]/1?-5b[5.2174##0.1863]/1?-5b[5.2174##0.1863]/1?-5b[5.2174##0.1863]/1?-5b[5.2174##0.1863]/1?-5b[5.2174##0.1863]/1?-5b[5.2174##0.1863]/1?-5b[5.2174##0.1863]/1?-5b[5.2174##0.1863]/1?-5b[5.2174##0.1863]/1?-5b[5.2174##0.1863]/1?-5b[5.2174##0.1863]/1?-5b[5.2174##0.1863]/1?-5b[5.2174##0.1863]/1?-5b[5.2174##0.1863]/1?-5b[5.2174##0.1863]/1?-5b[5.2174##0.1863]/1?-5b[5.2174##0.1863]/1?-5b[5.2174##0.1863]/1?-5b[5.2174##0.1863]/1?-5b[5.2174##0.1863]/1?-5b[5.2174##0.1863]/1?-5b[5.2174##0.1863]/1?-5b[5.2174##0.1863]/1?-5b[5.2174##0.1863]/1?-5b[5.2174##0.1863]/1?-5b[5.2174##0.1863]/1?-5b[5.2174##0.1863]/1?-5b[5.2174##0.1863]/1?-5b[5.2174##0.1863]/1?-5b[5.2174##0.1863]/1?-5b[5.2174##0.1863]/1?-5b[5.2174##0.1863]/1?-5b[5.2174##0.1863]/1?-5b[5.2174##0.1863]/1?-5b[5.2174##0.1863]/1?-5b[5.2174##0.1863]/1?-5b[5.2174##0.1863]/1?-5b[5.2174##0.1863]/1?-5b[5.2174##0.1863]/1?-5b[5.2174##0.1863]/1?-5b[5.2174##0.1863]/1?-5b[5.2174##0.1863]/1?-5b[5.2174##0.1863]/1?-5b[5.2174##0.1863]/1?-5b[5.2174##0.1863]/1?-5b[5.2174##0.1863]/1?-5b[5.2174##0.1863]/1?-5b[5.2174##0.1863]/1?-5b[5.2174##0.1863]/1?-5b[5.2174##0.1863]/1?-5b[5.2174##0.1863]/1?-5b[5.2174##0.1863]/1?-5b[5.2174##0.1863]/1?-5b[5.2174##0.1863]/1?-5b[5.2174##0.1863]/1?-5b[5.2174##0.1863]/1?-5b[5.2174##0.1863]/1?-5b[5.2174##0.1863]/1?-5b[5.2174##0.1863]/1?-5b[5.2174##0.1863]/1?-5b[5.2174##0.1863]/1?-5b[5.2174##0.1863]/1?-5b[5.2174##0.1863]/1?-5b[5.2174##0.1863]/1?-5b[5.2174##0.1863]/1?-5b[5.2174##0.1863]/1?-5b[5.2174##0.1863]/1?-5b[5.2174##0.1863]/1?-5b[5.2174##0.1863]/1?-5b[5.2174##0.1863]/1?-5b[5.2174##0.1863]/1?-5b[5.2174##0.1863]/1?-5b[5.2174##0.1863]/1?-5b[5.2174##0.1863]/1?-5b[5.2174##0.1863]/1?-5b[5.2174##0.1863]/1?-5b[5.2174##0.1863]/1?-5b[5.2174##0.1863]/1?-5b[5.2174##0.1863]/1?-5b[5.2174##0.1863]/1?-5b[5.2174##0.1863]/1?-5b[5.2174##0.1863]/1?-5b[5.2174##0.1863]/1?-5b[5.2174##0.1863]/1?-5b[5.2174##0.1863]/1?-5b[5.2174##0.1863]/1?-5b[5.2174##0.1863]/1?-5b[5.2174##0.1863]/1?-5b[5.2174##0.1863]/1?-5b[5.2174##0.1863]/1?-5b[5.2174##0.1863]/1?-5b[5.2174##0.1863]/1?-5b[5.2174##0.1863]/1?-5b[5.2174##0.1863]/1?-5b[5.2174##0.1863]/1?-5b[5.2174##0.1863]/1?-5b[5.2174##0.1863]/1?-5b[5.2174##0.1863]/1?-5b[5.2174##0.1863]/1?-5b[5.2174##0.1863]/1?-5b[5.2174##0.1863]/1?-5b[5.2174##0.1863]/1?-5b[5.2174##0.1863]/1?-5b[5.2174##0.1863]/1?-5b[5.2174##0.1863]/1?-5b[5.2174##0.1863]/1?-5b[5.2174##0.1863]/1?-5b[5.2174##0.1863]/1?-5b[5.2174##0.1863]/1?-5b[5.2174##0.1863]/1?-5b[5.2174##0.1863]/1?-5b[5.2174##0.1863]/1?-5b[5.2174##0.1863]/1?-5b[5.2174##0.1863]/1?-5b[5.2174##0.1863]/1?-5b[5.2174##0.1863]/1?-5b[5.2174##0.1863]/1?-5b[5.2174##0.1863]/1?-5b[5.2174##0.1863]/1?-5b[5.2174##0.1863]/1?-5b[5.2174##0.1863]/1?-5b[5.2174##0.1863]/1?-5b[5.2174##0.1863]/1?-5b[5.2174##0.1863]/1?-5b[5.2174##0.1863]/1?-5b[5.2174##0.1863]/1?-5b[5.2174##0.1863]/1?-5b[5.2174##0.1863]/1?-5b[5.2174##0.1863]/1?-5b[5.2174##0.1863]/1?-5b[5.2174##0.1863]/1?-5b[5.2174##0.1863]/1?-5b[5.2174##0.1863]/1?-5b[5.2174##0.1863]/1?-5b[5.2174##0.1863]/1?-5b[5.2174##0.1863]/1?-5b[5.2174##0.1863]/1?-5b[5.2174##0.1863]/1?-5b[5.2174##0.1863]/1?-5b[5.2174##0.1863]/1?-5b[5.2174##0.1863]/1?-5b[5.2174##0.1863]/1?-5b[5.2174##0.1863]/1?-5b[5.2174##0.1863]/1?-5b[5.2174##0.1863]/1?-5b[5.2174##0.1863]/1?-5b[5.2174##0.1863]/1?-5b[5.2174##0.1863]/1?-5b[5.2174##0.1863]/1?-5b[5.2174##0.1863]/1?-5b[5.2174##0.1863]/1?-5b[5.2174##0.1863]/1?-5b[5.2174##0.1863]/1?-5b[5.2174##0.1863]/1?-5b[5.2174##0.1863]/1?-5b[5.2174##0.1863]/1?-5b[5.2174##0.1863]/1?-5b[5.2174##0.1863]/1?-5b[5.2174##0.1863]/1?-5b[5.2174##0.1863]/1?-5b[5.2174##0.1863]/1?-5b[5.2174##0.1863]/1?-5b[5.2174##0.1863]/1?-5b[5.2174##0.1863]/1?-5b[5.2174##0.1863]/1?-5b[5.2174##0.1863]/1?-5b[5.2174##0.1863]/1?-5b[5.2174##0.1863]/1?-5b[5.2174##0.1863]/1?-5b[5.2174##0.1863]/1?-5b[5.2174##0.1863]/1?-5b[5.2174##0.1863]/1?-5b[5.2174##0.1863]/1?-5b[5.2174##0.1863]/1?-5b[5.2174##0.1863]/1?-5b[5.2174##0.1863]/1?-5b[5.2174##0.1863]/1?-5b[5.2174##0.1863]/1?-5b[5.2174##0.1863]/1?-5b[5.2174##0.1863]/1?-5b[5.2174##0.1863]/1?-5b[5.2174##0.1863]/1?-5b[5.2174##0.1863],{16},,,,,,,,,,,,,,,3h[16:37]/4h[16:37]/6h[16:37]/7h[16:37],
{1},,{4},1b,
{16},,6,5,(162.8148)6,5,(164.6296){24}7,6,7,(166.4444){12}6,{24}8,(168.2593),{12}7,(170.0741){48}8,,,1,{96},{32}8,(171.8889)1,8,1,8,
(173.7037){8}2,(175.5185)3,(177.3333){48}2,4,3,4,3,4,(179.1481)3,4,3,4,3,4,(180.963){24}4,5,4,(182.7778)5,4,5,(184.5926){16}6,5,(186.4074)6,5,
(188.2222){24}6,4,7,(190.037)6,{48}7,{192}5,,,6,,,{32}4,(191.8519){24}5,2,8,(193.6667)1,{48}4,2,{96},{32}3,(195.4815)2,6,4,7,(197.2963)5,8,{16}1,(199.1111)6,5,(200.9259){64}6,3,5,2,4,2,8,3,
(202.7407){128}7,1,8,1,8,1,8,1,8,1,8,1,8,1,8,1,(204.5556)8,1,8,1,8,1,8,1,8,1,8,1,8,1,8,1,(206.3704)8,1,8,1,8,1,8,1,8,1,8,1,8,1,8,1,(208.1852)8,1,8,1,8,1,8,1,8,1,8,1,8,1,8,1,(210){4}1,1b,
6/2-4-1-5-8[2:1],{8}8/A2f,8/A4f,8/A1f,8/A5f,{4}8/A8f,
{16}6,5,6,7,6-8[8:1],5,6-4[8:1],7,{8}6-2[8:1],6,{4}6,
3/7-5-8-4-1[2:1],{8}1/A7f,1/A5f,1/A8f,1/A4f,{4}1/A1f,
{16}3,4,3,2,3-1[8:1],4,3-5[8:1],2,3-7[8:1],3,3,3,{4}3,
6qq1[0.2857##0.5714]/4pp1[0.2857##0.5714]/1-5-1-5-1b[0.2857##0.5714],{8}A1f,A5f,A1f,A5f,{4}A1f,
{24}8/1,7/2,6/3,5/4,6/3,7/2,8/1,7/2,6/3,5/4,6/3,7/2,{8}8-3V51[8:1]/1-6V48[8:1],7/2,{4}8/1,
2qq5[0.2857##0.5714]/8pp5[0.2857##0.5714]/5-1-5-1-5b[0.2857##0.5714],{8}A5f,A1f,A5f,A1f,{4}A5f,
{48}6,5,4,3,4,5,6,5,4,3,4,5,6,5,4,3,4,5,6,5,4,3,4,5,6,5,4,3,4,5,6,5,4,3,4,5,{4}6,
{8}4b/4b,{16}6/6,5/5,{8}6/6,{16}3/3,5/5,3/3,4/4,6/6,5/5,4/4,5/5,3/3,6/6,
7/8/7/8,2/1/2/1,7/8/7/8,2/1/2/1,{8}7/8/7/8,{16}3/3,6/6,4/4,5/5,4/4,3/3,{8}5/5,{16}3/3,4/4,
5/5,6/6,{8}5/5,3/3,{16}5/5,4/4,{8}6h[8:1]/6h[8:1],5h[8:1]/5h[8:1],4h[8:1]/4h[8:1],{16}3/3,5/5,
4/4,5/5,6/6,3/3,{8}4/4,{16}5/5,6/6,{8}3h[8:1]/3h[8:1],4h[8:1]/4h[8:1],5h[8:1]/5h[8:1],{16}6/6,3/3,
{8}4/4,{16}4/4,5/5,{8}6/6,{16}6/6,5/5,3/3,4/4,5/5,6/6,{8}5/5,{16}6/6,3/3,
7/8/7/8,2/1/2/1,7/8/7/8,2/1/2/1,{8}7/8/7/8,{16}6/6,5/5,4/4,5/5,4/4,3/3,{8}4/4,{16}3/3,5/5,
4/4,5/5,6/6,5/5,{8}4/4,{16}5/5,4/4,3/3,4/4,5/5,6/6,5/5,4/4,{8}3/3,
{32}6/4/4/4/E6f,B6,B7,E8,,,,,3/5/5/5/E4f,B3,B2,E2,{64},,,,,,,,1,2,3,4,5,6,7,8,1,2,3,4,5,6,7,8,{4}1b,
{16}6,5,6,5,{8}6-1[8:1],6,3-8[8:1],3,7,7,
{64}7b/1h[8:1],D7f,6b,D6f,5b,D5f,4b,D4f,{8}3b,{64}2b/8h[8:1],D3f,3b,D4f,4b,D5f,5b,D6f,{8}6b,{64}7b/1h[8:1],D7f,6b,D6f,5b,D5f,4b,D4f,{8}3b,{32}8b/1b,7b/2b,6b/3b,5b/4b,,,,,{16}3,
4,3,4,{8}3-8[8:1],3,6-1[8:1],6,2,2,
{64}8b,7,6,5,{16}2,{64}8b,7,6,5,{16}2,{64}8b,7,6,5,{16}2,{64}8b,7,6,5,{16}2,{64}8b,7b,6b,5b,8b,7b,6b,5b,8b,7b,6b,5b,8b,7b,6b,5b,,,,,,,,,,,,,,,,,{16}4/3,
2/1,{8}5/4,1/2,1/2,{16}5/6,7/8,{8}4/5,8/7,8/7,
{16}2/3,6/5,3/4,7/6,2/3,6/5,3/4,7/6,1/2,8/7,3/4,7/6,2/3,6/5,4/3,6/7,
2/3/4,8/7/6,{8}3/4/5,8,8,{16}7/6/5,1/2/3,{8}6/5/4,1,1,
{16}8,1,8,1/2,8,1/2/3,8,1/2/3/4,8,1/2/3/4/5,8,1/2/3/4/5/6,8,1/2/3/4/5/6/7,8,1/3/2/4/5/6/7/8,
{1}8b,
E
