&title=Shiawase (VIP Short Ver.)
&artist=Dion Timmer
&first=0.11
&des=speckles wave
&lv_5=14
&inote_5={4}(150)5p4>4[4:7],{1},{2},{4}4q5<5[1:2],
{1},{4},,,5p4>8>4[1:2],
{1},{4},,
,4V68v1-3[4:7],
{1},{4},C,
{16}B7,B6,{8}B5,{4}C,
5b/2b,5/B2,{8}6/E4,D3,6/E4,B2,
5/E2,E4,6/B3,B2,6/E4,B3,6/B2,E2,
{4}7b/C,3,{8}3,6,{4}3,
4,{8}3,6,{16}5,4,5,4,{8}7,7,
{16}2/6,{8},{16}5/3,{8},7/1,7,2,6,3,
5,4,7,8,6,8/7,{4}7/8,
{16}5b/2b,{8},{16}2/5,{8},2/5,2,8,3,7,
{16}4/5,{8},{16}3/2,{8},6/7,{16}8,1,8,1,{8}6,3,
{4}7b/1,7,2/4,7,
6,3/4,6,6,
4b,4/5,6,6/5,
1,7/8,2,5/4,
1b/8b,{8}6/5,4,5/6,2,4/3,7,
4/3,5,7/8,2,7/8,5,1/2,3,
1/2,4/3,5/6,7/8,1/2,3/4,{16}5/6,4,3,2,
{4}1/Cf,{8}6h[8:1],3h[8:1],{16}7h[16:1],2h[16:1],7h[16:1],2h[16:1],6h[16:1],3h[16:1],{8},{4}2b-7[3.2##0.1],
{8}2bh[2:3]/6b-3[2.8##0.1],6bh[8:11],{1},{2},{4}6b/2b,
3/1-7[16:1],{8}1v4[8:1],4x-6[8:1],{4}1/3,
{8}1-4[8:1],4q1[8:1],{4}1/6,{8}8p4[8:1],4q1[8:1],{4}8/2,
{8}3b-7[8:1],7-4[8:1],3/6,1x,1-5[8:1],5v7[8:1],{4}1,
{8}4x>8[8:1],3,{16}4/6,B6,{8}C,,{16}1/B5,2/B6,{8}B7/3-8[16:1]*-7[16:1],3,
{4}3b<6[8:1],3,{8}8-5[8:1]*-3[8:1],1/7,{16}8,{8},{16}D3/D8,
B2/B8,{8},{16}E6/E4,{4}B6h[2:1]/B3h[2:1],{8},B2h[8:1]/B7h[8:1],{4}Cf,
{8}1b>4[8:1],6v1[8:1],{16}1,6,{8}6<1[8:1],2v5[8:1],6,{4}2,
{8}3-1[8:1],7v5[8:1],3,7V53[8:1],3>1[8:1],7,{4},{8}5b<8[8:1],
2v5[8:1],{16}5,2,{8}2>5[8:1],6v1[8:1],2,{4}6,
{8}7-5[8:1],3v1[8:1],7,3V17[8:1],7<5[8:1],3,{4},{8}1b-3[8:1],
3-5[8:1],{16}1/8V64[8:1],8,{8},{4}8v3[8:1],8/2v5[8:1],
{8}2/8s4[8:1],7,{16}8/1-5[8:1],2x,{8}3x,1/6>3[8:1],7,{4}6,
{16}1v4[8:1],2,{8}3,{4}1>5[8:1]/7qq5[8:1],7q7[8:1]/1q7[8:1],1/7,
3xh[4:1],{8}7h[4:1],2h[8:1],,4/5,{4}8h[8:1]/7h[8:1],
{1}3b/Cf,
