&title=UNDEAD
&artist=YOASOBI /『〈物語〉シリーズ オフ&モンスターシーズン』主題歌
&first=0.53
&seek=0.00
&wait=0.00
&des_1=音合わせ譜面
&des_5=じょーじ
&des_6=じゃんけんぽぽちゃん
&wholebpm=144
&demo_seek=59
&demo_len=14
&lv_1=音
&lv_5=13+
&lv_6=14
&inote_1=(144)
{4}
1,1,1,1,1,1,1,1,1,1,1,1,1,1,1,1,1,1,1,1,1,1,1,1,1,1,1,1,1,1,1,1,
1,1,1,1,1,1,1,1,1,1,1,1,1,1,1,1,1,1,1,1,1,1,1,1,1,1,1,1,1,1,1,1,
1,1,1,1,1,1,1,1,1,1,1,1,1,1,1,1,1,1,1,1,1,1,1,1,1,1,1,1,1,1,1,1,
1,1,1,1,1,1,1,1,1,1,1,1,1,1,1,1,1,1,1,1,1,1,1,1,1,1,1,1,1,1,1,1,
E
&inote_5=(144)
{8}3,
{8}2b-5[8:1]/5x,1bx,26,7,{16}5,6,,4h[8:1]/7h[8:1],,,56,,
{8}7bx-4[8:1]/4x,8bx,73,2,{16}4,3,,5h[8:1]/2h[8:1],,,43,,
{8}2bx-5[8:1]/5x,1bx,26,7,{16}5,6,,4h[8:1]/7h[8:1],,,56,,
{8}2-5[8:1],3,2/8-4[8:1],7,1bw5[8:1]b,,1b,,
{8}3x>8[8:1],4,6h[4:1],,{16}5x,,,45,,,3x/4x,,{8}2x^5[8:1],6,8h[4:1],,{16}1x,,2x/6x,2x/6x,,3,4,,
{16}4x/5x,,6,5x,,2,2,1x,,7,8,,4,5,4,,36,36,,2x/4x,,5x/7x,,1h[8:1]/2h[8:1],,,7h[16:1]/8h[16:1],,
1bx/8bx,,,,
{8}3b-5[8:1]/5b,6,7,8,{16}5,5,,46,,6,5,,
{8}8b-4[8:1]/4b,4,3,2,{16}1,1,,28,,2,1,,
{8}3b-8[8:1]/8b,4,5,6,{16}1,1,,28,,7,8,7,
{8}1b-3[8:1],24,8-4[8:1]b,5,7-5[8:1],5b,1b,3b,
{8}7b,56,4,57,{16}8,8,,1x/7x,,3,2x/4x,,6,5x/7x,,4,3x/5x,,7,7x/8x,,2,2x/1x,,
{16}6x,6,5,7,{24}1x,2x,3x,7x,6x,5x,2x,3x
,4x,8x,7x,6x,1x,2x,3x,6x,5x,4x,8x,1x,2x,6x,7x,8x,
{8}4hb[4:3],,,,
,3,5-1[8:1],7,8h[4:1],,6>8[4:1],,8x,,5h[4:2],,6,4,2V46[4:1],,6x>8[8:3],,7-3[8:1]b,,
,,
{8}1h[8:3],,3xqq5[4:1],5,7,,{16}6,6,5x,7h[8:1],,5,5h[8:1],,4,4h[8:1],,3,3,,8,,1x/7x,,,,
{8}5-3[8:1]/6,4,5pp4[4:1]/6x,,2,2,2h[4:1],1,7h[8:3],1,8hx[8:1],{16},78,,,
{8}34,2-8[8:1],1,6-4[8:1],5,2-6[8:1],3,7-4[8:1],8,2x-4-8-3[8:3],2,1,7,5h[4:1],,4xp8[8:1]*v7[8:1],,4bx,,
{16}5x,,2,2,4x,,6,6,4x,,3,3,5bx,,7,7,5x,,2,2,1x,,7,7,1x,,26,,
{8}
3-1[8:1]/5,4,7-5[8:1],8,3-7[8:1],4,6-1[8:1],6,2x-5-1-3[8:3],2,4,6,8x,,
4xp8[8:1]*v7[8:1],,4bx,,{16}3,4,3,,2x/5x,,1x/7x,1xh[8:1]/7xh[8:1],,,4x/6x,,3,3,1x,,7,7,1x,,5,,
4x/6x,6h[8:1]/4h[8:1],,,1x/7x,,
{8}24,3,45,6,5pp4[4:1]/7,6,1,2,3hx[4:2],,4,,5h[8:2],4,6,,
{8}1-6[8:1]/7h[4:2],,,,5-2[8:1],4h[8:7],,,7-3[8:1],,,,2-5[8:1],6h[8:3],2x,,
{8}5,5,64,64,35,53,26,62,1h[8:2]/7h[8:2],,{32},2x/6x,3x/5x,4x,{8},
{8}1q5[8:1]/2-5[8:1],,1^6[8:1]*-7^6[8:1]/2,,1b,,
{16}35,,3,4,2x,,7^4[8:1],8,,8,7,,3h[4:1],,2bx,,2bx-6[8:1],,,1,2,8,,7hx[8:1],,8,7,,
{8}1x-5[8:1]/6,25,1x/6x,7,2x-5[8:1]/5x,1x/7x,2x/6x,8,3x-5[8:1]/7x,1>7[4:1]b/5,3x,1x-5[8:1],,1b,,
{8}8,4-7[8:1]/7,1-5[8:1],34,1,6,{16}7x/8x,1x/6x,,3,4,,2-5[8:1],,5,,6>8[4:1],,7,,
{8}8bx-4[8:1]b,,,,
{16}56,,5,6>8[4:1],,47,,3x,,,,,5x-1[8:1],,6,,
{8}7x-4[8:1],,7x^2[8:1]/8x-3[8:1],,8x^5[8:1]/7x-4[8:1],,8xw4[8:1],,8bx,,
{8}2x-6-3-5[8:3]/6x,,6x,7,8<2[8:3],,4x>5[16:7],,8<5[16:3],,4x,,
{8}1,2,3xV14[4:1]b,,3/6xV85[4:1]b,,6x,,2,3,4x/8xz4[4:1]b,8,4,,1h[4:1],2b,2b,,
{8}7-4[8:1]/5,6,73,2,{16}3x/4x,,2-4-1-5[8:3],1,,1,2,,5,,6,,7<8[4:1],,{8}8,3hx[4:2],,
,,
{8}4-1[8:1],2-5[8:1],4x,2x,{16}6x,6x,,1hx[8:1]/7hx[8:1],,,2x/6x,,34,,65,65,,45,,
1h[8:1]/2h[8:1],,,7h[16:1]/8h[16:1],,1bx/6bx,,
,,
{8}
3b/4b-1[8:1],,45,8,5-8[8:1]/6,1,45,2x,3/4-1[8:1],8,45,7,5-8[8:1]/6,1x,1x-5[8:1],,1b/6b,,
5x/6x,1x,5-8[8:1]/6,1,45,2,3/4-1[8:1],8,45,7-4[8:1],6h[8:1]/5-1[8:1],7,5bx,,
{16}34,,1,,3<1[4:1]/5,,2,,1-5[8:1]b,,,,2,,4b,,3x,,1,,3<1[4:1]/5,,2,,1-5[8:1]b,,,,2,,4b,,
{16}3-5[8:1],3,,,{8}3/7-4[8:1],6x,{16}7/1x-5-7[16:3]*-5-3[16:3],1,,,{8},,8x^2[8:1]*v3[8:1],,8x-4-7-5[8:3],,
8x/3x,1b,1b,,
{1},,E
&inote_6=
(144)
{8}34,8b-4[8:1]/1b,56,1-6[8:1],2,5h[4:1],,4,
{8}65,1b-5[8:1]/8b,43,8-3[8:1],7,4h[4:1],,5,
{8}34,8b-4[8:1]/1b,56,1-6[8:1],2,5h[4:1],,4,
{24}7,6,5,{8}3x/4x,{24}12,3,4,{8}5x/6x,{24}71,6,5,{16}34,,
{24}2bx/8bx,3bx/7bx,4bx/6bx,5b,,,
{8}1,
{8}2x/4x,3,1/2-5[8:1],3,26,{16}7,7h[8:1],,8,7,,
{8}5x/7x,4,5x/6xpp5[4:1],{16}7,8,6x,,,3x,,,3xh[8:1],,
{16}8,2,4,1,7,5,1h[16:3],3h[8:1],,,45,,6h[16:1]/8h[16:1],,54,,
{16}3,4,1b,6,5b,8h[4:1],,2h[8:1]b,,,1b/7b,,2b/6b,,
{8}
3/4-1[8:1]b,8b-5-7[4:1]/1b,46,8,1x,{16}2,4x,3,8,4x,6,1-4[8:1]b,,
{8}3b/5b-8-6[4:1],1x/7x,5,3x,{16}2,1,3,5,1x,7,4x-1[8:1]b,,
{8}8b-5-7[4:1]/1b,46,8,1x,{16}2,4x,3,8,4x,6,1-4[8:1]b,,
{8}5b-1[8:1]/3b,1-6[8:1]b/8,5,2V41-5[8:3],4,2b,8b>6[4:1]b,6b,
{8}8x,,1,2x/8x,{16}2,1,,4x/8x,,6,5,7,3,4,2hx[8:1],,
{16}4,3,6x,5,8,8,1x,7,3,3,4x,2,
{24}5,6,7,8x/1x,2,3,5,6,7,1x/8x,2,3,46,7,8,1x/2x,3,4,
{24}7x-3[8:1]b,6,5,4x/1x,2,3,
{8}4hxb[4:2]/7b,,
,,{16}3,3,4x,,3/5x,,1x,1,3hx[4:1],,,,
{16}2,,6,6,7hx[8:1],,6,7,,,3,3,2-6[8:1],,6x,6,2x,,7,7hx[8:1],,6x,7x,2x,
{16}3x,,23,,1bx/4bx,,
{16}7hx[16:1],8hx[16:1],6hx[16:1],7h[16:1],5h[16:1],,3hx[16:1],4hx[16:1],2hx[16:1],3hx[16:1],1hx[16:1],,8,,
{16}3,5,3,1b,3,5,7b,5,3,1b,3,5,7b-5-8-4[8:3],5,3,,
{16}3bx/7x,,,,1x,,2,2,8x,,6,6,8x,,7,5,7x,3x,3x,5,1x,8,4,6,2x,2x,3x,2x,,7x,6x,,
{8}5x-1[8:1]/8x,67,5x/8x,6,4x-8[8:1]/1x,2x/3x,4x/1x,3-1[8:1]b,
{8}7x-5[8:1],3-8[8:1]b,7x-4[8:1],3x,7x,,
{24}1-5[8:1]b,1,1,1,1,1,1b,,,
,,,
{16}3x,5x,1bx,4,3,4,1b,5,4,5,8b,6,5,6,
{16}1b,5,3,5,8b,4,2,4,1b,5,3,5,8b,,
{8}6-1[8:1]b,7,2-5[8:1],3,6^1[8:1]b,7,2^5[8:1],3,1x^6[8:1],8,2x^5[8:1]b,3x,8hx[4:1],,
{8}6-1[8:1]b,,6b/5b,,{16}3^1-5^7[8:3],4,3,,3h[4:1],,,,
,,4h[8:1],,8bx^6[8:1],,1x,2,3x^1[8:1]/8x,4,5,,
{16}3x/6x,,4,4h[8:1],,,78,,
{8}3/4-8[8:1],12,34,1,5-1[8:1]/6,7/8-4[8:1],56,8,3hx[4:1],,5h[8:3],,6^3[8:1],4hx[8:6],,,
{8}5hb[8:6],,,,
3x,4h[8:6],,{16}7,6,{8}5h[8:3],,,,
45,{24}1,8,1,8,1,8,1,,,
{16}7x,4,5,2x,5,4,7x,5,6,5,8x,4,6,4,1h[4:1],,7h[4:1],,,,
{48}1b,8b,7b,6b,,,{8},
{32}1bx,2,3,4,5,6,7,8,1x-5[8:1]b/6bx,5,4,3,2,1,8,7,
{8}1b/6b,,
{16}7-4[8:1]/8,,6,5,7x,,3,3h[8:1],,4x,3x,,2-6[8:1]/5,,1b/6b,,7hb[16:3]/2x,,,8>6[4:1],7,1,,8bx/3bx,,,
{8}1x,8x-4[8:1],7-5[8:1]b,8b/6x,7b,2-4[8:1],1-5[8:1]b,2b/8x,1b,8x-3[8:1],4>4[4:1]b,8b/7x,4bx-8[8:1],,2b-5[8:1],,
{8}2x/1x,7-4-8-6[8:3],6,1x,2,3hx[4:1],,4x,4x/5x,{16}6,6,5,,
{8}7/8>6qq1[4:2],16,3bx,,{16},,2x,,2hx[16:2],,1x,2V41-5[8:3],8,1x,,
{16}2/6hx[8:1],,,6,,7x,,{24}8,7,6,4hb[8:1]/5x,,,1,8,7,6hx[8:1]/5b,,,8,1,2,4hb[8:1]/3x,,,2,3,4,5x/6bx,7,8,1x/2bx,3,4,
{8}7h[8:1]/5bx,
{16}3,4,2,,6,6,5x,,7-4[8:1],8,,8,7x,,{8}3,1x/5x,3-7[8:1]/4-8[8:1],1x/5x,3x/4x,,{16}1-5[8:1],8x,2,,
{8}1/3-8[8:1],4,3/5-2[8:1],6,7-4[8:1]/5,7,7/1-7[8:1]b,2-6[8:1],1bx-5[8:1]b,2x-4[8:1],1>1[16:4]b,2,1-5[8:1],,
{8}3x-8[8:1],,3x/4x,6,53,2,34,{16}2^5[8:1],1,,1,2x,,6,,7,,{8}5-2-4-8[8:3]/6,4,5/7,{16}6,6h[16:2],,,6,,
{16}35,,2,,18,,7,,64,64,,2h[8:1]/4h[8:1],,,78,,
{16}3,4,1b,6,5b,8h[4:1],,2h[8:1]b,,,1b/7b,,2b/6b,,,,
{24}3b^6[8:1]/4b,,,8,1,2,3x/1x,,,
2,,,
{24}3^6[8:1],,,8,1,2,3x/1x,,,
2,,,
{24}3^6[8:1],,,8,1,2,3x/1x,,,
2,,,
{24}3^6[8:1],,,8,1,2,3x/8x,1,2,3,,,
{24}6bx^3[8:1]/3xb,,,1,8,7,8x/6x,,,
7,,,
{24}6^3[8:1],,,1,8,7,6x/8x,,,
7,,,
{24}6^3[8:1],,,1,8,7,6x/8x,,,
7,,,
{24}6^3[8:1],,,1,8,7,6/8b-4[8:1]b,,,
,,,
{8}3x-8[8:1],2,4,5,{16}6,4x,
6,2,4x-8[8:1]b,2,6,,
{8}7x-4[8:1],6,8,1,{16}2,4x,2,6,4x,6,1hx[8:1],,6x,6,5,7,2x,2,1,3,
{32}1x,8,7,6,1x,8,7,6,1x,2,3,4,1x,2,3,4,
{16}8-5[8:1],8-3[8:1],,,8x,8x,,,6h[4:1],,1x,,1x,,,,
{4},,,,
,,,,E
