&title=1BPM
&artist=DJ Myosuke
&first=-0.13
&des=MWHxmj
&lv_7=1?
&inote_7=(256){1},
{8}1bx-5[1#2048:1]/3x,,,,,7hx[4:7]/8hx[4:7],,,
{1},
{1},
{1},
{1},
{1},
{1},
{1},
{1},
{1},
{4},,,8x>3p7[1#2048:27],
{8},,,,,,,7hx[8:19]/2hx[8:19],
{1},
{1},
{8},,,7hx[4:1]/2hx[4:1],,,,,
{1},
{1},
{1},
{1},
{1},
{1},
{1},
{16}6xz2z6[1#2048:32],,,,,,,,,,,,2bx,3x,4x,5x,
{1},
{1},
{1},
{1},
{1},
{4},,,3xs7s3[1#2048:32],
{1},
{1},
{1},
{3}A8f,A1f,A2f,
{3}A8f,A1f,A2f,
{3}A8f,A1f,A2f,
{3}A8f,A1f,A2,
{1},
{1},
{1},
{1},
{16}8x,7x,6x,5x,,,,,3x,,3x,,3x,,,,
{24}7bx,6x,5x,4x,,,,,2bx,3x,4x,5x,,,,,7bx,6x,5x,4x,,,,,
{1},
{1},
{1},
{1},
{1}6hx[4:3],
{1},
{1},
{1},
{1},
{1},
{1},
{1},
{1},
{1},
{1},
{1},
{1},
{4},,,3hx[1:4],
{1},
{1},
{1},
{1},
{8}1bx-4[1#2048:1],,,,,3hx[4:9]/6hx[4:9],,,
{1},
{1},
{1},
{1},
{1},
{1},
{1},
{1},
{1},
{1},
{1},
{8},,,,,,,1xqq5[1#2048:9],
{1},
{1},
{1},
{3}A8,A7,A6,
{3}A8,A7,A6,
{3}A8,A7,A6,
{1},
{1},
{1},
{1},
{1},
{1},
{1},
{8},,,,,,,7xq2-5[1#2048:67],
{1},
{1},
{1},
{1},
{1},
{3}A8,A7,A6,
{3}A8,A7,A6,
{3}A8,A7,A6,
{1},
{1}3x,
{1},
{1},
{2},2hx[4:9]/8hx[4:9],
{1},
{1},
{1}7hx[4:23]/1hx[4:23],
{1},
{1},
{1},
{1},
{1},
{1}1xpp4qq1>5[1#2048:19],
{1},
{1},
{4},,,8x-3qq7[1#2048:10]*-4-7[1#2048:10],
{1},
{1},
{1},
{1},
{1},
{1},
{4},,,7hx[8:1],
{4}2hx[8:1],7hx[8:1],2hx[8:1],7hx[8:1],
{4}2hx[8:1],7hx[8:1],2hx[8:1],7hx[8:1],
{4}2hx[8:1],7hx[8:1],2hx[8:1],7hx[8:1],
{4}2hx[8:1],7hx[8:1],2hx[8:1],7hx[8:1],
{4}2hx[8:1],7hx[8:1],2hx[8:1],7hx[8:1],
{8}1bx-6[1#2048:1],,,,,3hx[4:9]/7hx[4:9],,,
{1},
{1},
{1},
{2},7xqq3-7qq4[1#2048:24],
{1},
{1},
{1},
{1},
{1},
{1},
{1},
{1},
{1},
{4},,,2hx[4:5]/4hx[4:5],
{1},
{3},1x/8x,2x/1x,
{3}1x/8x,2x/1x,1x/8x,
{3}2x/1x,1x/8x,2x/1x,
{3}1x/8x,2x/1x,1x/8x,
{12}2x/1x,,,,1x/8x,,,,,3hx[4:1],,,
{4},,,3hx[4:1],
{8},,,,,,,3hx[4:1],
{8},,,,,,,3hx[4:1],
{1},
{1}3hx[4:1],
{4},3hx[4:1],,,
{1},
{1},
{1},
{1},
{1},
{3}A1,A2,A3,
{3}A1,A2,A3,
{3}A1,A2,A3,
{3}A1,A2,,
{1},
{1},
{2},5hx[4:5]/4hx[4:5],
{1},
{1},
{1},
{4},,,E1,
{1},
{1},
{1},
{1},
{1},
{1}5xw1[1#2048:1],
{1},
{1},
{1},
{1},
{1},
{1}3qq1qq7qq5qq3[1#256:10],
{1},
{1},
{16},,3x,4x,5x,,,,,,,,3x,4x,5x,,
{16},,,,,,,,3x,4x,5x,,,,,,
{8},,,,,3hx[1:4],,,
{1},
{1},
{1},
{1},
{1}1bx,
{1},
{1},
{1},
{1},
{1},
{1},
{1},
{1},
{4},4hx[1:1],,,
{1},
{1},
{1},
{1},
{1},
{1},
{3}A5,A6,A7,
{3}A5,A6,A7,
{3}A5,A6,A7,
{1},
{1}3hx[1:11],
{1},
{1},
{1},
{1},
{1},
{1},
{1},
{1},
{1},
{1},
{1}6hx[1:1],
{1}Cf,
{1},
{1},
{1},
{1},
{1},
{1},
{2},4hx[1:1],
{1},
{1},
{1},
{1},
{1},
{1}7hx[2:5],
{1},
{1},
{1}5bx,
