&title=ATLAS RUSH [ST]
&artist=Kanone
&first=-0.08
&lv_5=14.9
&des_5=Xnocileth
&inote_5=
(156){4},,,,{1}6h[8:3]/3V15[4:1],
3h[8:3]/6V84[4:1],
1h[8:3]/5V37[4:1],
{2}8h[4:1]/4V62[4:1],7-3[8:1],
{16}1/2,,,3,{8}4,5/2,4,4/2,{16}6,5,6,5,
8/7,,,6,{8}5,4/7,5,5/7,{16}3,4,3,4,
1,7,1,7,,2/8,{8}2/8,{16}5,3,5,3,,4/6,{8}4/6,
{12}4/8,4/8,4/8,5/1,5/1,5/1,{32}2/6,3,4,5,6,7,8,1,7/2v5[8:1],6,5,4,3,2,1,8,
{1}2/7bq2[2:1]*p4[2:1],
{8}6/4,{16}7,5,{8}7,6/8,{16}1-4[8:1]*s5[8:1],8,2,7,{4}1,
{8}6/2h[16:3],{16}5,5,2h[16:3],6,{8}6,{16}2h[16:3],8,,6,{8}2/6,5/3,
3/7h[16:3],{16}4,4,7h[16:3],3,{8}3,{16}7h[16:3],1,,3,{8}7/3,4/6,
{16}2,1,3,1,{8}2b,{16}8,7,{8}8b,{16}6,5,7,5,{8}6b,
{16}1,8,{8}1,{24}7/8,6,5,2/4h[8:1],{48},,,,{16}1-5[8:1],1,{8}1,{4}7/1b,
{8}3/7h[16:3],{16}4,4,7h[16:3],3,{8}3,{16}7h[16:3],1,,3,{8}7/3,4/6,
6/2h[16:3],{16}5,5,2h[16:3],6,{8}6,{16}2h[16:3],8,,6,{8}2/6,5/3,
{16}2,1,{8}2,{16}3,4,,4,{8}5,{16}6,5,6,5,{8}7/4,
{16}3/8,4,5,6,7,8,1,2,{8}3-8[8:1]/4-7[8:1],5/2,{4}4b/3b,
{8}3/4,2/1,7/8,6/1,{16}5,4,3,2,{8}1/4,8/7,
{16}6/5h[8:1],7,{8}8,{16}2/1h[8:1],3,{8}4,{16}6/2,5,4,3,2,1,{8}8/4,
6/5,7/8,2/1,3/8,{16}4,5,6,7,{8}8/5,1/2,
{16}8/6h[4:1],1,2,3,4,5,6,7,8/6h[4:1],1,2,3,4,5,4,5,
{4}3qq8[4:1],{8}5,5,6,6,{16}7/1,2,3,4,
{4}5pp8[4:1],{8}3,3,2,2,{16}7/1,6,5,4,
1,3,1,3,2,4,2,4,{32}3b,4,5,6,7,8,1,2,3/8b,7,6,5,4,3,2,1,
{16}4/8,4,5,3,6,6,5,7,5,4,3,2,1/4,5,6,7,
{1}4/8bz4[2:1]*s4[2:1],
{2}6h[4:1]/2h[4:1],{8}1-4[8:1]/5-8[8:1],6/2,{4}5/1,
{8}3b/7b,,,6/4,{16}5/3,,,4/2h[16:3],,,{8}5,
8/7,6/5,{24}3,4,3,5/2,,,{8}8b/7b,{24},,,,,,8b/2b,7,6,
{8}5/4,{24},,,,,,1b/8b,2,3,{16}4/6,,,8/6,,,{8}3/1,
6b/8b,1b/3b,7b/5b,2b/4b,4b/5b,{16},,,,6,7,
{4}8/4>8[4:1],{8}7,6,{16}7h[8:1],,,6h[8:1],,,{8}5/4,
7/6,1/8,2/3,4/5,{16}6h[16:3]/3h[16:3],,,,,7,8-4[8:1],7,
8,,,6,,5,5,4,4-8[8:1],,,3,,,{8}2,
3,1/4,{24}5/2,3/6,4/7,5/8,,,{4}6b/2b,1-3[8:1],
5b/1b-7[8:1],{16}6/1-3[8:1],5,{8}4,{16}1-7[8:1],4,,6,{8}1,4,
5<1[8:1],4/2,{24}5/1,2,3,4,,,{4}5b/7b,{8}8-6[8:1],{16}4,3,
2/8b-2[8:1],,,4,{8}8-6[8:1],{16}5,4,{8}3/8-2[8:1],2,{16}3/8-4[8:1],4,{8}5,
8,3,1-6[8:1]/2-5[8:1],3/8,{4}2b/1b,7-5[8:1],
{8}2/7b-3[8:1],{16}1,1,{8}7-5[8:1],4,{16}7-3[8:1],2,,1,{4}7/1-5[8:1],
{8}5/1V38[4:1],6,1b/7,4,{4}6h[4:1],{24}2,3,4,7/5<1[8:1],{48},,,,{16}4,
,,3,{48},,,,,,{24}8>3[8:1],7,6,{16}5,,,8,,,{8}6/4,
5/7,6/8,{24}7b/4b,6/3,5/2,4/1,,,{8}8b/7b,{24},,,,,,4,6,5,
{4}6V48[8:3],4,{16}3,,,2,{48},,,,,,{24}5,3,4,
{4}3V51[8:3],5,{16}6,,,7,,,,,{4}8<3[4:1],
2,1>6[4:1],7,
7<2[4:1],1,{2}1s5[8:1],
{16}6,5,6,5,7,4,7,4,{24}7,6,5,1,2,3,{16}8,4,{8}8h[8:1],
{16}3,4,3,4,2,5,2,5,{24}2,3,4,8,7,6,{16}1,5,{8}1h[8:1],
{24}6,5,6,3,4,3,7,5,7,2,4,2,7b,6,5,1b/4,2,3,8b/4,7,6,1b/5,2,3,
{4}5bz1[4:1]/4bs8[4:1],{32},,,,,,,,,,,,,,,,8b/1b,2/7,3/6,4/5,,,,,{16}6,
5,7,7,3,4,2,2,{24}6,5,6,4,{48},{16}4,{24}6,7,8,4,3,2,
{8}1/7-4[16:1],{16}8,8,{8}7/1-5[16:1],3,1/8,{24}6,7,8,{8}1b/5b,{16}4-8[16:1],3,
{8}2-5[16:1],4,2/1,{16}8-4[16:1],7,{8}6-1[16:1],8,6/5,3,
{24}7,8,7,1,{48},{16}1,{24}5,4,5,3,{48},{16}3,{32}8w4[16:1],7,{16}6,{32}4,3,{16}2,{4}8b,
{16}3,4,2,2,6,5,7,7,{24}3,4,3,5,{48},{16}5,{24}3,2,1,5,6,7,
{8}8/2-5[16:1],{16}1,1,{8}2/8-4[16:1],6,8/1,{24}3,2,1,{8}8b/4b,5b/7b,
{16}6/5,4,6,3,6,2,6,1,{32}6/1,5,4,3,2,1,8,7,6/2,3,4,5,6,7,8,1,
{8}2/5,4/7,{16}5/3,5/3,,4/2,{8}3s7[8:1]/1z5[8:1],5/7,{4}1b/3b,
{24}7,8,7,1,{48},{16}6,{24}2,5,2,4,{48},{16}3,5,4/3,,1,{8}4>1[8:1],4/7,
{16}4/8,7,6,5,4/8,7,6,5,{24}4/8,3/7,2/6,1/5,{12}8/4,{24}5b/1b,6/2,7/3,{96}8/4,,,5/1,,,,,,,,,{24}2,
1,2,8,{48},{16}3,{24}7,4,7,5,{48},{16}6,4,5/6,,8,{8}5<8[8:1],5/2,
{16}5/1,2,3,4,5/1,2,3,4,{24}5/1,6/2,7/3,8/4,{12}1/5,{24}8b/4b,3/7,2/6,{96}1/5,,,4/8,,,,,,,,,{16}1/5,
2,3/5,4,5/1,6,7/1,8,1/5-1[8:1],2,3/5,4,{4}5/1b,
{24}2,1,2,8,{48},{16}8,{24}4,5,4,6,{48},{16}6,{32}1w5[16:1],2,{16}3,{32}5,6,{16}7,{4}1b,
{2}8bz4[8:1]*s4[8:1],5bs1[8:1],
{24}3,4,3,5,4,5,2,4,2,6,4,6,1,5,1,5,1,5,{4}1s5[8:1]*-5[8:1],
{1}1b>8[2:1]*>8[2:1],
{2}4V62[4:1],7,
8V26[4:1],3,
{4}5<2[4:1],3,4>8[4:1],6,
7V53[4:1],3-7[16:3],{8},1,{4}1,
1V35[4:1],5-1[16:3],{8},7,{4}7,
{8}6/4,6,7/5,7,5/3,3,2/4,2,
{16}5,4,6,3,7,2,8,1,{32}8,7,6,5,8,7,6,5,1-5[16:1],2,3,4,1,2,3,4,
{8}5/1b,{16},,,,6b/4b,6/4,{8}4/6,7b/5b,8b/6b,{24}2b/1b,3/8,4/7,
{8}5/6,{16}3b/1b,3b/1b,{8}3b/1b,{24}8b/5b,7/4,6/3,{8}5/2,7b/2b,{24}8b-5[8:1]/1b-4[8:1],2/7,3/6,5/4,,,{8}1b/8b,
{16},,,,4b/2b,2b/4b,{8}2b/4b,{16}6b/8b,6b/8b,,,{8}1h[8:1]/5h[8:1],
{32},,,,4b/8b,1/5,2/6,3/7,{24}8/4,5/1,{48},,,,,,,,{16}3,4,1-5[16:1],6,5,7,{8}1,
3b/7b,{16}5,7,5,7,1,5,3,1,5,7,1,5,{8}7/3h[8:1],
{32}8b,1,2,3,4/8,5/1,6/2,7/3,{8}8/4,{16}5,7,5,7,1,5,3,1,5,7,
{32}1h,8,7,6,5/1,4/8,3/7,2/6,{8}1/5,{32}3,5,{96},,{24}3,{16}6,6,3,3,7,7,2,2,
{32}3/8b,7,6,5,4/1b,8,7,6,{8}5,{32}6/1b,2,3,4,5/8b,1,2,3,{8}4,{32}4b/8b-4[16:1],7/3,6/2,5/1,4,3,2,1,
{1}8b/4b,
E
&lv_6=14.
&des_6=
&inote_6=
(125)
E
