&title=録画
&artist=電ǂ鯨
&first=0
&des=尘落南丘
&clock_count=4
&lv_5=13
&inote_5=(125)
{1},
{1},
{8}4,4,4,4,
{16}6,3,5,,2,5,3,,
{16}6x-1[8:1],,,4,4,,,,2x^5[8:1],,6,,7,,,,
{16}8-5[8:1],,,1,1-4[8:1],,,,8V64[8:1]*^5[8:1],,8,,8x,,,,
{16}3x-8[8:1],,,5,5,,,,7x^4[8:1],,3,,2,,,,
{16}1-4[8:1],,,8,8-5[8:1],,,,1V35[8:1]*^4[8:1],,1,,1x,,,,
{16}7^6-4[8:1],,,8,8v5[8:1],,,,7p1[16:3],,7,,8x,,,,
{16}2^3-5[8:1],,,1,1v4[8:1],,,,2q8[16:3],,2,,1x,,,,
{16}7^4[8:1],,8,8,1,,,2,1^6[8:1],,3,,4,,5,5,
{16}4hx[4:1],,5,5,6hx[4:1],,5,5,4bxq5[4:1],,,,C,,,,
{16}7-4[8:1],,,3,3,,2,2,7x-4[8:1]*-3[8:1],,18,,7,,,,
{16}2-6[8:1],,,1,1-7[8:1],,,,2pp4[8:1]*-6[8:1],,2,,2,,,,
{16}2-5[8:1],,,6,6,,7,7,2x-5[8:1]*-6[8:1],,81,,2,,,,
{16}7-3[8:1],,,8,8-2[8:1],,,,7qq5[8:1]*-3[8:1],,7,,7,,,,
{16}1p8[4:1],,
,7,7,,C,,7,,1,,26,,8,1,
{16}8q1[4:1],,,2,2,,C,,2,,8,,73,,1,8,
{16}1-6[8:1],,,8,8-3[8:1],,,,1x-5[8:1],,1x,,8x-4[8:1],,8x,,
{16}1,,3,3,1x,,8,8,6x,,5,5,3x,,2,,
{4}1b-5[8:1]/3b,1/4-8[8:1],7-5[8:1]/4,7/8-4[8:1],
{4}5-1[8:1]/8,2-4[8:1]*-8[8:1]/5,2,
{8}7,8,1bs5[8:1]/6bv3[8:1],,,,8bz4[8:1]/3bv6[8:1],,,,
{16}7x,8x,5x,4x,1x,2x,5x,4x,1s5[4:1],,28,,1,,,,
{4}6b-2[8:1],6/1-5[8:1],4-2[8:1]*-6[8:1]/1,4,
{8}8/2-5[8:1],3,2/8-3[8:1],7,8/1-5[8:1],2,1/8,6,
{16}7<3[4:1],,,3,3>7[4:1],,,,{8}5x,5x,4x,3x/6x,
{16}7x/2x>6[4:1],,,6,6<2[4:1],,,,{8}4x,4x,5x,6x/3x,
{16}2bx/7bx,,,,7,4,5,2,6,,3,5,4,,45,,
{16}7v1[8:1]/8,,,2,7,,2,8,2^5[8:1],,38,,27,,,,
{16}6v4[8:1],,,7,7,,7,5,6^3[8:1],,7,,67,,,,
{16}2v8[8:1]/1,,,7,2,,7,1,7^4[8:1],,61,,72,,,,
{16}3v5[8:1],,,2,2,,2,4,3^6[8:1],,2,,32,,,,
{16}1-5[8:1],,,6,1,,7,7,8-4[8:1],,1,,28,,,,
{16}8-4[8:1],,,3,8,,2,2,1-5[8:1],,8,,71,,,,
{16}E7/B6,,C,,E3/B3,,8x,1x,E4/A3,,E5,,E6/A6,,1x,8x,
{16}B6/E6,,,C,B2/E2,,B3/E4,C,E8/B7,,E4/A4/D4,,E6/A5/D6,,,,
{4}5b/2b-4[8:1],5-1[8:1]/2,4-8[8:1]/5,4/7-5[8:1],
{4}8-4[8:1]/7,5^8[8:1]*^2[8:1]/8,5,{8}1^4[8:1],8,
{8}7/1q5[8:1],,1v6[8:1]/3,,17,,7,8,
{8}6-2[8:1]/1-7[8:1],,6/1pp3[8:1],,1/6v8[8:1],,3,2,
{16}1b/7b,,6,5,6,,4,,3bv1[8:1]/5b,,,,6,,7,,
{16}8b/2b,,3,4,3,,5,,6b/4b,,,,3,,2,,
{16}18,,7,5,6,,4,,4-8[8:1]/5,,3,,5-1[8:1]/4,,6,,
{1}5bV37V16b[2:1],
{8}8b-4[8:1]/6b,,8/5-1[8:1],6x,2-4[8:1]/5,3x,2/1-5[8:1],8x,
{8}4-8[8:1]/1,3x,7-5[8:1]*-1[8:1]/4,6x,7,,
{8}2,1,8bz4b[8:1]/3bv6b[8:1],,3x/8x,,1bs5b[8:1]/6bv3b[8:1],,1x/6x,,
{16}6,5,8,1,4qq4[4:1],3,8,1,4pp5[4:1],,1hx[8:1],,,,,,
{4}3b-7[8:1],3/8-4[8:1],5-7[8:1]*-3[8:1]/8,5,
{8}1/7-4[8:1],6,7/1-6[8:1],2,1/8-4[8:1],7,8/1,3,
{16}2q6[4:1],,,6,6q2[4:1],,,,{8}4,4,5,3/7,
{16}2/7p3[4:1],,,3,3p7[4:1],,,,{8}5,5,4,2/6,
{8}1b-5[8:1]/3b,,1/4-8[8:1],3x,7-5[8:1]/4,6x,7/8-4[8:1],1x,
{8}5-1[8:1]/8,6x,2-4[8:1]*-8[8:1]/5,3x,2,,7,8,
{16}1bs5b[8:1],7bv5b[16:1],8b,,,,,,8bz4b[8:1],2bv4b[16:1],1b,,,,,,
{16}6bx,5bx,6bx,,3bxv8b[8:1],4bx,3bxv6b[8:1],,3-7b[8:1],,,,,,,,
{4}1b-5[8:1],1/4-8[8:1],7-5[8:1]*-1[8:1]/4,7,
{8}2/8-6^5[8:1],7,8/1-3^4[8:1],2,1/8v5[8:1],7,8/1v4[8:1],2,
{8}7-5[8:1],,7/8-2[8:1],,7-3[8:1]/8,6,7/8<2[8:3],1,
{8}6h[4:1],,,8,2-6[8:1]/1,3,2/1>7[8:3],8,
{8}3h[4:1],,,1,8/7h[4:1],6,8h[8:1],6,
{16}45,,3,4,3,,8,,1/2h[4:1],,3,,1h[8:1],,3,,
{16}54,,6,5,6,,4,,5/7h[4:1],,8,,5h[8:1],,8,,
{16}45,,3,4,3,,5,,4/2h[4:1],,1,,4h[8:1],,1,,
{16}7/8,,7,8,5,,1,,2h[4:1]/4,,1,,8h[8:1],,3,,
{16}2/1,,2,1,4,,8,,7h[4:1]/5,,8,,1h[8:1],,6,,
{16}7/8,,7,1,6,,2,,3h[8:1]/5h[8:1],,,,3h[8:1]/4h[8:1],,,,
{16}2/1,,2,8,3,,7,,45,,56,,6-1[8:1]/7-3[8:1],,,,
