&title=流砂の嵐
&artist=劇団レコード
&first=0
&des=Dororo
&lv_5=13+
&inote_5=(140)
{1},
{16},,,,,,,,,,,,4b/5b,,,,
{16}3x>6[2:1]/6x,,,,,,,,,,,,,,,,
{16}6<3[2:1]/3,,,,,,,,,,,,4,,5,,
{16}3>6[2:1]/6,,,,,,,,4,,,3,,,2,,
{16}18,,,,{12}2,2,2,6,6,6,4,4,4,
{16}6x<3[2:1]/3x,,,,,,,,,,,,,,,,
{16}3/4-1[8:1]*-2[8:1],,,,,,,,5-8[8:1]*-7[8:1]/6,,,,,,,,
{16}2b/6b,,{32}1,7,1,7,{16}4x,,,,65,,,54,,,43,,
{16}5pp8[2:1]/2pp5b[2:1],,,,,,,,,,,,,,,,
(146)
{16}47,,2,,65,,2,,34,,7,,25,,7,,
{24}1,6,1,6,1,6,1,6,1,6,1,6,1,6,1,6,1,6,1xw5[8:1],,,,,,
{16}1x<2[8:5]/Cf,,,,,,,,,,,,,,1,,
{16}3x/8x>7[8:5],,,,,,,,,,,,,,8,,
{16}1x-6[8:1]/6x,,,,,,4,,2x-5[8:1]/5x,,,,,,,,
{16}1b/8b,,,,,,37,,3^8[8:1]/7^4[8:1],,,,37,,,,
{16}1-5[8:1],,1,,6-1[8:1],,6,,2-6[8:1],,2,,8,,8,,
{16}4^1[8:1],,7^4[8:1],,4pp8[8:3],,7,,8x,,,,2,,3,,
{16}4^1[8:1]/7^4[8:1],,,,74,,,,8h[16:3],,,2h[16:3],,,4,,
{16}4w8[8:1]/7,,,,4,,,,5w1[8:1]/2,,,,5,,,,
{16}8x>7[8:5]/Cf,,,,,,,,,,,,,,8,,
{16}6x/1x<2[8:5],,,,,,,,,,,,,,1,,
{16}8x-3[8:1]/3x,,,,,,5,,7x-4[8:1]/4x,,,,,,,,
{16}8b/1b,,,,,,6^1[8:1],,2^5b[8:1],,6,,2,,,,
{16}8-4[8:1],,5,5,8,,3,,2-5[8:1],,6,6,2,,7,,
{16}8-4[8:1],,5,5,8,,3,,2-7[8:1]*-5[8:1],,,,2,,,,
{16}4^1[8:1]/8^5[8:1],,,,48,,,,8h[16:3],,,2h[16:3],,,4,,
{16}47,,6,5,7,,3,4,2,,6,5,8,,3,4,
{16}1b-5[8:1],,,,,,6,6,5,,4,,5,,3,,
{48}4h[4:3]/A2,B2,C,{16},,,{48}A2,B2,C,{16},,,{48}A2,B2,C,{16},,,5x,,4,,
{48}7h[4:3]/A3,E4,E5,{16},,,{48}A3,E4,E5,{16},,,{48}A3,E4,E5,{16},,,6x,,7,,
{48}2h[4:3]/A8,B8,C,{16},,,{48}A8,B8,C,{16},,,{48}A8,B8,C,{16},,,3x,,2,,
{48}6h[4:3]/A1,E2,E3,{16},,,{48}A1,E2,E3,{16},,,{48}A1,E2,E3,{16},,,5x,,6,,
{48}5h[4:3]/A7,B7,C,{16},,,{48}A7,B7,C,{16},,,{48}A7,B7,C,{16},,,4x,,5,,
{48}2h[4:3]/A6,E6,E5,{16},,,{48}A6,E6,E5,{16},,,{48}A6,E6,E5,{16},,,3x,,2,,
{48}7h[4:3]/A1,B1,C,{16},,,{48}A1,B1,C,{16},,,{48}A1,B1,C,{16},,,6x-2b[12:1],,7w3[8:1],,
{16},,B7f,,,,,,1-4[8:1]/5-8[8:1],,,,15,,,,
{16}5pp4[4:1]/7,,{24}8,7,6,{16}53,,3^8[8:1],,,,7,,6,,5,,
{16}4qq5[4:1]/2,,{24}1,2,3,{16}46,,6^1[8:1],,,,2,,3,,4,,
{16}5pp2[4:1]/7,,{24}8,7,6,{16}35,,3^6[8:1],,,,1,,8,,7^2[8:1],,
{16},,5,,4,,3^6[8:1],,,,1,,8,,7,,
{24}56,4,3,8,7,6,3,2,1,8,7,6,3,2,1,7,6,5,3x-6[8:1]*-5[8:1]/4,,,,,,
{16}3-8[8:1]*-7[8:1],,,,3,,,,1b/3b,,,5b/4b,,,6b/8bw4[8:1],,
{16},,8b,,,,26,26,1-4[8:1]/7-4[8:1],,,,17,,,,
{16}65,,,23,,,78,,6/E1f,,,,4,5,3,4,
{16}2^7[8:1],,7^2[8:1],,2,,4,,5-8[8:1],,6,,1,,2,,
{16}3-8[8:1]/7,26,5V37[4:1]/1,,3,,5,,1,,1,,28,,6,5,
{16}7-4[8:1],,3-7[8:1],,7>5[4:1],,3,,5,,{24}E7,E8,E1,{16}E2,,8x,,
{16}8x-4[8:1],,7,,3-8[8:1],,2,2,7-3[8:1],,6,,7x/8x,,,,
{16}2-4[8:1],,6,6,2,,8,,5-1[8:1],,7,7,5,,6,,
{16}8-3[8:1],,4,4,8,,5,,4^1[8:1]/6,,,,7,,5,,
{16}4^7[8:1]/8,,,,1,,3,,4h[8:1]/8h[8:1],,,3h[8:1]/7h[8:1],,,26,,
{16}26,,3,24,,6,75,,1b/Cf,,,,{24}7,6,5,2,3,4,
{16}6^1[8:1],,1^6[8:1],,6,,4,,4-1[8:1],,3,,8,,7,,
{16}6-1[8:1]/2,73,4V26[4:1]/8,,6,,4,,8,,8,,71,,3,4,
{16}2-5[8:1],,6-2[8:1],,2<4[4:1],,6,,4,,{24}E3,E2,E1,{16}E8,,1x,,
{16}1x-5[8:1],,2,,6-1[8:1],,7,7,2w6[8:1],,3,,2x,,,,
{48}8b-5[8:1],7,6,{16},2,2,8,,3,,{48}4b-7[8:1],5,6,{16},2,2,4,,1,,
{48}8b-5[8:1],7,6,{16},2,2,8b-4[8:1],,3,,8b-3[8:1]/2,,,,8/5<2[4:1],,6,,
{16}7h[4:1],,,,,,3,4,8,6,5,1,4w8[8:1],,26,,
{16}B6/Cf/B2,,,,,,1b/8b,1b/8b,2b-5[8:1]/7b-4[8:1],,,,,,,,
(144)
{24}3x,4,3,4,3,4,5x,4,5,4,5,4,5x,6,5,6,5,6,5x-1b[8:1],,,,,,
(140)
{16}7,,7^4[8:1],,,,3,,2,,1,,8,,7,,
{16}2,,2^5[8:1],,,,6,,7,,8,,1,,2,,
{16}7^2[8:1],,7^4[8:1],,,,,,1h[16:3],,,3h[16:3],,,5,,
{16}4-1[8:1]/6-1[8:1],,37,,,,,,8-5[8:1]*-3[8:1],,,,8,,,,
{16}2,,2^5[8:1],,,,6,,7,,8,,1,,2,,
{16}7,,7^4[8:1],,,,3,,2,,1,,8,,7,,
{16}2b/6b,,{32}3,5,3,5,{16}8x,,,,67,,,45,,,23,,
{16}1<3b[2:1]/4<2[2:1],,,,,,,,,,,,,,,,
{16}4-1[12:1],,4-7[12:1],,4h[8:1],,,,3-8[12:1],,3-6[12:1],,3h[8:1],,,,
{16}2-7[12:1],,2-5[12:1],,2h[8:1],,,,1-6[12:1],,1-4[12:1],,1w5b[8:1],,,,
{16},,,,{32}1-5[8:1],8,2,8,2,8,2,8,{16}1bqq4[1:2]*pp6[1:2]`Cf,,,,,,,,
{16},,,,,,,,,,,,,,,,
{16},,,,,,,,,,,,,,,,
E
