&title=talking
&artist=KANA-BOON
&first=0
&des=Hexadecimal
&lv_5=13+
&inote_5=(140)
{1},
{16},,,,,,,,,,,,E2/E1/A8/E8/E7f/A6/B7/B3/C,,,,
{16}5x,,4h[4:1],,,,3,4,3,,1,,28,,7,3,
{16},,4h[4:1],,,,5,4,5,,7,,68,,1,5,
{16},,4h[4:1],,,,3,4,3,,1,,2/8^3[8:1]*^5[8:1],,,,
{16}8,,,,2,4,3,5,2,,18,,7,5,6,4,
{16}7x-3[8:1],,7x,,5-8[8:1],,5,,6,,6,,8,1,2,8,
{16}7x-3[8:1],,7x,,1-6[8:1],,1,,8,,8,,6,5,4,6,
{16}7x-3[8:1],,7x,,5-8[8:1],,5,,6,,6,,8,1,2,8,
{16}3x-8[8:1]/7xv8[8:1],,,,7-4[8:1]/3v4[8:1],,,,37,,,,35,,,1,
{16}2x-6[8:1],,2x,,5^8[8:1],,5,,3,,3,,8,7,6,1,
{16}2x-6[8:1],,2x,,7^4[8:1],,7,,1,,1,,4,5,6,3,
{16}2x-6[8:1],,2x,,5^8[8:1],,5,,3,,3,,8,7,6,1,
{16}2xv4[8:1]/7xqq5[8:1],,,,2qq8[8:1]/7v1[8:1],,,,27,,,,2,7,3,6,
{16}4x/5xp3[4:3],,,,5,,,,5,,,,5,,,,
{16}5xq8[4:3],,,,5,,,,5,,,,5,,,,
{16}5xp4[4:3],,,,5,,,,5,,,,5,,,,
{16}E7,,,,C,,,,E3,,,,2,8,2,8,
{16}3x/7x,,37,,26,,26,,15,,15,,8V25[6:1]/4V61[6:1],,84,,
{16}D2f/D6,,,,,,,,1-6b[8:1]/5-2b[8:1],,,,1b/5b,,,,
{16}A7fh[16:3]/A6h[16:3]/3x-5[16:1],,,{48}E8/B6/3x,E1/C,A1/B2,{16},,,,1h[8:1]/5,,3,,1h[8:1]/7,,5,,
{16}A7fh[16:3]/A6h[16:3]/3x-5[16:1],,,{48}E8/B6/3x,E1/C,A1/B2,{16},,,,8h[8:1]/4,,2,,8h[8:1]/6,,4,,
{16}2-8[8:1]/5,,3,4,,5,5,,7-1[8:1]/4,,6,5,,4,4,,
{16}27,,1,8,,2q8[16:3]/6,3bV57[8:1]/7b,,1x,,,,D8f,,,,
{16}1/6-4[8:1],,3,,16,,2,,1/7-3[8:1],,3,,17,,2,,
{16}1/8-2[8:1],,3-7[8:1],,18,,3,,8x,,8x,,5,7,3,5,
{16}A2fh[16:3]/A3h[16:3]/6x-4[16:1],,,{48}E2/B3/6x,E1/C,A8/B7,{16},,,,8h[8:1]/4,,6,,8h[8:1]/2,,4,,
{16}A2fh[16:3]/A3h[16:3]/6x-4[16:1],,,{48}E2/B3/6x,E1/C,A8/B7,{16},,,,1h[8:1]/5,,7,,1h[8:1]/3,,5,,
{16}7-4[8:1]/4,,6,5,,8,8,,2-5[8:1]/5,,3,4,,1,1,,
{16}72,,8,1,,7p1[16:3]/3,6bV42[8:1]/2b,,8x,,,,D2f,,,,
{16}8/2-5[8:1],,6,,82,,7,,8/1-6[8:1],,6,,81,,7,,
{16}8/2-5[8:1],,6-1[8:1],,82,,6,,3,,7,,{32}1<4[32:5],8<3[32:5],7<2[32:5],6>1[32:5],{16},,
{16}D1f/7bh[2:1],,,,,,,,8x,,,,1,7,2,6,
{16}3b,5,4,5,3,5,4,5,7,5,4,5,8^3[8:1],,,,
{16}7h[16:1]/8,,7h[16:1],,6,4,5,4,2,4,5,4,1^6[8:1],,,,
{16}12,,4,,78,,5,64,,,12,,3,5,5,46,
{16},,35,,78,,5,46,,,12,,3,6,4,7,
{16}2x-7[8:1]/8x-5[8:1],,,,28,,,6x,1x-4[8:1],7x-2[16:1],2x,,17,,,8x,
{16}1x-7[8:1]/8x-4[8:1],,,,18,,,6x,1x-5[8:1],8x-2[16:1],3x,,18,,,8x,
{16}2x-7[8:1]/8x-5[8:1],,,,28,,,6x,1x-4[8:1],7x-2[16:1],2x,,17,,,8x,
{16}1x^4[8:1]/8x^5[8:1],,,,18,,,2x,2x/7x,,,,{24}3b,4x,5x,{16}6x,,
{16}7h[8:1]/8,,6,,3h[8:1]/4,,2,,8h[8:1]/1,,7,,4h[8:1]/5,,3,,
{16}1h[8:1]/2,,8,,5h[8:1]/6,,4,,2h[8:1]/3,,1,,6h[8:1]/7,,5,,
{16}3h[8:1]/4x,,E3,,7h[8:1]/8x,,E7,,4h[8:1]/5x,,E4,,8h[8:1]/1x,,E8,,
{16}5h[8:1]/6x,,E5,,1h[8:1]/2x,,E1,,2x/7xb,,,,3,6,4,5,
{16}3-7[8:1],,3,,2-6[8:1],,2,,1-5[8:1],,1,,8-4b[8:1],,8,,
{16}7-3b[8:1],,7,,6-2b[8:1],,6,,4xh[4:1],,,,{24}3,2,1,8,7,6,
{16}B5fh[16:3]/Ch[16:3],,,{32}B7/E6/E5/B3,A7/A6/A4/A3,{16},,2x/8x,,6h[16:1],,28,,4h[16:1],,28,,
{16}B1fh[16:3]/Ch[16:3],,,{32}B3/E2/E1/B7,A3/A2/A8/A7,{16},,6xh[16:1]/4xh[16:1],,2,,6h[16:1]/4h[16:1],,8,,6h[16:1]/4h[16:1],,
{16}3-5[8:1]/7,,2,1,3x,1,8,,6-4[8:1]/2,,7,8,6x,8,1,,
{16}37,,,{32}28,37,{16}4>6[4:1]/6,,12,,48,,,,5v8[8:1],,4-2[8:1],,
{16}35,,4,,1v4[8:1],,8-6[8:1],,17,,8,,4,4,5,5,
{16}3,6,2,6,1,6,8,6,7,6,5,6,4b>5[4:1]/5>5[4:1],,,,
{16}A4f/5w1[8:1],,,,,,,,,,,,,,,,
