&title=Watch Out Pt.2
&artist=DJ Mass MAD Izm* VS. DJ Yoshitaka
&first=0
&des=你们他妈都疯了?交那么快搞毛啊
&lv_5=14
&inote_5=(148){1},
{16}3,3/4,,2,5,4,5,4,
5h[16:1],,5h[16:1],,5h[16:1]/4h[16:1],,5h[16:1]/4h[16:1],,
5pp2[4:1]/4h[16:1],,,,1h[16:1],,1h[16:1],,1h[16:1],,1,8,1s5[16:4],,8h[16:1],,8h[16:1],,,,
6h[8:1],,4,5,3h[4:1],,4,,5,4,6,5,
{8}7h[8:1],1h[8:1],5h[8:1],4h[8:1],1h[8:1],3h[8:1],8b,,
{8}2/7,2,3/8,3,4/1,3,5/8,6,
{16}7/8,,
1,2,3v8[8:1],4,5,,3v4[8:1]/6v5[8:1],,,,,,,,
{8}7/2,7,6/1,6,5/8,6,4/1,3,
{16}2/1,,7,8,6<1[8:1],1,5,,{24}2v8[16:2],3,4,5h[8:1],,,{16},,,,
3h[4:1],,5,,6h[4:1],,4,,3h[4:1],,5,,4,3,5,4,
6-1[8:1],5,7,5,6,,2,,3>8[8:1],4,2,4,5,6,7b,,
6h[4:1],,4,,3h[4:1],,5,,6h[4:1],,4,,3,5,4,6,
5p1[8:1],8,,8,5,,7,,6,8,6,1,6,2,6,3,
7/4,,6,,2/5,,3,,4/5,,6,,7/8v7[8:1],,1,,2v3[8:1]/8v5[8:1],,,,,,,,6v1[8:1]/4,,7,,6/8,,,,
2/5,,3,,7/4,,6,,5/4,,3,,2/1,,8,8,
4<7[8:1],3,2,1,8p4[8:1],,1,2,3<6[8:1],,2,,1/3,,,,
7,8,6,8,5h[4:1],,3,,2h[4:1],,4,,5v6[8:1],,4,,5v8[8:1],4,4,,5,3,3,,2v5[8:1],1,8,7,6/2,,,,
2,1,3,1,4h[4:1],,6,,7h[4:1],,5,,4>1[8:1]*<7[8:1],5,3,6,4pp6[8:1]*qq2[8:1],,,,4,,,,
3,1,3,8,3/7,3/6,3/5,3/4,
2v4[8:1],,7,6,5>2[8:1],,6,7,8q4[8:1],,7,6,5>2[8:1],,6,7,
8q4[8:1],,7,6,5p1[8:1],,6,7,8>3[8:1],,7,6,5,6,7,8,1-5[8:1],,
2,3,4<7[8:1],,3,2,1p5[8:1],,2,3,4<7[8:1],,3,2,
1p5[8:1],,2,3,4q8[8:1],,3,2,1<6[8:1],,2,3,4,3,2,1,8V24[8:1],,
7,6,5>2[8:1],,6,7,8q4[8:1],,7,6,5>2[8:1],,6,7,
8q4[8:1],,7,6,5p1[8:1],,6,7,8>3[8:1],,7,6,5,6,7,8,
{8}1-6[8:1],1-3[8:1],1-7[8:1],1-4[8:1],1-6[8:1],1-5[8:1],1,1,
7v8[8:1],6/4,7,3,{16}2,2,1,1,8,8,7,7,
{8}6pp4[2:1]/5,,3,,3,,3h[4:1],,2,2/3,1/4,8-4[8:1]/5,,1,1b,,
6qq8[2:1],,1,,1,,1,,
{16}2v7[4:1],,,,6,,,,5,,,,4,,,,
{8}2qq4[2:1],,5,,5,,5,,
{16}7v2[4:1],,,,5,,,,4,,,,3,,2,,
{8}1v6[8:1],,1/7,,8<5[8:1],1,2-4[8:1],,6,6,7-5[8:1],,3,3,2-4[8:1],,
{16}2/6-8[8:1],,7,,2-4[8:1],,3,,6-8[8:1],,7,,3,,4,,
{8}5h[8:3],1,1,1,5/1,4/1,3/1,2/1,
{16}3v2[8:1],,8,7,6,,6-1[8:1],,1-5[8:1],6,,2,2,,3,,
{24}4v1[8:1],5,4,6,,,{8}7v6[8:1],7,8q5[8:1],1,8,,
{16}6v7[8:1],,1,2,3,,3-8[8:1],,8-4[8:1],3,,7,7,,6,,
{24}5V31[8:1],6,7,8,,,{8}5v7[8:1],6,5,{16}2,2,1b/8b,,,,
{16}2v3[8:1]/5,,5,6,7,,7-4[8:1],,4-8[8:1],7,,3,3,,2,,
{24}1v2[8:1],8,1,7,,,
{16}5V71[8:1],,6,,1v4[8:1],,2,,3b,,,,
5,4,4,4,5,3,3,3,5,2,2,2,5,1,1,1,5b-1[4:1],,,,,,,,5w1[8:1],,,,5,,,,
{8}7<5[8:1]/3,3,7>1[8:1]/2,2,7<5[8:1]/4,4,3,2,
{16}1,1>6[16:2],,7/8,,1,,8,8-4[8:1],,7,,8,,,,
2-5[8:1],,5-3[8:1],,6,6,,7,,8,,8,1/2,,3,,
{12}4/7,7,7,7/1,1,1,
{32}1-5[8:1]/8,2,3,4,5,6,7,8,1b,,,,,,,,
{8}2>4[8:1]/6,6,2<8[8:1]/7,7,2>4[8:1]/5,5,6,7,
{16}8,8<3[16:2],,2/1,,8,,1,1-5[8:1],,2,,1,,,,
7-4[8:1],,4-6[8:1],,3,3,,2,,1,,1,8/7,,6,,5,4,4,4,3,4,4,4,5,4,4,4,3,4,4,4,
{8}5-2[8:1],5,5/3-8[8:1],3,3/7-4[8:1],6,7/1-5[8:1],,
1/6-2[8:1],6,6/4-1[8:1],4,4/7-3[8:1],6,7/8v1[8:1],,
6v5[8:1],7,8,8,2v3[8:1],1,8,8,
7v6[8:1],8,7v5[8:1],1,7v4[8:1],2,7,1,
{16}8<5[8:1],1,2,,3q7[8:1],2,1,,{16}8<5[8:1],1,2,,3q7[8:1],2,1,,
{16}8<5[8:1],1,2>5[8:1],,8,,2,,
8-3[8:1],7,6-1[8:1],,8,,6,,
{8}4-1[8:1],5/6-3[8:1],4,6,2-5[8:1],1/8-3[8:1],2,8,
{8}4-8[8:1],5/6-2[8:1],4,6,1w5[8:1],8,1b,,
{16}3h[16:1]/4h[16:1],,3h[16:1]/4h[16:1],,3/4,,3,4,2>5[8:1],4,3,,7,,7,,
{16}6h[16:1]/5h[16:1],,6h[16:1]/5h[16:1],,6/5,,6,5,7<4[8:1],5,6,,2s6[16:4],,2,,
7h[16:1],,7h[16:1],,7<4[8:1],,3,3,7>2[8:1],,3,3,7,,3,,
{8}4h[8:1],1h[8:1],3h[8:1],7h[8:1],1h[8:1],5h[8:1],
{32}7b,8b,1b,2b,,,,,,,,,E
