&title=Avantgarde
&artist=Raimukun
&first=-0.015
&des=Ich bin ein Konservativer, ich erhalte den Fortschritt
&lv_5=14
&inote_5=(200){1},
{4}1bV72-6-3-5[4:10]/8h[1:1],,,,
{8},,,{6},,,{8},
7h[1:1],,,,,,,,
6V82V46[4:5],,,,,,,,
7h[1:2],,,,,,,,
1V72-6-3-5b[4:8],,,,,,,,
,,,,5h[4:1],,,,6h[4:1],,,,7h[4:1],,,,
8h[4:3]/4,,4,,4,,4,,
2h[4:3]/6,,6,,6,,6,5,
4h[4:3]/1,,1,,1,,1,,
{16}26,,{24}4,3,5,{16},,46,,,,37,,2,1,2,,
{8}8,8,7,7,6,6,5,5,4,4,3,3,2,2,1,1,
{16}7,8,7,8,7,8,7,8,7,8,7,8,7,8,7,8,C,,,,,,,,1b,,,,,,,,
{32}1xbq3[16:10]/8xb,2x/7x,3x/6x,4x/5xq7b[32:17],,,,,{4},,,
{4}Cf,,,,
{32}1xb,2x/8x,3x/7x,4xz8[2:1]/6xz2[2:1],5x,,,,
{4},,,B7f/B3f,,,,
{32}8xb,7x/1x,6x/2x,5xs1[2:1]/3xs7[2:1],4x,,,,
{4},,,B2/B6/Cf,,,,
{32}1xb-7-2-6-3-5b[4:5]/8xb,2x/7x,3x/6x,4x/5x>5[4:6],,,,,{4},,,
{4},{8},,,4x,3x,2x,
{16}1h[2:1],,,,C,,,,,,7,,B3/B2,,8,,
8h[4:1],,,,C,,8,,,,2,,B6/B7,,3,4,
3h[4:1],,,,C,,2,,,,7,,B3/B4,,7,,
6/5,,,4/2,,,8/3,,,,7,,E4/E3,,6,5,
{8}6,6,3,3,2,2,1,1,8,8,7,7,6x,6x,5x,5x,
{16}3b,4,2,5,1,6,8,7,5bx,6,4,7,3,8,2,1,
2bz6b[2:1],,,,,,,,,,,,,,,,
7b-4[8:1],,,8,7,,2,,,,3,,24,,3,,
2-5[8:1],,,1,2,,7,,,6,5,,47,,6,5,
7x-4[8:1],,,4,7,,3,,,,2,,31,,,2,
8,,37,,6,4,6,,25,,2,,25,,3,4,
3xb-8[8:1],,,4,3,,6,,,,7,,68,,7,,
6-1[8:1],,,5,6,,3,,,2,1,,83,,2,1,
3x-8[8:1],,,8,3,,7,,,,6,,75,,,6,
4,,73,,2,8,2,,61,,5,,43,,2,5,
2xb-5[8:1],,,6,2,,7,,,,6,,75,,6,,
7-4[8:1],,,1,7,,2,,,3,4,,52,,1,6,
2x-5[8:1],,,5,2,,6,,,,7,,68,,,5,
3,,62,,1,5,1,,26,,3,,47,,6,5,
6xb-1[8:1],,,4,6,,3,,,,2,,31,,2,,
3-8[8:1],,,5,3,,6,,,7,8,,16,,5,2,
6x-1[8:1],,,1,6,,2,,,,3,,24,,,3,
5,,26,,7,1,7,,38,,2,,1/6<2[4:1],,,,
{16}B3,B4,B5,B6,B7,B8,B1,B2,3bxh[4:1],,,,5hbx[4:1],,,,
1,2,3,4,8,7,6,5,2h[4:1],,,,6h[4:1],,,,
2,3,4,5,8,7,6,5,1bh[4:1],,,,4bh[4:1],,,,
2x,4,2xh[8:1],,,,7x,5,7x,,2x,4,3x,,7x,5,
6x-1[8:1],,,,6-3[8:1],,2,,2>5b[8:1],,,,2x,,,,
8-5[8:1],,,,8-2[8:1],,4,,8<4b[8:1],,3,,3,,,,
1-4[8:1],,,,1-7[8:1]/5,,5,,1>5b[8:1],,,,5,6,7,8,
4xb,3,2,1,8,7,6,5,8xb,1,2,3,4,5,6,7,
8b-4[8:1],,,4,8,,3,,1-5[8:1]/2-6[8:1],,38,,12,,,,
4b-8[8:1],,,8,4,,7,,5-1[8:1]/6-2[8:1],,74,,56,,,,
7b-3[8:1],,,3,7,,2,,8-4[8:1]/1-5[8:1],,27,,81,,,,
3b-7[8:1],,,7,3,,6,,4/5<8[8:1],,3x,,1,2,3,4,
5b-1[8:1],,,1,5,,8,,2x,3,4,5,8x,7,6,5,
1b-5[8:1],,,5,1,,6,,4x,3,2,1,5x,6,7,8,12,,12,,34,,34,,56,,56,,78,,78,,
{32}1b,2,3,4,7b,6,5,4,1b,,,,1,,,,8b,7,6,5,4,3,2,1,8b,,,,,,,,
{16}4bh[4:1]/5bh[4:1],,,,,,,,B3,,B7,,B1,,B5,,
2bh[8:2]/8bh[8:2],,,,,,,,1,1,1,1,1,1,1,,
2b-5[8:1]/8b-5[8:1],,,,,,,,B4,,B8,,B2,,B6,,
1h[16:1]/7h[16:1],,1h[16:1]/7h[16:1],,1h[16:1]/7h[16:1],,1h[16:1]/7h[16:1],,8w4[8:1],,,,,,,,
1bh[4:1]/8bh[4:1],,,,,,,,E2,,E6,,E4,,E8,,
3bh[8:2]/5bh[8:2],,,,,,,,4,4,4,4,4,4,4,,
3-8[8:1]/5-8[8:1],,,,,,,,E2,,E6,,E4,,E8,,
4h[16:1]/6h[16:1],,4h[16:1]/6h[16:1],,4h[16:1]/6h[16:1],,4h[16:1]/6h[16:1],,5w1[8:1],,,,,,,,
7h,4h,,4h,6h,,6h[16:1],,B3/E4,,B7/E8,,B1/E2,,B5/E6,,
2bh[8:2]/8bqq7[8:1],,,,,,,,1,1,1,1,1,1,1,,
2h,8h,,8h,1h,,7h[16:1],,A4/E4,,A8/E8,,A2/E2,,A6/E6,,
7,1,7,1,7,1,7,1,8w4[8:1],,,,,,,,
2h,8h,,8h,1h,,1h[16:1],
,E7/A7,,E3/A3,,E5/A5,,E1/A1,,
6bpp7[8:1]/4bqq3[8:1],,,,,,,,5,5,5,5,5,5,5,,
6h,4h,,4h,5h,,3h[16:1],,2,1,3,8,4,7,5,6,
4bw8b[2:1],,,,,,,,,,,,,,,,
{4}4b-1-6[4:14]/6b,,,,
{8}A7,,,{6},,,{8},
C,,,,,,,,
A3,,,,,,,,
7h[1:2],,,,,,,,
1<3v5b[4:8],,,,,,,,
,,,,5h[4:1],,,,6h[4:1],,,,7h[4:1],,,,
4h[4:3]/8,,8,,8,,8,,
6h[4:3]/2,,2,,2,,2,3,
8h[4:3]/4,,4,,4,,4,,
{16}73,,{24}5,6,4,{16},,53,,,,62,,7,8,7,,
{8}1,1,2,2,3,3,4,4,5,5,6,6,7,7,8,8,
{16}2b,1,2,1,2,1,2,1,2,1,2,1,2,1,2,1,
C,,,,,,,,2b,1,8,7,1bx,8,7,6,
5/1h[8:1],,,7,2h[8:1],,6,,3,5,4,6,5,3,7,,
8h[8:1],,,4,7h[8:1],,,3,6h[8:1],,,2,7,1,6,3,
5h[8:1],,,4,6h[8:1],,3,,7h[8:1],4,,,8,7,6,5,
4b/3b,,,2b/6b,,,4b/7b,,2,4,3,,7,5,6,,
4/5h[8:1],,,3,6h[8:1],,2,,7,1,8,2,1,7,3,,
4h[8:1],,,8,3h[8:1],,,7,2h[8:1],,,6,3,5,2,7,
1h[8:1],,,8,2h[8:1],,7,,3h[8:1],6,,,3,4,3,4,
2b/5x,,{32}1b,2,3,4,56,,,,8,,,,81,,,,7b,6,5,4,,,,,2b,3,4,5,
{16}8b-3[8:1],,,2,8-5[8:1],,4,,8-4b[8:1],,3,,8x,4,3,2,
1b-6[8:1],,,7,1-4[8:1],,5,,1-5b[8:1],,6,,1x,5,6,7,
8b-3[8:1],,,2,8-6b[8:1]*-5[8:1],,4,,8b,,,,17,,17,,
2,8,4,6,1,7,3,5,1,8,4,5,2,7,4,6,
1b-3[8:1],,,8,1-5[8:1],,7,,7/1>4b[8:1],,6,,1x,5,6,7,
8b-6[8:1],,,1,8-4[8:1],,2,,2/8<5b[8:1],,3,,8x,4,3,2,
1b-6[8:1],,,7,1-3b[8:1]*-4[8:1],,5,,1b,,,,82,,82,,
3,5,1,7,4,6,2,8,4,5,1,8,3,6,1,8,
{32}1xb/8xb,2x/7x,3x/6x,4xh[32:9]/5xh[32:9],,,,,{8},,1h[16:1]/8h[16:1],2h[16:1]/7h[16:1],3h[16:1]/6h[16:1],4h[16:1]/5h[16:1],
{4}Cf,,1x,,
{32}1xb,2x/8x,3x/7x,4x/6x,5xh[32:9],,,,{16},,,,4h[16:1],6h[16:1],3h[16:1],5h[16:1],4h[16:1],6h[16:1],3h[16:1],,
{4}B7f/B3f,,2,,
{32}8xb,7x/1x,6x/2x,5x/3x,4xh[32:9],,,,{16},,,,2h[16:1],4h[16:1],3h[16:1],,7h[16:1],5h[16:1],6h[16:1],,
{4}B2/B6/Cf,,3b,,
{32}1xb-7-2-6-3-5b[4:5]/8xb,2x/7x,3x/6x,4x/5x>5[4:6],,,,,{4},,,
{4},{8},,,,,,
{16}1h[2:1],,,,C,,,,,,7,,B3/B2,,8,,
8h[4:1],,,,C,,8,,,,2,,B6/B7,,3,4,
3h[4:1],,,,C,,2,,,,7,,B3/B4,,7,,
6/5,,,4/2,,,8/3,,,,7,,E4/E3,,8,7,
{8}65,65,34,34,23,23,12,12,81,81,78,78,6x/7x,6x/7x,5x/6x,5x/6x,
{16}4b,3,2,1,{24}8/6b,5,4,3,2,1,8,7,6,{32}5/1b,2,3,4,5,6,7,8,1x/5x,26,37,48,
{16}1bq1b[4:7]/5bq5b[4:7],,,,,,,,,,,,,,,,,,,,,,,,,,,,,,,,
