&title=ᑫᵘᵉˢᵗᶦᵒᶰ Mᵃʳᵏ
&artist=Schtiffles
&first=0.016
&des=TeKraX
&lv_5=14
&inote_5=(140){4},{1},,,,,,,{4},,,{1}3v5[2:1]*>7[2:1],
2v4[2:1]*<6[2:1],
5h[4:3]/4v2<6[2:1],
4h[4:3]/7>3v5[2:1],
{4}B7/B8/B1/B2,C/E5,5h[8:1]/3h[8:1],3h[8:1]/4h[8:1],
4h[8:1]/6h[8:1],5h[8:1]/6h[8:1],6/5-3[8:1],7,
{8}8/4x-2[8:1],7x,{4}6x,{8}1/5x-7[8:1],2x,{4}3x,
{8}8/5,7,{32}5xh[4:1]/E7,E6,E5,E4,E3,E2,E1,E8,{4}6xh[4:1],{8}4,3,
{4}2-5[8:1]*>5[8:1],2,{8}6<8[8:1],1,2,3,
4>2[8:1],8,7,6,5<7[8:1],1,2,3,
4-2[8:1],4,6-4[8:1],6,8-6[8:1],8,2-8[8:1],2,
4-2[8:1],4,6,6,{4}8-6[8:1]*v3[8:1],8,
{8}4,3,{64}2/B5,E5,,,,,,,{8}3,6/4,3,{64}2/B5,E5,,,,,,,{8}3,
5/4,6,{64}7/B4,E5,,,,,,,{8}6,3/5,6,{64}7/B4,E5,,,,,,,{8}6,
{16}3,3,{8}4,5/2,3,{16}6,6,{8}5,4/7,6,
4/2,2/4h[8:3],{32}E3,E4,E5,E6,E7,E8,E1,E2,A3,A4,A5,A6,A7,A8,A1,A2,{8}3x/6x,1x/8x,
5b/4b,6,7/5-1[8:1],4,5/2-6[8:1],3,2/8-3[8:1],7,
8/2,1,{4}1-5[8:1]/4-7[8:1],4/1,4h[8:1]/8-2[8:1],
{8}8-4[8:1],3,8-3[8:1],2,8<5[8:1],4,8,2,
4x/2-6[8:1],3,2/8w4[8:1],7,{2}8b-5>3-8b[4:1],
{4}2x-6[8:1],2/7-3[8:1],{8}7/8-4[8:1],8,8/1-5[8:1],1,
1/2-4[8:1],2,2/1<6p5b[8:3],1,1b,2x,3x,4x,
4v6[8:1],6<2[8:1],5,5,5v3b[8:1],3>7b[8:1],4,4,
4,4h[8:5],{32}E6,E5,E4,E3,E2,E1,E8,E7,D6,D5,D4,D3,D2,D1,D8,D7,{4}6xh[8:1],
{8}2,2h[8:1],{16},,2,1,3,8,4,7,{8}5-3[8:1],{16}6,6,
{8}5-2[8:1],E8,5-1[8:1],B7,5,B6,B2/E3/B3,B7/E7/B6,
1>4[8:1],7-3b[8:1],1-6[8:1],7,1-3[8:1],4-8b[8:1],1-5[8:1],4,
1-4[8:1],7-3b[8:1],1-6[8:1],7,{4}1b,{8}5v2[8:1],5,
{4}6/5<8[8:1],5/1>4[8:1],{8}7q4[8:1],7,8-5[8:1],8,
1-4[8:1],1,2p5[8:1],2,7-5-8-4b[4:1],8,1,2,
2x<6[8:1],2xv4[8:1],2x,2x,3x>7b[8:1],3xv5b[8:1],3x,3x,
{4}6xh[4:1],{32}E6,E7,E8,E1,E2,E3,E4,E5,5x,6x,7x,8x,1x,2x,3x,4x,{16}6,5,7,8,
{8}1b>4[8:1],3,7/1-5[8:1],8,3/1<6[8:1],2,1/4,5,
5h[8:1],{16}6,5,6q3[4:1],5,6,5,{8}6,5,6,7,
8-6[8:1],4-2[8:1],8-5[8:1],4-8[8:1],8V26[4:1],4,{4}7xh[8:1],
{8}7-1[8:1],3-5[8:1],7-4[8:1],3-7[8:1],7V15[4:1],3,{4}6xh[8:1],
{8}6-8[8:1],2-4[8:1],6-4[8:1],2-6[8:1],6V84[4:1],2,{4}5xh[8:1],
{8}5,2bx,4/3,8b,5/7,1b,2/4h[8:1],3,
4/2s6[4:1],5,6,7,8z4[4:1],4,3,2,
{4}1h[8:1],{8}1qq7[4:1]*pp2[4:1],8/2,{2}1,
1>3v5[4:1],8>2v4[4:1],
{4}1h[8:1],6h[8:1]/2h[8:1],3/7h[8:3],{8}2,1,
{4}B7/A7/E8f/A8/D8/B8,{16}2,1,3,8,4,4,7,7,5,5,6,6,
8,7,1,6,3,4,2,5,1,1,8,8,7,7,6,6,
2,3,4h[16:1],2,3,4h[16:1],2,3,4h[16:1],2,3,4h[16:1],1,1,8,1,
7,6,5h[16:1],7,6,5h[16:1],7,6,{8}5b/4b,5b/4b,{16}1,8,2,7,
{4}3xh[8:1]/6xh[16:3],{16}3,8,2,4,1,6,5,7,1,5,3,1,
E3,E1,E4,E8,{4}Cfh[8:1],5h[8:1]/6h[8:1],4h[8:1]/7h[8:1],
3b/8bh[4:1],{8}3-6[8:1],2,3/8-5[8:1],1,8/3-6[8:1],2,
3/8-5[8:1],1,8/2-7[8:1],3,2/1-4[8:1],8,1/2-7[8:1],3,
2/1,8,7x,6/2>5[8:1],8,2b/7-4[8:1],1,7b/2-5[8:1],
8,2b/7<4[8:1],1,7b/2,{4}8xh[8:1],{16}8,4,1,5,
2,6,{8}3,7qq5[8:1]/3qq1[8:1],8/4,{4}7/3,2h[8:1]/6h[8:1],
3/5h[8:1],5/7h[8:1],7/1h[8:1],{8}1/3h[8:1],1,
{4}2h[8:1]/8h[8:1],{8}1h[32:1]/E6,2h[32:1]/E7,3h[32:1]/E8,4h[32:1]/E1,5h[32:1]/E2,6h[32:1]/E3,
{4}7h[4:1]/E4f,8h[4:1],{2}1w5[16:3],
{4}3,3h[4:1],{8}6h[4:1],3,{4}4,
{8}6h[4:1],5,{4}4>3<4[8:1],{2}4/3h[4:1],
{16}6/E2,E3,7/E4,E5,{4}8h[4:1]/E6,B4,7/B3,
{16}6/D2,D3,7/D4,D5,{4}8/D6,{2}8h[4:1]/Ch[4:1],
{8}5/C,6,5/C,4,5/C,6,5/C,4,
{16}5/A8,A1,6/A2,A3,{4}7/A4,{2}7h[4:1]/Ch[4:1],
{8}8x/4x-2[8:1],7x,6x,5,1x/5x-7[8:1],2x,3x,4,
4h[4:1],8h[4:1],,2h[4:1],{2}Cfh[4:1],
{8}1-5[4:1],6,7,8,1-5[4:1],4,3,2,
1-5[4:1],{16}D4,D5,D6,D7,D8,D1,{8}1x-5[4:1],3,3,2,
{4}1-5[4:1],7h[8:1],1-5[4:1],3h[8:1],
1-5[4:1],6h[8:1],1-5[4:1],4h[8:1],
{8}1-5[4:1],E5,B6,B8,1x-5[4:1],E6,B4,B2,
1x-5[4:1],B7,B3,B7,1-5[4:1],B2,B8,B2,
1x-5[4:1],5x,7,8,1-5[4:1],5x,3,2,
1-5[4:1],4,6,8,{4}2h[4:1],Ch[4:1],
{8}8-4b[4:1],3,2,1,8-4b[4:1],5,6,7,
{4}8-4b[4:1],{8}B2,B1,8-4b[4:1],6,6,7,
{4}8-4b[4:1],{16}A4,A3,A2,A1,{8}8x-4b[4:1],{16}E3,E4,E5,E6,E7,E8,
{8}8x-4b[4:1],{16}A6,A5,{32}A4,D4,A3,D3,{16}A2,A1,{8}8x-4b[4:1],{16}E3,E4,E5,E6,E7,E8,
{8}8x-4b[4:1],{16}5,4,3,2,{8}1,8x-4b[4:1],{16}3,4,5,6,{8}7,
8x-4b[4:1],{16}6,5,4,3,{8}2x,8x-4b[4:1],7x/1x,{16},,,,8-4b[4:1],
,,5x,5x,4x,3x,2x,{8}8x-4b[4:1],{16}2x,3x,4x,5x,6x,7x,
{8}8x-4b[4:1],{16}3x,2x,{8}1x,1x,{4}7x>3[4:1],3xv5[1:1],
{1}4bh[1:1],
E
