&title=レグルス (feat. 望月穗波&KAITO&星乃一歌&天馬咲希&日野森志步)
&artist=Leo/need/KAITO/ゆうゆ
&first=0.035
&des=Yui
&des_5=Yui
&lv_5=13.5
&inote_5=(146){4},{8},,,,,,6/5,
4/2,{16}2,4,2,4,,6,{8}5,{16}2,4,3,4,
{4}3>6[4:1]*p6[4:1],3,,4,
{8}6h[8:3],{16},,,,3,4,{8}3h[8:3],{16},,,,7,5,
{8}6h[8:3],{16},,,,1,4,{4}3h[4:1],5,
{8}6/4,6/4,5/7,7/5,8/6,8/6,3/1,3/1,
{16}2h[16:3],,,6h[16:3],,,{8}4h[8:1],{24},,,7x,6x,5x,{4}4x/Cf,
3h[4:1],4,{8}3,4,{4}5/3,
6h[4:1],4,{8}6,4,{4}3/6,
{8}5/4,{16}2,4,{8}2,{16}6,5,7,5,{8}6<8[8:1],6,{16}2,3,
4,,,5/7,,,{8}2/1,3/5,{24}7,8,7,{4}8,
1>4[4:1],4p8[4:1],8<5[4:1],5,
8<5[4:1],5p1[4:1],1>4[4:1],4>7[16:5],
{16}5b,,,3b,,,{8}1bv6[8:1]*v4[8:1],,,,2/7,
{1}2q4[2:1]/7p5[2:1],
{16}2xh[8:1]/4xh[8:1],,,5xh[8:1]/3xh[8:1],,,{8}4x/6x,{24},,{12}2,4,3,,3,
{6}5,{12}5,7,,7,{6}1,{12}1,3,{48},,,,,,,,{16}7xh[8:1]/5xh[8:1],
,,4xh[8:1]/6xh[8:1],,,{8}5x/3x,{24},,{12}7,5,6,3,5,
4,7,5,6,4,5,{4}4-1[8:1]*-7[8:1],4b,
{8}6b/2h[8:3],{16},,,,6,3/7,4/8h[8:5],,,3,,,{8}4,
,2,2/8,1-6[8:1],,1-5[8:1],,1/8,
8,{16}7V53[4:1],7h[16:9],,,,,,,,,,,1,8,
{8}1,{16}2>4-6[4:1],2h[16:9],,,,,,,,,{8}8,7/2,
,1/5,2,3/7,6,2/5,3,4/8,
{4}1-5[8:1]/8-4[8:1],8b/1b,{8},,,7,
{16}8/6,,,2,,,{8}2x-4[8:1],1-5[8:1],2<4[8:3],1,2b,
{16},,D1,D8,D7,D6,{8}D5,{16}D1,D2,D3,D4,{8}D5,3,
{16}4/2,,,1,,,{8}7-5[8:1],8-4[8:1],7-3[8:1],8,7,
{16},,1,2,{8}3,{16}7,6,{8}5,{16}2,3,{8}4,5,
4/6qq4<1[8:5],{16}3,3,,,{8}1,,2,3-8[8:1],4,
,,2,3/1,8,7/1,8/6,7/5,
6/4,{16}3,4,{8}3,5-3-1-7[8:3],,7b/5,{16},6b,,,{8}5b,
{16}D2,D8,D3,D7,D4,D6,{8}C,,,4,
4/2,{16}6<4[8:3],5,,,{8}6/1,{16}4p6[4:1],,,5,,,{8}3,
,,6/5,5/6h[4:1],,4,3/7,2,
1/7,{16}2-4-8[4:1]/7-5-1[4:1],2/7,,,{8}2/7,,A8f/A1f/D1,,2b/7b,
,,,,,,,,{4}2h[8:3],
{8}5>3[16:3],5,,E8,{4}B8,
6h[8:3],{8}3<6[16:3],3,,,,2/1,
3/8,4/7,1/8,2/7,3/6,8/7,1/6,2/5,
,,{4}Cfh[2:1],,,2>5[8:1],
{8}2/8,7-4[8:1],,7/2,{4}3>8[8:1],
{8}3/4,5-1[8:1],,5/2,{4}3-7[8:1],{8}3/5,5bs1[8:3],
,,,,,,1b/5b,3b/7b,
,,,,,,,,{2}3pp6[1:1],
E8,
B8,7pp2[1:1],
{8}B4/E5,,,3,{2}3,
{16}6,,,6h[16:3],,,{8}4,3b/7,,,3,
3,{16}2x-6-3-8[8:3],2xh[16:11],,,,,,,,,,,8,1,
{8}8,{16}7x-1-4-6-3[8:3],7xh[16:9],,,,,,,,,,,{8}7,
{16},,1,8,1,7,1,6,1,5,1,4,1,3,1,2,
{4}1w5[4:5]*w5[4:5],1b,{8},,,,,,,,,,,4/8,
{1}1p3>8[4:3]/5p7<4[4:3],
{16},,1,4,3,4,{8}2,{16}8,5,6,5,{8}7,{16}3,4,
2b-5[32:3],,,8b-3[32:3],,,{8}6b<4b[8:3],,4b,5b,6b,
{16},,2/5,2/5,{8}2x/5x,{16}7/4,7/4,{8}4x/7x,{16}5/1,5/1,{8}5x/1x,3,
4/2,{16}4-6-8-2[4:1],3,{8}5,4/7h[4:1],,,8-4[8:1],2/1,
,,1-3[8:1],7-3[8:1],1-5[8:1],7-5[8:1],1>5[4:1],7,
1,{16}6,7,{8}8,8x<5[8:1],{32},,,,4x/8x,3x,2x,1x,,,2xpp1[16:5]/6xpp5[16:5],3x/7x,{8}4x/8x,
{32}4x/8x,3x/7x,{16}2x/6x,,,,,,,{2}2b/6b,
{4}1b>5[4:1],5b<1[4:1],1b>5[4:1],5b<1[4:1],
1b-7-5b[4:1],5b-3-1b[4:1],1b-7-5b[4:1],5b,
{8}8,{16}3pp5[4:1],4,,,{8}3/5>1[4:1],,8,7,8bxw4[4:1],
,,,,,,,,{2}2/E7f/B7/B6,
7/B2/B3/E3f,
{4}1/8,{8}2p6[8:1],6p2[8:1],,,,8p4[8:1],
1,8,2-5[8:1],1,2,7-4[8:1],8,7,
{32},,,,,,,,1b,8,7,6,5,4,3,2,1,8,7,6,5,4,3,2,1,8,7,6,5,4,3,2,
{4}1b-5[8:1],{8}1/8,8-4[8:1],,7/8,{4}7-3[8:1],
{8}7/6,6-2[8:1],,6/5,{4}5-1[8:1],{8}5/4,3b-7b[8:1],
,3/2,{4}1b-5b[8:1],{8}1/8,7b-3b[8:1],,7/6,
{4}5b-1b[8:1],{8}5/4,3b-7b[8:1],,3/4,5,6/4>8[8:3],
,8,7,6,5,4,E2,E6,
E
